<?xml version="1.0" standalone="no"?>
<!DOCTYPE svg PUBLIC "-//W3C//DTD SVG 1.1//EN" "http://www.w3.org/Graphics/SVG/1.1/DTD/svg11.dtd" >
<svg xmlns="http://www.w3.org/2000/svg" xmlns:xlink="http://www.w3.org/1999/xlink" version="1.1">
<metadata>
Created by FontForge 20160407 at Thu Jul  7 22:50:03 2016
 By Jimmy Warting
Copyright (c) Village Type &#38; Design LLC, 2004. All rights reserved.
</metadata>
<defs>
<font id="TiemposText-BoldItalic" horiz-adv-x="600" >
  <font-face 
    font-family="Tiempos Text Bold Italic"
    font-weight="700"
    font-style="italic"
    font-stretch="normal"
    units-per-em="1000"
    panose-1="2 2 8 3 6 3 3 13 4 3"
    ascent="761"
    descent="-239"
    x-height="559"
    cap-height="702"
    bbox="-189 -250 1331 1061"
    underline-thickness="30"
    underline-position="-110"
    slope="-12"
    stemh="73"
    stemv="194"
    unicode-range="U+0020-FB04"
  />
<missing-glyph horiz-adv-x="960" 
 />
    <glyph glyph-name="fi" unicode="fi" horiz-adv-x="707" 
d="M48 482l12 53l82 20c45 135 138 215 292 215c84 0 165 -24 165 -89c0 -33 -19 -55 -54 -66h-92c8 57 2 105 -40 105c-46 0 -86 -54 -93 -173h239l68 12h38l-103 -409c-5 -19 -8 -33 -8 -41c0 -10 5 -15 14 -15c19 0 44 27 80 73l31 -27c-66 -95 -126 -150 -201 -150
c-63 0 -104 40 -104 94c0 27 5 52 13 86l76 312h-151l-50 -235c-74 -346 -178 -454 -316 -454c-76 0 -127 31 -127 81c0 48 36 74 79 79h28c1 -64 13 -116 43 -116c32 0 41 44 64 165l90 480h-75z" />
    <glyph glyph-name="fl" unicode="fl" horiz-adv-x="706" 
d="M48 482l12 53l82 20c44 135 137 215 273 215c52 0 94 -15 122 -37l141 28h35l-150 -611c-5 -19 -7 -33 -7 -41c0 -10 5 -15 14 -15c19 0 43 27 79 73l31 -27c-66 -95 -126 -150 -201 -150c-63 0 -104 40 -104 94c0 27 5 52 13 86l108 454c-12 68 -42 96 -79 96
c-50 0 -90 -54 -97 -173h90l-13 -65h-85l-50 -235c-74 -346 -178 -454 -316 -454c-76 0 -127 31 -127 81c0 48 36 74 79 79h28c1 -64 13 -116 43 -116c32 0 41 44 64 165l90 480h-75z" />
    <glyph glyph-name="ff" unicode="ff" horiz-adv-x="717" 
d="M364 13l88 469h-140l-50 -235c-70 -330 -182 -454 -316 -454c-76 0 -127 31 -127 81c0 48 36 74 79 79h28c1 -64 13 -116 43 -116c32 0 41 44 64 165l90 480h-75l12 53l82 20c44 132 136 203 266 203c54 0 110 -19 148 -50c43 40 100 62 174 62c79 0 147 -24 147 -89
c0 -33 -19 -59 -54 -70h-62c8 57 5 109 -35 109s-70 -54 -77 -173h124l-13 -65h-119l-48 -224c-74 -346 -178 -454 -316 -454c-63 0 -98 31 -98 77c0 43 30 73 73 78h22c1 -64 1 -111 26 -111c32 0 41 44 64 165zM417 708c-50 0 -90 -42 -97 -161h147c8 26 17 51 27 73
c-13 62 -42 88 -77 88z" />
    <glyph glyph-name="ffi" unicode="ffi" horiz-adv-x="1036" 
d="M364 13l88 469h-140l-50 -235c-70 -330 -182 -454 -316 -454c-76 0 -127 31 -127 81c0 48 36 74 79 79h28c1 -64 13 -116 43 -116c32 0 41 44 64 165l90 480h-75l12 53l82 20c44 132 136 203 266 203c57 0 117 -21 155 -56c50 44 116 68 200 68s165 -24 165 -89
c0 -33 -19 -55 -54 -66h-92c8 57 2 105 -40 105c-46 0 -86 -54 -93 -173h239l68 12h38l-103 -409c-5 -19 -8 -33 -8 -41c0 -10 5 -15 14 -15c19 0 44 27 80 73l31 -27c-66 -95 -126 -150 -201 -150c-63 0 -104 40 -104 94c0 27 5 52 13 86l76 312h-151l-48 -224
c-74 -346 -178 -454 -316 -454c-63 0 -98 31 -98 77c0 43 30 73 73 78h22c1 -64 1 -111 26 -111c32 0 41 44 64 165zM417 708c-50 0 -88 -42 -97 -161h148c7 24 17 47 27 67c-12 66 -42 94 -78 94z" />
    <glyph glyph-name="ffl" unicode="ffl" horiz-adv-x="1035" 
d="M726 482h-85l-48 -224c-74 -346 -178 -454 -316 -454c-63 0 -98 31 -98 77c0 43 30 73 73 78h22c1 -64 1 -111 26 -111c32 0 41 44 64 165l88 469h-140l-50 -235c-70 -330 -182 -454 -316 -454c-76 0 -127 31 -127 81c0 48 36 74 79 79h28c1 -64 13 -116 43 -116
c32 0 41 44 64 165l90 480h-75l12 53l82 20c44 132 136 203 266 203c57 0 116 -21 154 -55c47 43 108 67 182 67c52 0 94 -15 122 -37l141 28h35l-150 -611c-5 -19 -7 -33 -7 -41c0 -10 5 -15 14 -15c19 0 43 27 79 73l31 -27c-66 -95 -126 -150 -201 -150
c-63 0 -104 40 -104 94c0 27 5 52 13 86l108 454c-12 68 -42 96 -79 96c-50 0 -90 -54 -97 -173h90zM468 547c7 24 17 47 27 68c-12 66 -42 93 -78 93c-50 0 -90 -42 -97 -161h148z" />
    <glyph glyph-name="f_b" unicode="fb" horiz-adv-x="1000" 
d="M48 482l12 53l82 20c44 135 137 215 273 215c52 0 94 -15 122 -37l141 28h35l-75 -303l-57 -157h7c49 105 139 258 253 258c92 0 133 -68 133 -176c0 -186 -139 -393 -374 -393c-107 0 -197 52 -221 151l117 483c-12 68 -42 96 -79 96c-50 0 -90 -54 -97 -173h90l-13 -65
h-85l-50 -235c-74 -346 -178 -454 -316 -454c-76 0 -127 31 -127 81c0 48 36 74 79 79h28c1 -64 13 -116 43 -116c32 0 41 44 64 165l90 480h-75zM749 438c-66 0 -166 -166 -203 -334c3 -35 27 -58 59 -58c105 0 188 189 188 319c0 44 -13 73 -44 73z" />
    <glyph glyph-name="f_f_b" unicode="ffb" horiz-adv-x="1329" 
d="M726 482h-85l-48 -224c-74 -346 -178 -454 -316 -454c-63 0 -98 31 -98 77c0 43 30 73 73 78h22c1 -64 1 -111 26 -111c32 0 41 44 64 165l88 469h-140l-50 -235c-70 -330 -182 -454 -316 -454c-76 0 -127 31 -127 81c0 48 36 74 79 79h28c1 -64 13 -116 43 -116
c32 0 41 44 64 165l90 480h-75l12 53l82 20c44 132 136 203 266 203c57 0 116 -21 154 -55c47 43 108 67 182 67c52 0 94 -15 122 -37l141 28h35l-75 -303l-57 -157h7c49 105 139 258 253 258c92 0 133 -68 133 -176c0 -186 -139 -393 -374 -393c-107 0 -197 52 -221 151
l117 483c-12 68 -42 96 -79 96c-50 0 -90 -54 -97 -173h90zM1078 438c-66 0 -166 -166 -203 -334c3 -35 27 -58 59 -58c105 0 188 189 188 319c0 44 -13 73 -44 73zM468 547c7 24 17 47 27 68c-12 66 -42 93 -78 93c-50 0 -90 -42 -97 -161h148z" />
    <glyph glyph-name="f_h" unicode="fh" horiz-adv-x="1024" 
d="M48 482l12 53l82 20c44 135 137 215 273 215c52 0 94 -15 122 -37l141 28h35l-74 -302l-52 -160h7c100 172 193 260 287 260c55 0 86 -35 86 -88c0 -13 -3 -31 -6 -44l-75 -277c-5 -19 -9 -33 -9 -41c0 -10 5 -15 14 -15c19 0 43 27 80 73l31 -27
c-67 -95 -127 -150 -201 -150c-64 0 -106 40 -106 94c0 27 4 52 14 86l64 220c3 13 5 25 5 33c0 11 -4 18 -17 18c-37 0 -154 -141 -197 -306l-35 -135h-182l149 624c-12 68 -42 96 -79 96c-50 0 -90 -54 -97 -173h90l-13 -65h-85l-50 -235c-74 -346 -178 -454 -316 -454
c-76 0 -127 31 -127 81c0 48 36 74 79 79h28c1 -64 13 -116 43 -116c32 0 41 44 64 165l90 480h-75z" />
    <glyph glyph-name="f_f_h" unicode="ffh" horiz-adv-x="1353" 
d="M726 482h-85l-48 -224c-74 -346 -178 -454 -316 -454c-63 0 -98 31 -98 77c0 43 30 73 73 78h22c1 -64 1 -111 26 -111c32 0 41 44 64 165l88 469h-140l-50 -235c-70 -330 -182 -454 -316 -454c-76 0 -127 31 -127 81c0 48 36 74 79 79h28c1 -64 13 -116 43 -116
c32 0 41 44 64 165l90 480h-75l12 53l82 20c44 132 136 203 266 203c57 0 116 -21 154 -55c47 43 108 67 182 67c52 0 94 -15 122 -37l141 28h35l-74 -302l-52 -160h7c100 172 193 260 287 260c55 0 86 -35 86 -88c0 -13 -3 -31 -6 -44l-75 -277c-5 -19 -9 -33 -9 -41
c0 -10 5 -15 14 -15c19 0 43 27 80 73l31 -27c-67 -95 -127 -150 -201 -150c-64 0 -106 40 -106 94c0 27 4 52 14 86l64 220c3 13 5 25 5 33c0 11 -4 18 -17 18c-37 0 -154 -141 -197 -306l-35 -135h-182l149 624c-12 68 -42 96 -79 96c-50 0 -90 -54 -97 -173h90zM468 547
c7 24 17 47 27 68c-12 66 -42 93 -78 93c-50 0 -90 -42 -97 -161h148z" />
    <glyph glyph-name="f_idieresis" unicode="f&#xef;" horiz-adv-x="707" 
d="M48 482l12 53l80 20c38 137 110 223 267 223c82 0 168 -25 168 -93c0 -35 -19 -65 -54 -76h-102c8 57 15 119 -22 119c-40 0 -70 -62 -77 -181h239l68 12h38l-103 -409c-5 -19 -8 -33 -8 -41c0 -10 5 -15 14 -15c19 0 44 27 80 73l31 -27c-66 -95 -126 -150 -201 -150
c-63 0 -104 40 -104 94c0 27 5 52 13 86l76 312h-151l-50 -235c-74 -346 -178 -454 -316 -454c-76 0 -127 31 -127 81c0 48 36 74 79 79h28c1 -64 13 -116 43 -116c32 0 41 44 64 165l90 480h-75zM703 602c-54 0 -86 39 -86 83c0 49 34 93 92 93c54 0 86 -38 86 -82
c0 -50 -34 -94 -92 -94z" />
    <glyph glyph-name="f_f_idieresis" unicode="ff&#xef;" horiz-adv-x="1036" 
d="M33 2l90 480h-75l12 53l82 20c44 132 136 203 266 203c52 0 106 -17 144 -46c43 42 102 66 184 66s168 -25 168 -93c0 -35 -19 -65 -54 -76h-102c8 57 15 119 -22 119c-40 0 -70 -62 -77 -181h239l68 12h38l-103 -409c-5 -19 -8 -33 -8 -41c0 -10 5 -15 14 -15
c19 0 44 27 80 73l31 -27c-66 -95 -126 -150 -201 -150c-63 0 -104 40 -104 94c0 27 5 52 13 86l76 312h-151l-48 -224c-74 -346 -178 -454 -316 -454c-63 0 -98 31 -98 77c0 43 30 73 73 78h22c1 -64 1 -111 26 -111c32 0 41 44 64 165l88 469h-140l-50 -235
c-70 -330 -182 -454 -316 -454c-76 0 -127 31 -127 81c0 48 36 74 79 79h28c1 -64 13 -116 43 -116c32 0 41 44 64 165zM1032 602c-54 0 -86 39 -86 83c0 49 34 93 92 93c54 0 86 -38 86 -82c0 -50 -34 -94 -92 -94zM467 547c7 28 16 53 26 77c-13 59 -42 84 -76 84
c-50 0 -88 -42 -97 -161h147z" />
    <glyph glyph-name="f_j" unicode="fj" horiz-adv-x="668" 
d="M33 2l90 480h-75l12 53l82 20c45 135 138 215 292 215c84 0 165 -24 165 -89c0 -33 -19 -55 -54 -66h-92c8 57 2 105 -40 105c-46 0 -86 -54 -93 -173h239l68 12h38l-113 -449c-59 -236 -164 -306 -281 -306c-63 0 -98 31 -98 77c0 43 30 73 73 78h22
c1 -64 1 -111 26 -111c32 0 35 46 62 166l107 468h-151l-50 -235c-74 -346 -178 -454 -316 -454c-76 0 -127 31 -127 81c0 48 36 74 79 79h28c1 -64 13 -116 43 -116c32 0 41 44 64 165z" />
    <glyph glyph-name="f_f_j" unicode="ffj" horiz-adv-x="997" 
d="M364 13l88 469h-140l-50 -235c-70 -330 -182 -454 -316 -454c-76 0 -127 31 -127 81c0 48 36 74 79 79h28c1 -64 13 -116 43 -116c32 0 41 44 64 165l90 480h-75l12 53l82 20c44 132 136 203 266 203c57 0 117 -21 155 -56c50 44 116 68 200 68s165 -24 165 -89
c0 -33 -19 -55 -54 -66h-92c8 57 2 105 -40 105c-46 0 -86 -54 -93 -173h239l68 12h38l-113 -449c-59 -236 -164 -306 -281 -306c-63 0 -98 31 -98 77c0 43 30 73 73 78h22c1 -64 1 -111 26 -111c32 0 35 46 62 166l107 468h-151l-48 -224c-74 -346 -178 -454 -316 -454
c-63 0 -98 31 -98 77c0 43 30 73 73 78h22c1 -64 1 -111 26 -111c32 0 41 44 64 165zM417 708c-50 0 -88 -42 -97 -161h148c7 24 17 47 27 67c-12 66 -42 94 -78 94z" />
    <glyph glyph-name="f_k" unicode="fk" horiz-adv-x="988" 
d="M48 482l12 53l82 20c44 135 137 215 273 215c52 0 94 -15 122 -37l141 28h35l-185 -761h-182l150 624c-12 68 -42 96 -79 96c-50 0 -90 -54 -97 -173h90l-13 -65h-85l-50 -235c-74 -346 -178 -454 -316 -454c-76 0 -127 31 -127 81c0 48 36 74 79 79h28
c1 -64 13 -116 43 -116c32 0 41 44 64 165l90 480h-75zM758 373l70 -186c14 -39 25 -66 47 -66c20 0 33 8 64 47l28 -27c-67 -107 -115 -151 -182 -151c-55 0 -86 35 -110 102l-65 179l153 186c64 77 97 102 140 102c53 0 79 -39 79 -78c0 -48 -28 -78 -74 -93h-22
c0 33 -9 58 -37 58c-23 0 -45 -13 -80 -59z" />
    <glyph glyph-name="f_f_k" unicode="ffk" horiz-adv-x="1317" 
d="M726 482h-85l-48 -224c-74 -346 -178 -454 -316 -454c-63 0 -98 31 -98 77c0 43 30 73 73 78h22c1 -64 1 -111 26 -111c32 0 41 44 64 165l88 469h-140l-50 -235c-70 -330 -182 -454 -316 -454c-76 0 -127 31 -127 81c0 48 36 74 79 79h28c1 -64 13 -116 43 -116
c32 0 41 44 64 165l90 480h-75l12 53l82 20c44 132 136 203 266 203c57 0 116 -21 154 -55c47 43 108 67 182 67c52 0 94 -15 122 -37l141 28h35l-185 -761h-182l150 624c-12 68 -42 96 -79 96c-50 0 -90 -54 -97 -173h90zM1087 373l70 -186c14 -39 25 -66 47 -66
c20 0 33 8 64 47l28 -27c-67 -107 -115 -151 -182 -151c-55 0 -86 35 -110 102l-65 179l153 186c64 77 97 102 140 102c53 0 79 -39 79 -78c0 -48 -28 -78 -74 -93h-22c0 33 -9 58 -37 58c-23 0 -45 -13 -80 -59zM468 547c7 24 17 47 27 68c-12 66 -42 93 -78 93
c-50 0 -90 -42 -97 -161h148z" />
    <glyph glyph-name=".notdef" horiz-adv-x="960" 
 />
    <glyph glyph-name="space" unicode=" " horiz-adv-x="200" 
 />
    <glyph glyph-name="exclam" unicode="!" horiz-adv-x="334" 
d="M33 93c0 58 45 104 100 104c56 0 100 -46 100 -104c0 -56 -44 -102 -100 -102c-55 0 -100 46 -100 102zM375 702l-177 -463h-87l58 463h206z" />
    <glyph glyph-name="quotedbl" unicode="&#x22;" horiz-adv-x="463" 
d="M168 447h-36l4 148c2 61 0 112 26 143c15 18 38 32 72 32c54 0 70 -35 70 -66c0 -43 -29 -73 -50 -109zM385 447h-36l4 148c2 61 0 112 26 143c15 18 38 32 72 32c54 0 70 -35 70 -66c0 -43 -29 -73 -50 -109z" />
    <glyph glyph-name="numbersign" unicode="#" horiz-adv-x="589" 
d="M532 209h-131l-79 -219l-72 26l70 193h-122l-79 -219l-72 26l70 193h-77v71h102l52 142h-105v71h130l80 219l72 -26l-70 -193h121l80 219l72 -26l-70 -193h77v-71h-103l-51 -142h105v-71zM275 422l-51 -142h121l52 142h-122z" />
    <glyph glyph-name="dollar" unicode="$" horiz-adv-x="588" 
d="M193 -113l22 106c-94 10 -167 51 -199 92l27 156h91c3 -93 35 -159 95 -180l43 205c-3 1 -5 3 -7 4c-117 56 -171 121 -171 217c0 142 115 225 270 225l22 102h54l-22 -105c79 -10 133 -39 170 -72l-30 -147h-79c-8 65 -24 124 -76 147l-40 -193c1 0 2 -1 3 -1
c118 -58 184 -109 184 -218c0 -158 -136 -232 -281 -235l-21 -103h-55zM380 150c0 39 -16 64 -59 90l-39 -186c58 2 98 35 98 96zM254 558c0 -39 19 -63 60 -88l37 177c-61 0 -97 -38 -97 -89z" />
    <glyph glyph-name="percent" unicode="%" horiz-adv-x="930" 
d="M301 664c-48 0 -97 -98 -97 -213c0 -42 12 -68 37 -68c48 0 97 98 97 213c0 42 -12 68 -37 68zM133 -19l606 741h78l-608 -741h-76zM235 335c-85 0 -157 47 -157 141c0 157 124 236 229 236c85 0 157 -47 157 -141c0 -157 -124 -236 -229 -236zM648 39c48 0 97 98 97 213
c0 42 -12 68 -37 68c-48 0 -97 -98 -97 -213c0 -42 12 -68 37 -68zM714 368c85 0 157 -47 157 -141c0 -157 -124 -236 -229 -236c-85 0 -157 47 -157 141c0 157 124 236 229 236z" />
    <glyph glyph-name="ampersand" unicode="&#x26;" horiz-adv-x="768" 
d="M23 177c0 111 84 179 210 212c-17 32 -34 76 -34 125c0 114 93 198 243 198c124 0 196 -56 196 -141c0 -94 -93 -147 -197 -179l115 -178c17 28 28 59 28 91c0 20 -11 28 -39 28l12 67h216l-12 -67c-71 0 -93 -15 -118 -72c-15 -34 -34 -65 -57 -95l30 -45
c25 -38 45 -52 91 -52l-12 -69h-196c-21 15 -37 31 -52 46c-63 -35 -135 -56 -209 -56c-119 0 -215 63 -215 187zM348 80c19 0 41 4 63 13c-7 10 -14 21 -20 32l-133 221c-40 -27 -55 -75 -55 -122c0 -76 49 -144 145 -144zM357 578c0 -54 32 -105 52 -136l4 -6
c47 24 79 63 79 136c0 52 -24 82 -68 82c-42 0 -67 -31 -67 -76z" />
    <glyph glyph-name="quoteright" unicode="&#x2019;" horiz-adv-x="324" 
d="M259 592h-37c-45 10 -73 36 -73 86c0 51 34 92 98 92s109 -44 109 -121c0 -104 -88 -191 -240 -191v59c70 8 134 26 143 75z" />
    <glyph glyph-name="parenleft" unicode="(" horiz-adv-x="388" 
d="M66 204c0 219 134 427 312 566h103c-212 -185 -274 -441 -274 -589c0 -132 22 -235 85 -322h-96c-83 89 -130 218 -130 345z" />
    <glyph glyph-name="parenright" unicode=")" horiz-adv-x="388" 
d="M359 425c0 -219 -134 -427 -312 -566h-103c212 185 274 441 274 589c0 132 -22 235 -85 322h96c83 -89 130 -218 130 -345z" />
    <glyph glyph-name="asterisk" unicode="*" horiz-adv-x="500" 
d="M424 369l-92 146l-14 -172l-111 33l80 151l-155 -73l-27 113l171 6l-141 98l84 81l92 -147l13 172l112 -33l-81 -151l156 73l27 -113l-171 -6l141 -98z" />
    <glyph glyph-name="plus" unicode="+" horiz-adv-x="603" 
d="M321 594h93l-39 -183h184l-20 -93h-183l-39 -184h-93l39 184h-184l21 93h182z" />
    <glyph glyph-name="comma" unicode="," horiz-adv-x="310" 
d="M136 15h-35c-45 10 -73 36 -73 86c0 51 34 92 98 92s109 -44 109 -121c0 -107 -100 -211 -252 -211v61c73 4 141 29 153 93z" />
    <glyph glyph-name="hyphen" unicode="-" horiz-adv-x="360" 
d="M306 247h-260l25 116h260z" />
    <glyph glyph-name="period" unicode="." horiz-adv-x="310" 
d="M23 97c0 63 48 108 107 108c60 0 108 -45 108 -108s-48 -107 -108 -107c-59 0 -107 44 -107 107z" />
    <glyph glyph-name="slash" unicode="/" horiz-adv-x="442" 
d="M527 770l-471 -911h-108l470 911h109z" />
    <glyph glyph-name="zero" unicode="0" horiz-adv-x="681" 
d="M303 63c116 0 177 307 177 456c0 79 -15 120 -64 120c-115 0 -177 -307 -177 -456c0 -79 15 -120 64 -120zM293 -10c-138 0 -244 104 -244 275c0 214 139 447 377 447c139 0 244 -104 244 -275c0 -214 -138 -447 -377 -447z" />
    <glyph glyph-name="one" unicode="1" horiz-adv-x="469" 
d="M377 711h62l-118 -551c-3 -12 -6 -30 -6 -44c0 -40 20 -48 99 -49l-13 -67h-408l14 67c89 1 110 11 123 71l80 376h-123l13 62l45 7c100 16 158 54 232 128z" />
    <glyph glyph-name="two" unicode="2" horiz-adv-x="555" 
d="M164 144h133c90 0 99 5 165 95h58l-81 -239h-487l12 56c315 248 394 340 394 431c0 57 -28 90 -88 90c-64 0 -115 -40 -150 -76l-33 46c54 90 147 165 271 165c128 0 193 -68 193 -174c0 -152 -184 -266 -387 -394z" />
    <glyph glyph-name="three" unicode="3" horiz-adv-x="549" 
d="M171 363c93 34 195 74 195 155c0 39 -27 66 -74 66c-48 0 -93 -27 -130 -64l-35 45c57 85 147 147 257 147s169 -57 169 -140c0 -110 -120 -165 -213 -183c97 -6 178 -76 178 -167c0 -159 -138 -232 -298 -232c-136 0 -220 65 -220 149c0 46 26 77 61 90h102
c-8 -24 -11 -39 -11 -62c0 -53 17 -116 82 -116c66 0 103 52 103 140c0 77 -48 128 -112 128c-14 0 -27 -1 -48 -5z" />
    <glyph glyph-name="four" unicode="4" horiz-adv-x="656" 
d="M114 258h219l59 279zM308 136l9 45h-317l15 63l450 458h145l-92 -444h117l-17 -77h-117l-8 -41c-2 -9 -4 -25 -4 -33c0 -30 16 -38 68 -40l-13 -67h-346l14 67c69 3 85 15 96 69z" />
    <glyph glyph-name="five" unicode="5" horiz-adv-x="546" 
d="M574 702l-47 -166h-302l-25 -72c175 -6 313 -61 313 -231c0 -154 -124 -243 -283 -243c-137 0 -224 55 -224 142c0 41 22 78 62 89h97c-6 -21 -9 -32 -9 -51c0 -67 42 -113 105 -113c73 0 102 40 102 113c0 101 -120 136 -275 138l132 394h354z" />
    <glyph glyph-name="six" unicode="6" horiz-adv-x="623" 
d="M592 666c-158 -55 -278 -139 -332 -268c43 39 98 63 156 63c114 0 190 -74 190 -194c0 -157 -129 -277 -301 -277c-145 0 -260 90 -260 264c0 239 234 419 532 458zM327 381c-35 0 -61 -12 -82 -25c-10 -38 -16 -79 -16 -124c0 -99 29 -173 93 -173c66 0 113 91 113 193
c0 69 -31 129 -108 129z" />
    <glyph glyph-name="seven" unicode="7" horiz-adv-x="536" 
d="M450 534h-229c-46 0 -74 -23 -111 -88h-59l99 256h473l-10 -45l-432 -657h-136z" />
    <glyph glyph-name="eight" unicode="8" horiz-adv-x="603" 
d="M600 553c0 -92 -82 -139 -173 -151l13 -6c80 -41 123 -99 123 -180c0 -136 -126 -226 -287 -226c-155 0 -261 69 -261 175c0 96 86 150 183 154l-9 7c-44 30 -83 87 -83 157c0 137 114 229 274 229c140 0 220 -68 220 -159zM328 247l-94 53c-51 -31 -83 -70 -83 -124
c0 -78 51 -119 131 -119c68 0 121 40 121 97c0 46 -23 64 -75 93zM319 465l70 -41c46 28 83 71 83 129c0 55 -35 92 -102 92c-62 0 -110 -37 -110 -95c0 -39 20 -62 59 -85z" />
    <glyph glyph-name="nine" unicode="9" horiz-adv-x="623" 
d="M70 36c158 55 277 138 331 267c-43 -38 -98 -62 -155 -62c-114 0 -190 74 -190 194c0 157 129 277 301 277c145 0 260 -90 260 -264c0 -239 -234 -419 -532 -458zM335 321c35 0 60 11 81 25c11 37 17 79 17 124c0 99 -29 173 -93 173c-66 0 -113 -91 -113 -193
c0 -69 31 -129 108 -129z" />
    <glyph glyph-name="colon" unicode=":" horiz-adv-x="310" 
d="M23 97c0 63 48 108 107 108c60 0 108 -45 108 -108s-48 -107 -108 -107c-59 0 -107 44 -107 107zM87 396c0 63 48 108 107 108c60 0 108 -45 108 -108s-48 -107 -108 -107c-59 0 -107 44 -107 107z" />
    <glyph glyph-name="semicolon" unicode=";" horiz-adv-x="310" 
d="M136 15h-35c-45 10 -73 36 -73 86c0 51 34 92 98 92s109 -44 109 -121c0 -107 -100 -211 -252 -211v61c73 4 141 29 153 93zM87 396c0 63 48 108 107 108c60 0 108 -45 108 -108s-48 -107 -108 -107c-59 0 -107 44 -107 107z" />
    <glyph glyph-name="less" unicode="&#x3c;" horiz-adv-x="462" 
d="M78 357l2 10l381 210l-22 -112l-206 -107l159 -106l-22 -104z" />
    <glyph glyph-name="equal" unicode="=" horiz-adv-x="615" 
d="M72 237l19 88h459l-18 -88h-460zM106 406l20 88h460l-20 -88h-460z" />
    <glyph glyph-name="greater" unicode="&#x3e;" horiz-adv-x="462" 
d="M433 367l-2 -10l-383 -209l24 112l205 106l-161 107l23 104z" />
    <glyph glyph-name="question" unicode="?" horiz-adv-x="478" 
d="M107 93c0 58 44 104 100 104s100 -46 100 -104c0 -56 -44 -102 -100 -102s-100 46 -100 102zM280 463c56 32 90 59 90 121c0 36 -20 64 -61 64c-55 0 -79 -49 -79 -98c0 -20 2 -31 5 -45h-110c-18 16 -29 33 -29 59c0 88 99 148 221 148c130 0 202 -66 202 -165
c0 -95 -68 -147 -137 -182c-67 -36 -121 -63 -121 -113c0 -7 1 -13 2 -19h-47c-30 23 -51 50 -51 90c0 52 33 92 115 140z" />
    <glyph glyph-name="at" unicode="@" horiz-adv-x="918" 
d="M619 77c-99 0 -128 74 -113 155h-5c-36 -75 -86 -155 -163 -155c-59 0 -105 49 -105 129c0 135 109 286 257 286c43 0 73 -21 87 -40l80 30h56l-35 -94l-51 -179c-11 -39 -4 -74 26 -74c107 0 139 171 139 253c0 136 -101 253 -272 253c-230 0 -380 -190 -380 -420
c0 -199 145 -292 322 -292c115 0 187 24 275 69l15 -33c-74 -60 -173 -102 -309 -102c-214 0 -387 129 -387 350c0 257 190 480 467 480c225 0 350 -142 350 -303c0 -149 -84 -313 -254 -313zM405 172c46 0 111 109 137 236c-8 21 -16 34 -36 34c-74 0 -131 -127 -131 -220
c0 -31 9 -50 30 -50z" />
    <glyph glyph-name="A" unicode="A" horiz-adv-x="759" 
d="M462 151l-12 63h-255l-39 -63c-9 -15 -18 -33 -18 -49c0 -22 14 -34 64 -35l-14 -67h-226l14 67c28 5 47 10 64 37l327 520l-18 79h190l128 -599c5 -25 21 -33 51 -37l-13 -67h-334l14 67c58 3 82 13 82 45c0 12 -2 25 -5 39zM391 529l-154 -247h200z" />
    <glyph glyph-name="B" unicode="B" horiz-adv-x="715" 
d="M-15 0l14 67c69 3 85 15 96 69l90 428c2 9 4 23 4 31c0 30 -16 38 -68 40l13 67h357c151 0 227 -54 227 -153c0 -121 -100 -176 -220 -186c114 -6 185 -58 185 -143c0 -150 -136 -220 -315 -220h-383zM372 326h-48l-38 -183c-4 -19 -5 -27 -5 -34c0 -33 22 -43 66 -43h7
c67 0 136 45 136 153c0 70 -36 107 -118 107zM413 631h-25l-50 -236h34c98 0 155 48 155 147c0 65 -42 89 -114 89z" />
    <glyph glyph-name="C" unicode="C" horiz-adv-x="704" 
d="M367 -10c-207 0 -310 125 -310 282c0 256 193 440 439 440c105 0 179 -32 226 -77l-34 -159h-93c-6 100 -22 166 -101 166c-147 0 -236 -212 -236 -392c0 -112 35 -185 121 -185c85 0 127 60 189 183h95l-43 -192c-68 -41 -157 -66 -253 -66z" />
    <glyph glyph-name="D" unicode="D" horiz-adv-x="791" 
d="M427 631h-39l-100 -479c-4 -18 -6 -32 -6 -42c0 -31 18 -39 57 -39h11c169 0 234 221 234 362c0 126 -48 198 -157 198zM-15 0l14 67c69 3 85 15 96 69l90 428c2 9 4 23 4 31c0 30 -16 38 -68 40l13 67h308c212 0 342 -105 342 -288c0 -244 -185 -414 -448 -414h-351z
" />
    <glyph glyph-name="E" unicode="E" horiz-adv-x="674" 
d="M-15 0l14 67c69 3 85 15 96 69l90 428c2 9 4 23 4 31c0 30 -16 38 -68 40l13 67h579l-41 -191h-71c-14 82 -30 122 -110 122h-103l-49 -236h74c44 0 66 19 89 79h64l-48 -229h-64c0 59 -12 79 -56 79h-74l-37 -177c-3 -14 -5 -26 -5 -35c0 -37 25 -45 69 -45h23
c71 0 114 37 191 137h79l-74 -206h-585z" />
    <glyph glyph-name="F" unicode="F" horiz-adv-x="629" 
d="M-15 0l14 67c69 3 85 15 96 69l90 428c2 9 4 23 4 31c0 30 -16 38 -68 40l13 67h573l-41 -192h-76c-13 82 -29 123 -110 123h-91l-52 -244h64c45 0 67 18 89 78h65l-48 -228h-65c0 61 -11 79 -56 79h-64l-35 -171c-2 -10 -4 -22 -4 -35c0 -41 29 -47 105 -49l-12 -63
h-391z" />
    <glyph glyph-name="G" unicode="G" horiz-adv-x="764" 
d="M57 272c0 255 194 440 448 440c97 0 178 -32 224 -77l-34 -159h-93c-6 100 -29 166 -107 166c-148 0 -237 -212 -237 -392c0 -112 35 -185 122 -185c36 0 54 6 77 17l31 125c2 11 4 22 4 30c0 28 -19 35 -69 37l15 70h332l-14 -70c-68 -2 -80 -14 -92 -66l-33 -140
c-70 -49 -166 -78 -264 -78c-206 0 -310 124 -310 282z" />
    <glyph glyph-name="H" unicode="H" horiz-adv-x="864" 
d="M825 566l-90 -428c-2 -9 -4 -23 -4 -31c0 -30 16 -38 69 -40l-14 -67h-350l13 67c69 3 86 15 97 69l39 190h-261l-39 -188c-2 -9 -4 -23 -4 -31c0 -30 16 -38 68 -40l-13 -67h-351l14 67c69 3 85 15 96 69l90 428c2 9 4 23 4 31c0 30 -16 38 -68 40l13 67h350l-13 -67
c-69 -3 -85 -15 -96 -69l-36 -169h261l35 167c2 9 4 23 4 31c0 30 -15 38 -68 40l14 67h350l-14 -67c-69 -3 -85 -15 -96 -69z" />
    <glyph glyph-name="I" unicode="I" horiz-adv-x="413" 
d="M375 566l-90 -428c-2 -9 -4 -23 -4 -31c0 -30 16 -38 68 -40l-13 -67h-351l14 67c69 3 85 15 96 69l90 428c2 9 4 23 4 31c0 30 -16 38 -68 40l13 67h350l-13 -67c-69 -3 -85 -15 -96 -69z" />
    <glyph glyph-name="J" unicode="J" horiz-adv-x="613" 
d="M319 192l78 372c2 9 4 23 4 31c0 30 -16 38 -68 40l13 67h351l-14 -67c-69 -3 -85 -15 -96 -69l-73 -342c-35 -163 -134 -234 -297 -234c-146 0 -218 62 -218 144c0 50 31 88 67 105h132c-17 -43 -24 -69 -24 -107c0 -34 13 -74 54 -74c49 0 73 51 91 134z" />
    <glyph glyph-name="K" unicode="K" horiz-adv-x="783" 
d="M520 415l125 -276c26 -56 44 -72 92 -73l-13 -66h-209c-28 20 -51 64 -74 120l-97 237l244 202c21 18 37 30 37 45c0 16 -12 30 -54 31l14 67h263l-13 -67c-47 -1 -64 -7 -108 -45zM375 566l-90 -428c-2 -9 -4 -23 -4 -31c0 -30 16 -38 68 -40l-13 -67h-351l14 67
c69 3 85 15 96 69l90 428c2 9 4 23 4 31c0 30 -16 38 -68 40l13 67h350l-13 -67c-69 -3 -85 -15 -96 -69z" />
    <glyph glyph-name="L" unicode="L" horiz-adv-x="664" 
d="M375 566l-88 -418c-3 -14 -5 -27 -5 -36c0 -31 20 -41 64 -41h27c64 0 90 28 197 167h84l-88 -238h-581l14 67c69 3 85 15 96 69l90 428c2 9 4 23 4 31c0 30 -16 38 -68 40l13 67h350l-13 -67c-69 -3 -85 -15 -96 -69z" />
    <glyph glyph-name="M" unicode="M" horiz-adv-x="1002" 
d="M694 156l19 332l-278 -488h-70l-73 492l-115 -324c-7 -20 -13 -43 -13 -59c0 -31 25 -39 84 -42l-13 -67h-270l15 67c56 3 78 15 95 61l159 434c11 53 -4 70 -68 73l14 67h269c0 -24 1 -43 4 -68l49 -376l216 380c14 26 22 41 30 64h273l-14 -67c-68 -3 -88 -20 -100 -73
l-24 -434c-3 -49 15 -58 71 -61l-13 -67h-372l14 67c65 4 107 15 111 89z" />
    <glyph glyph-name="N" unicode="N" horiz-adv-x="785" 
d="M605 293l56 271c2 9 4 23 4 31c0 30 -16 38 -68 40l13 67h249l-13 -67c-69 -3 -85 -15 -97 -69l-118 -566h-79l-292 507l-77 -369c-2 -9 -4 -23 -4 -31c0 -30 15 -38 68 -40l-14 -67h-248l14 67c69 3 85 15 96 69l95 449c-22 41 -36 46 -70 50l14 67h252z" />
    <glyph glyph-name="O" unicode="O" horiz-adv-x="764" 
d="M354 61c129 0 201 238 201 398c0 111 -21 182 -95 182c-129 0 -201 -238 -201 -398c0 -111 21 -182 95 -182zM350 -10c-179 0 -293 108 -293 285c0 218 161 437 407 437c179 0 293 -108 293 -285c0 -218 -161 -437 -407 -437z" />
    <glyph glyph-name="P" unicode="P" horiz-adv-x="684" 
d="M312 269l-25 -122c-2 -10 -4 -22 -4 -35c0 -41 29 -47 105 -49l-12 -63h-391l14 67c69 3 85 15 96 69l90 428c2 9 4 23 4 31c0 30 -16 38 -68 40l13 67h339c173 0 248 -72 248 -177c0 -172 -139 -256 -331 -256h-78zM388 631l-63 -297h31c90 0 173 51 173 181
c0 77 -35 116 -109 116h-32z" />
    <glyph glyph-name="Q" unicode="Q" horiz-adv-x="764" 
d="M327 -68l-32 62c-147 19 -238 123 -238 281c0 218 161 437 407 437c179 0 293 -108 293 -285c0 -185 -116 -371 -301 -423l54 -52c42 -40 69 -63 124 -63l-7 -34c-32 -22 -71 -33 -123 -33c-73 0 -134 26 -177 110zM354 61c129 0 201 238 201 398c0 111 -21 182 -95 182
c-129 0 -201 -238 -201 -398c0 -111 21 -182 95 -182z" />
    <glyph glyph-name="R" unicode="R" horiz-adv-x="762" 
d="M422 631h-38l-59 -274h33c112 0 188 41 188 160c0 74 -41 114 -124 114zM312 290l-32 -152c-2 -9 -4 -23 -4 -31c0 -30 16 -38 68 -40l-13 -67h-346l14 67c69 3 85 15 96 69l90 428c2 9 4 23 4 31c0 30 -16 38 -68 40l13 67h354c165 0 248 -61 248 -183
c0 -108 -94 -180 -195 -199l79 -179c25 -59 41 -74 96 -74l-14 -67h-217c-26 25 -45 65 -60 110l-61 180h-52z" />
    <glyph glyph-name="S" unicode="S" horiz-adv-x="589" 
d="M265 -10c-116 0 -208 48 -245 95l27 156h91c4 -114 52 -187 141 -187c62 0 105 33 105 96c0 53 -28 79 -115 120c-117 56 -171 121 -171 217c0 142 115 225 271 225c109 0 179 -35 223 -75l-30 -147h-79c-10 84 -33 157 -128 157c-61 0 -97 -38 -97 -89
c0 -53 35 -77 112 -115c118 -58 184 -109 184 -218c0 -161 -141 -235 -289 -235z" />
    <glyph glyph-name="T" unicode="T" horiz-adv-x="737" 
d="M146 702h651l-35 -235h-72c-18 112 -40 169 -120 169h-18l-103 -486c-5 -24 -6 -33 -6 -40c0 -32 23 -41 77 -43l-13 -67h-365l14 67c67 3 90 15 101 69l106 500h-19c-80 0 -115 -56 -188 -169h-75z" />
    <glyph glyph-name="U" unicode="U" horiz-adv-x="775" 
d="M598 275l62 289c2 9 4 23 4 31c0 30 -16 38 -68 40l13 67h249l-14 -67c-68 -3 -85 -15 -96 -69l-66 -320c-36 -175 -158 -256 -314 -256c-161 0 -264 77 -264 217c0 22 3 46 10 79l58 278c2 9 4 23 4 31c0 30 -16 38 -68 40l13 67h351l-14 -67c-69 -3 -85 -15 -96 -69
l-57 -269c-5 -25 -9 -50 -9 -72c0 -84 42 -132 117 -132c90 0 154 38 185 182z" />
    <glyph glyph-name="V" unicode="V" horiz-adv-x="734" 
d="M429 237l196 314c13 21 19 36 19 52c0 21 -15 29 -62 32l14 67h234l-14 -67c-30 -5 -50 -10 -67 -37l-384 -602h-56l-165 602c-7 27 -22 32 -48 37l14 67h335l-13 -67c-65 -4 -85 -20 -85 -57c0 -11 1 -19 5 -34z" />
    <glyph glyph-name="W" unicode="W" horiz-adv-x="1012" 
d="M750 254l149 280c12 23 27 47 27 70c0 20 -13 29 -61 31l14 67h229l-14 -67c-29 -5 -52 -9 -68 -37l-344 -602h-73l-56 387l-220 -387h-71l-118 602c-5 25 -23 32 -48 37l14 67h322l-14 -67c-35 -3 -71 -14 -72 -60c0 -9 1 -21 3 -34l54 -294l134 235l-14 116
c-3 23 -17 32 -42 37l14 67h315l-13 -67c-50 -2 -83 -18 -83 -66c0 -10 1 -22 3 -39z" />
    <glyph glyph-name="X" unicode="X" horiz-adv-x="738" 
d="M702 600l-212 -208l151 -290c10 -18 28 -31 57 -35l-14 -67h-324l13 67c36 0 55 10 55 36c0 9 -2 20 -12 41l-72 146l-139 -146c-19 -19 -31 -33 -31 -50s9 -27 51 -27l-13 -67h-251l14 67c40 0 69 16 87 35l245 252l-131 246c-9 17 -21 33 -50 35l14 67h330l-13 -67
c-40 0 -65 -10 -65 -35c0 -10 3 -22 14 -42l52 -102l96 102c18 17 30 33 30 50c0 18 -8 27 -46 27l14 67h248l-14 -67c-37 0 -65 -16 -84 -35z" />
    <glyph glyph-name="Y" unicode="Y" horiz-adv-x="692" 
d="M419 340l148 196c19 26 36 45 36 65c0 21 -14 32 -59 34l14 67h230l-14 -67c-30 -5 -47 -11 -67 -37l-263 -341l-26 -121c-2 -10 -3 -19 -3 -26c0 -32 21 -41 76 -43l-14 -67h-355l14 67c66 3 89 15 100 69l26 122l-118 340c-9 26 -22 32 -48 37l14 67h324l-14 -67
c-45 0 -76 -11 -76 -52c0 -15 3 -29 10 -48z" />
    <glyph glyph-name="Z" unicode="Z" horiz-adv-x="648" 
d="M230 71h114c82 0 103 21 208 161h80l-84 -232h-571l10 47l476 583h-117c-81 0 -103 -51 -163 -137h-69l45 209h555l-11 -48z" />
    <glyph glyph-name="bracketleft" unicode="[" horiz-adv-x="357" 
d="M298 658l-145 -681c-3 -13 -3 -18 -3 -24c0 -35 33 -38 102 -42l-11 -52h-237l194 911h237l-11 -52c-81 -5 -115 -8 -126 -60z" />
    <glyph glyph-name="backslash" unicode="\" horiz-adv-x="442" 
d="M252 -141l-85 911h103l85 -911h-103z" />
    <glyph glyph-name="bracketright" unicode="]" horiz-adv-x="357" 
d="M92 -29l144 681c3 13 3 18 3 24c0 35 -33 38 -102 42l11 52h237l-193 -911h-237l11 52c81 5 115 8 126 60z" />
    <glyph glyph-name="asciicircum" unicode="^" horiz-adv-x="490" 
d="M298 770h120l84 -290h-112l-49 188l-127 -188h-122z" />
    <glyph glyph-name="underscore" unicode="_" horiz-adv-x="440" 
d="M351 -169h-399l20 103h400z" />
    <glyph glyph-name="quoteleft" unicode="&#x2018;" horiz-adv-x="324" 
d="M221 636h37c45 -10 73 -36 73 -86c0 -51 -34 -92 -98 -92s-109 44 -109 121c0 104 88 191 240 191v-59c-70 -8 -134 -26 -143 -75z" />
    <glyph glyph-name="a" unicode="a" horiz-adv-x="694" 
d="M249 111c66 0 156 163 193 342c-11 29 -18 47 -51 47c-106 0 -185 -188 -185 -318c0 -43 12 -71 43 -71zM482 505l105 54h71l-41 -141l-66 -268c-5 -19 -8 -33 -8 -41c0 -10 5 -15 14 -15c19 0 43 27 79 73l32 -27c-67 -95 -127 -150 -202 -150c-63 0 -100 45 -100 108
c0 32 12 58 27 112h-7c-49 -104 -115 -220 -225 -220c-79 0 -135 67 -135 176c0 186 135 393 338 393c58 0 88 -23 118 -54z" />
    <glyph glyph-name="b" unicode="b" horiz-adv-x="658" 
d="M37 141l122 500l-61 44l10 34l228 42h35l-75 -303l-57 -157h7c49 105 139 258 253 258c92 0 133 -68 133 -176c0 -186 -139 -393 -374 -393c-107 0 -197 52 -221 151zM407 438c-66 0 -166 -166 -203 -334c3 -35 27 -58 59 -58c105 0 188 189 188 319c0 44 -13 73 -44 73z
" />
    <glyph glyph-name="c" unicode="c" horiz-adv-x="510" 
d="M353 499c-80 0 -147 -159 -147 -280c0 -77 32 -120 85 -120c47 0 90 16 144 77l27 -27c-60 -107 -147 -159 -240 -159c-124 0 -196 87 -196 207c0 181 142 362 343 362c79 0 144 -30 144 -104c0 -39 -21 -71 -64 -82h-58c8 73 3 126 -38 126z" />
    <glyph glyph-name="d" unicode="d" horiz-adv-x="700" 
d="M249 111c67 0 166 161 203 356c-14 27 -38 36 -59 36c-106 0 -187 -191 -187 -321c0 -43 12 -71 43 -71zM495 641l-61 44l10 34l224 42h35l-146 -611c-5 -19 -8 -33 -8 -41c0 -10 5 -15 14 -15c19 0 43 27 80 73l31 -27c-67 -95 -127 -150 -201 -150
c-64 0 -101 45 -101 107c0 33 9 59 23 114h-7c-48 -104 -117 -221 -227 -221c-79 0 -135 67 -135 176c0 186 138 393 338 393c51 0 88 -20 102 -39z" />
    <glyph glyph-name="e" unicode="e" horiz-adv-x="530" 
d="M525 436c0 -108 -123 -166 -326 -203v-14c0 -78 38 -129 98 -129c59 0 101 25 155 86l28 -27c-63 -109 -166 -159 -257 -159c-125 0 -197 88 -197 208c0 181 152 361 349 361c98 0 150 -58 150 -123zM350 498c-69 0 -131 -116 -147 -226c126 38 180 92 180 174
c0 26 -8 52 -33 52z" />
    <glyph glyph-name="f" unicode="f" horiz-adv-x="388" 
d="M48 482l12 53l80 20c39 135 110 215 261 215c79 0 147 -24 147 -89c0 -33 -19 -59 -54 -70h-62c8 57 5 109 -35 109s-69 -53 -77 -170h124l-13 -68h-119l-50 -235c-74 -346 -178 -454 -316 -454c-76 0 -127 31 -127 81c0 48 36 74 79 79h28c1 -64 13 -116 43 -116
c32 0 41 44 64 165l90 480h-75z" />
    <glyph glyph-name="g" unicode="g" horiz-adv-x="575" 
d="M332 559c39 0 75 -9 105 -25l196 20l-23 -95h-43l-64 19c16 -23 25 -48 25 -74c0 -125 -129 -198 -276 -198c-23 0 -46 2 -66 7c-20 -8 -32 -19 -32 -34c0 -14 10 -23 29 -28l175 -35c97 -19 153 -53 153 -136c0 -115 -134 -189 -301 -189c-130 0 -273 45 -273 135
c0 66 80 94 142 96c-25 24 -39 45 -39 82c0 58 48 94 115 119c-60 24 -98 73 -98 147c0 116 128 189 275 189zM305 -44l-202 42c-32 -11 -47 -30 -47 -59c0 -54 68 -89 155 -89c82 0 147 27 147 69c0 22 -19 30 -53 37zM265 258c46 0 96 67 96 174c0 40 -11 75 -42 75
c-46 0 -96 -68 -96 -175c0 -39 11 -74 42 -74z" />
    <glyph glyph-name="h" unicode="h" horiz-adv-x="684" 
d="M299 459l-52 -160h7c100 172 193 260 287 260c55 0 86 -35 86 -88c0 -13 -3 -31 -6 -44l-75 -277c-5 -19 -9 -33 -9 -41c0 -10 5 -15 14 -15c19 0 43 27 80 73l31 -27c-67 -95 -127 -150 -201 -150c-64 0 -106 40 -106 94c0 27 4 52 14 86l64 220c3 13 5 25 5 33
c0 11 -4 18 -17 18c-37 0 -154 -141 -197 -306l-35 -135h-182l154 641l-61 44l10 34l228 42h35z" />
    <glyph glyph-name="i" unicode="i" horiz-adv-x="370" 
d="M328 559l-103 -409c-5 -19 -8 -33 -8 -41c0 -10 5 -15 14 -15c19 0 44 27 80 73l31 -27c-66 -95 -126 -150 -201 -150c-63 0 -104 40 -104 94c0 27 5 52 13 86l66 269l-50 47l9 34l218 39h35zM261 594c-60 0 -96 41 -96 88c0 53 38 99 104 99c59 0 96 -40 96 -87
c0 -54 -39 -100 -104 -100z" />
    <glyph glyph-name="j" unicode="j" horiz-adv-x="340" 
d="M269 594c-59 0 -96 41 -96 88c0 53 39 99 104 99c60 0 96 -40 96 -87c0 -54 -38 -100 -104 -100zM24 -4l101 443l-51 47l10 34l218 39h35l-115 -456c-51 -201 -146 -310 -284 -310c-76 0 -127 31 -127 81c0 48 36 74 79 79h28c1 -64 10 -114 40 -114s40 44 66 157z" />
    <glyph glyph-name="k" unicode="k" horiz-adv-x="649" 
d="M419 373l70 -186c14 -39 25 -66 47 -66c20 0 33 8 64 47l28 -27c-67 -107 -115 -151 -182 -151c-55 0 -86 35 -110 102l-65 179l153 186c64 77 97 102 140 102c53 0 79 -39 79 -78c0 -48 -28 -78 -74 -93h-22c0 33 -9 58 -37 58c-23 0 -45 -13 -80 -59zM374 761
l-185 -761h-182l155 641l-61 44l10 34l228 42h35z" />
    <glyph glyph-name="l" unicode="l" horiz-adv-x="358" 
d="M157 641l-61 44l10 34l228 42h35l-154 -611c-5 -19 -7 -33 -7 -41c0 -10 5 -15 14 -15c19 0 43 27 79 73l31 -27c-66 -95 -126 -150 -201 -150c-63 0 -104 40 -104 94c0 27 5 52 13 86z" />
    <glyph glyph-name="m" unicode="m" horiz-adv-x="1005" 
d="M577 300h7c97 172 184 259 278 259c55 0 86 -35 86 -88c0 -13 -3 -32 -6 -44l-75 -277c-5 -19 -9 -33 -9 -41c0 -10 5 -15 14 -15c19 0 43 27 80 73l31 -27c-67 -95 -127 -150 -201 -150c-64 0 -106 40 -106 94c0 26 4 53 14 86l63 216c4 13 5 25 5 33c0 11 -4 18 -17 18
c-38 0 -147 -133 -187 -296l-35 -141h-182l96 386c3 13 5 25 5 33c0 11 -4 18 -17 18c-36 0 -152 -133 -192 -296l-35 -141h-181l109 439l-51 47l10 34l218 42h36l-27 -105l-56 -157h7c100 172 189 259 283 259c56 0 81 -40 81 -88c0 -36 -18 -91 -46 -171z" />
    <glyph glyph-name="n" unicode="n" horiz-adv-x="689" 
d="M335 562l-27 -105l-56 -158h7c100 172 193 260 287 260c55 0 86 -35 86 -88c0 -13 -3 -31 -6 -44l-75 -277c-5 -19 -9 -33 -9 -41c0 -10 5 -15 14 -15c19 0 43 27 80 73l31 -27c-67 -95 -127 -150 -201 -150c-64 0 -106 40 -106 94c0 27 4 52 14 86l64 220
c3 13 5 25 5 33c0 11 -4 18 -17 18c-37 0 -154 -141 -197 -306l-35 -135h-181l109 439l-51 47l10 34l218 42h36z" />
    <glyph glyph-name="o" unicode="o" horiz-adv-x="608" 
d="M255 53c93 0 148 214 148 331c0 65 -12 112 -50 112c-93 0 -148 -214 -148 -331c0 -65 12 -112 50 -112zM250 -10c-129 0 -222 87 -222 230c0 187 132 339 330 339c129 0 222 -87 222 -230c0 -187 -132 -339 -330 -339z" />
    <glyph glyph-name="p" unicode="p" horiz-adv-x="663" 
d="M244 300h7c49 106 140 259 253 259c92 0 133 -68 133 -176c0 -186 -139 -393 -340 -393c-50 0 -83 25 -96 49l-25 -105c-3 -13 -5 -23 -5 -31c1 -27 21 -31 54 -35l-16 -65h-306l15 65c46 6 63 11 74 57l123 514l-52 47l10 34l217 42h35l-24 -105zM412 438
c-66 0 -164 -160 -199 -345c12 -27 23 -47 55 -47c105 0 188 189 188 318c0 45 -13 74 -44 74z" />
    <glyph glyph-name="q" unicode="q" horiz-adv-x="675" 
d="M366 559c58 0 91 -22 119 -54l104 54h71l-40 -141l-112 -484c-3 -13 -5 -23 -5 -31c1 -27 21 -31 54 -35l-15 -65h-307l16 65c46 6 63 11 74 57l36 156l37 130h-7c-49 -104 -118 -221 -228 -221c-79 0 -137 67 -137 176c0 186 140 393 340 393zM251 111
c67 0 157 164 193 342c-6 28 -21 47 -50 47c-107 0 -188 -188 -188 -318c0 -43 14 -71 45 -71z" />
    <glyph glyph-name="r" unicode="r" horiz-adv-x="523" 
d="M232 236h7c131 252 163 323 241 323c50 0 73 -35 73 -81c0 -61 -51 -110 -89 -128h-22c0 19 -7 36 -28 36c-73 0 -155 -140 -217 -386h-182l109 439l-50 47l10 34l216 42h35l-39 -148z" />
    <glyph glyph-name="s" unicode="s" horiz-adv-x="482" 
d="M214 45c36 0 57 21 57 52c0 70 -202 133 -202 261c0 120 94 201 229 201c84 0 154 -41 154 -106c0 -28 -24 -51 -56 -60h-34c-9 64 -47 110 -95 110c-40 0 -60 -18 -60 -47c0 -66 213 -142 213 -268c0 -121 -101 -198 -230 -198c-112 0 -194 51 -194 116
c0 40 28 67 63 78h30c14 -88 52 -139 125 -139z" />
    <glyph glyph-name="t" unicode="t" horiz-adv-x="433" 
d="M308 482l-76 -308c-6 -24 -8 -39 -8 -51c0 -17 7 -29 23 -29c30 0 64 31 124 95l31 -27c-79 -108 -152 -172 -248 -172c-76 0 -113 54 -113 111c0 27 3 46 10 76l75 305h-73l13 49c78 14 169 73 230 144h60l-31 -125h117l-17 -68h-117z" />
    <glyph glyph-name="u" unicode="u" horiz-adv-x="701" 
d="M407 243h-7c-81 -147 -172 -253 -265 -253c-68 0 -98 39 -98 98c0 18 3 38 8 60l70 291l-50 47l10 34l217 39h35l-100 -395c-3 -13 -4 -24 -4 -30c0 -16 4 -23 17 -23c46 0 161 158 199 308l31 120l183 10l-100 -399c-5 -19 -8 -33 -8 -41c0 -10 5 -15 14 -15
c19 0 44 27 80 73l31 -27c-66 -95 -124 -150 -199 -150c-64 0 -98 45 -98 108c0 32 14 82 34 145z" />
    <glyph glyph-name="v" unicode="v" horiz-adv-x="563" 
d="M79 445l-61 41l10 34l190 39h35l28 -399l76 87c42 48 75 100 75 144c0 48 -34 78 -86 78l1 19c22 37 63 71 121 71c63 0 91 -45 91 -98c0 -76 -70 -159 -144 -235l-222 -231h-67z" />
    <glyph glyph-name="w" unicode="w" horiz-adv-x="837" 
d="M386 445l-61 41l10 34l176 39h35l28 -399l74 87c41 47 58 100 58 144c0 48 -34 78 -86 78l1 19c22 37 63 71 121 71c64 0 91 -48 91 -101c0 -76 -59 -155 -127 -231l-209 -232h-65l-26 255l-212 -255h-63l-52 450l-61 41l10 34l185 39h35l34 -384l117 145z" />
    <glyph glyph-name="x" unicode="x" horiz-adv-x="595" 
d="M161 162l50 76l-80 212l-59 36l10 34l175 39h35l57 -174l43 70c45 74 86 104 134 104c56 0 83 -38 83 -76c0 -49 -31 -80 -78 -95h-24c0 34 -7 58 -30 58c-26 0 -39 -13 -69 -59l-40 -61l48 -143c13 -41 23 -66 46 -66c21 0 39 13 72 51l29 -27
c-74 -108 -126 -151 -191 -151c-56 0 -82 41 -105 102l-35 91l-55 -89c-41 -67 -84 -104 -139 -104c-50 0 -77 36 -77 74c0 51 30 81 77 97h24c0 -34 7 -58 31 -58c26 0 42 18 68 59z" />
    <glyph glyph-name="y" unicode="y" horiz-adv-x="569" 
d="M363 58c-153 -195 -250 -264 -353 -264c-63 0 -117 29 -117 91c0 35 23 67 63 80h32c0 -61 19 -98 78 -98c39 0 80 22 130 70l-117 508l-61 41l10 34l185 39h35l85 -457l3 3c82 111 102 213 102 272c0 62 -34 92 -87 92l1 19c23 37 63 71 121 71c64 0 92 -52 92 -104
c0 -122 -92 -258 -202 -397z" />
    <glyph glyph-name="z" unicode="z" horiz-adv-x="543" 
d="M361 402h-186c-32 0 -42 -7 -60 -34l-27 -41l-34 9l89 247h35c4 -26 8 -37 22 -37h366v-33l-366 -329l84 -25c16 -5 43 -12 72 -12c51 0 76 4 126 78l34 -11c-59 -156 -116 -229 -210 -229c-51 0 -90 15 -141 44l-88 50l-49 -83c-36 0 -55 13 -55 37c0 17 7 35 29 54z
" />
    <glyph glyph-name="braceleft" unicode="{" horiz-adv-x="393" 
d="M63 297l7 36c50 10 91 36 105 100l44 209c17 79 94 128 252 128l-9 -41c-49 -6 -101 -31 -115 -98l-44 -204c-15 -68 -43 -92 -114 -112c49 -16 71 -33 71 -75c0 -36 -51 -229 -51 -266c0 -48 37 -68 77 -73l-9 -42c-140 0 -201 38 -201 102c0 46 51 222 51 266
c0 42 -26 62 -64 70z" />
    <glyph glyph-name="bar" unicode="|" horiz-adv-x="302" 
d="M315 770l-193 -911h-102l193 911h102z" />
    <glyph glyph-name="braceright" unicode="}" horiz-adv-x="393" 
d="M362 332l-7 -36c-50 -10 -91 -36 -105 -100l-44 -209c-17 -79 -94 -128 -252 -128l9 41c49 6 101 31 115 98l44 204c15 68 43 92 114 112c-49 16 -71 33 -71 75c0 36 51 229 51 266c0 48 -37 68 -77 73l9 42c140 0 201 -38 201 -102c0 -46 -51 -222 -51 -266
c0 -42 26 -62 64 -70z" />
    <glyph glyph-name="asciitilde" unicode="~" horiz-adv-x="582" 
d="M494 447l62 -19c-38 -140 -100 -184 -172 -184c-55 0 -115 63 -159 63c-33 0 -64 -22 -89 -62l-62 19c38 140 100 184 172 184c55 0 115 -63 159 -63c33 0 64 22 89 62z" />
    <glyph glyph-name="exclamdown" unicode="&#xa1;" horiz-adv-x="334" 
d="M316 457c0 -58 -45 -104 -100 -104c-56 0 -100 46 -100 104c0 56 44 102 100 102c55 0 100 -46 100 -102zM-26 -152l177 463h87l-58 -463h-206z" />
    <glyph glyph-name="cent" unicode="&#xa2;" horiz-adv-x="553" 
d="M213 -117l22 108c-123 7 -199 91 -199 211c0 167 123 337 318 357l25 118h57l-25 -117c79 -4 141 -36 141 -104c0 -39 -22 -70 -65 -82h-53c10 73 -2 115 -35 128l-87 -417h2c58 0 107 31 161 92l29 -27c-53 -93 -129 -145 -211 -157l-23 -110h-57zM207 230
c0 -60 18 -106 51 -129l84 400c-88 -28 -135 -164 -135 -271z" />
    <glyph glyph-name="sterling" unicode="&#xa3;" horiz-adv-x="722" 
d="M126 334l13 58h105l12 43c47 178 146 277 320 277c95 0 169 -36 169 -106c0 -55 -33 -86 -77 -99h-97c17 32 27 56 27 96c0 26 -9 50 -40 50c-33 0 -53 -32 -70 -84l-59 -177h139l-14 -58h-145l-50 -150c55 -25 104 -48 173 -48c37 0 61 17 61 53c0 16 -9 33 -27 45
l22 27c40 -8 97 -39 97 -109c0 -109 -83 -162 -181 -162c-102 0 -174 55 -212 92c-47 -57 -117 -92 -193 -92c-75 0 -118 49 -118 109c0 82 65 133 137 133c35 0 54 -6 78 -14l32 116h-102zM102 54c35 0 60 34 75 90c-17 10 -38 19 -62 19c-33 0 -61 -20 -61 -57
c0 -27 16 -52 48 -52z" />
    <glyph glyph-name="fraction" unicode="&#x2044;" horiz-adv-x="283" 
d="M-160 0l682 780h86l-682 -780h-86z" />
    <glyph glyph-name="yen" unicode="&#xa5;" horiz-adv-x="680" 
d="M93 331l12 57h92l-74 210c-9 26 -22 32 -49 37l14 67h333l-13 -67c-46 0 -77 -11 -77 -52c0 -15 4 -29 10 -48l60 -195l143 196c20 26 36 45 36 65c0 21 -14 32 -59 34l13 67h230l-13 -67c-30 -5 -47 -11 -67 -37l-159 -210h99l-12 -57h-130l-52 -68h167l-13 -56h-169
l-15 -71c-2 -10 -3 -19 -3 -26c0 -32 21 -41 76 -43l-14 -67h-355l14 67c66 3 89 15 100 69l15 71h-168l13 56h164l-24 68h-125z" />
    <glyph glyph-name="florin" unicode="&#x192;" horiz-adv-x="523" 
d="M53 290l15 61h93l10 45c46 207 109 316 283 316c80 0 151 -23 151 -89c0 -33 -19 -59 -54 -69h-62c8 56 2 109 -38 109c-28 0 -40 -29 -46 -60l-55 -252h110l-11 -61h-113l-32 -148c-52 -234 -115 -342 -289 -342c-80 0 -151 23 -151 88c0 34 19 59 54 70h62
c-8 -57 -2 -109 38 -109c28 0 40 29 46 60l83 381h-94z" />
    <glyph glyph-name="section" unicode="&#xa7;" horiz-adv-x="518" 
d="M127 -202c-79 0 -135 38 -135 104c0 48 38 69 69 80h88c-8 -15 -10 -34 -10 -48c0 -42 13 -76 47 -76c32 0 52 24 52 81c0 125 -140 234 -140 429c0 165 114 344 320 344c79 0 135 -38 135 -104c0 -48 -38 -69 -69 -80h-88c8 15 10 34 10 48c0 42 -13 76 -47 76
c-32 0 -52 -24 -52 -81c0 -125 140 -234 140 -429c0 -165 -114 -344 -320 -344zM251 606c-51 -53 -84 -141 -84 -238c0 -164 137 -289 137 -421c0 -13 -3 -30 -10 -43c51 53 84 141 84 238c0 164 -137 289 -137 421c0 13 3 30 10 43z" />
    <glyph glyph-name="currency" unicode="&#xa4;" horiz-adv-x="577" 
d="M297 243c66 0 120 54 120 126c0 64 -43 108 -103 108c-66 0 -120 -54 -120 -126c0 -64 43 -108 103 -108zM291 163c-49 0 -90 15 -121 41l-79 -70l-38 44l79 72c-15 27 -24 59 -24 94c0 51 17 99 48 136l-62 70l46 41l61 -69c33 22 73 35 118 35s84 -14 114 -37l82 73
l39 -44l-81 -72c19 -29 29 -64 29 -101c0 -54 -19 -103 -51 -140l63 -68l-47 -41l-61 69c-33 -21 -71 -33 -115 -33z" />
    <glyph glyph-name="quotesingle" unicode="'" horiz-adv-x="246" 
d="M168 447h-36l4 148c2 61 0 112 26 143c15 18 38 32 72 32c54 0 70 -35 70 -66c0 -43 -29 -73 -50 -109z" />
    <glyph glyph-name="quotedblleft" unicode="&#x201c;" horiz-adv-x="588" 
d="M221 636h37c45 -10 73 -36 73 -86c0 -51 -34 -92 -98 -92s-109 44 -109 121c0 104 88 191 240 191v-59c-70 -8 -134 -26 -143 -75zM485 636h37c45 -10 73 -36 73 -86c0 -51 -34 -92 -98 -92s-109 44 -109 121c0 104 88 191 240 191v-59c-70 -8 -134 -26 -143 -75z" />
    <glyph glyph-name="guillemotleft" unicode="&#xab;" horiz-adv-x="564" 
d="M256 271l2 10l221 200h89l-157 -205l59 -205h-78zM30 271l2 10l222 200h88l-157 -205l59 -205h-77z" />
    <glyph glyph-name="guilsinglleft" unicode="&#x2039;" horiz-adv-x="338" 
d="M30 271l2 10l222 200h88l-157 -205l59 -205h-77z" />
    <glyph glyph-name="guilsinglright" unicode="&#x203a;" horiz-adv-x="338" 
d="M303 281l-2 -10l-221 -200h-89l157 205l-59 205h78z" />
    <glyph glyph-name="endash" unicode="&#x2013;" horiz-adv-x="580" 
d="M533 262h-487l18 86h487z" />
    <glyph glyph-name="dagger" unicode="&#x2020;" horiz-adv-x="502" 
d="M117 605l170 -22l16 175h105l-61 -175l182 22l-21 -101l-173 21l-41 -303h-105l87 303l-180 -21z" />
    <glyph glyph-name="daggerdbl" unicode="&#x2021;" horiz-adv-x="502" 
d="M286 552l-181 -21l22 101l170 -22l10 148h105l-55 -148l182 22l-22 -101l-172 21l-27 -124l182 21l-22 -101l-172 22l-8 -148h-105l53 148l-180 -22l22 101l171 -21z" />
    <glyph glyph-name="periodcentered" unicode="&#xb7;" horiz-adv-x="315" 
d="M56 305c0 63 48 108 107 108c60 0 108 -45 108 -108s-48 -107 -108 -107c-59 0 -107 44 -107 107z" />
    <glyph glyph-name="paragraph" unicode="&#xb6;" horiz-adv-x="669" 
d="M233 -197l83 391c-145 0 -230 87 -230 212c0 158 138 296 338 296h316l-15 -69c-80 0 -104 -12 -117 -73l-161 -757h-74l178 840h-66l-178 -840h-74zM327 249l85 398c-85 -13 -154 -137 -154 -248c0 -76 20 -143 69 -150z" />
    <glyph glyph-name="bullet" unicode="&#x2022;" horiz-adv-x="422" 
d="M54 309c0 91 73 165 161 165c89 0 161 -74 161 -165c0 -89 -72 -164 -161 -164c-88 0 -161 75 -161 164z" />
    <glyph glyph-name="quotesinglbase" unicode="&#x201a;" horiz-adv-x="324" 
d="M144 9h-37c-45 10 -73 36 -73 86c0 51 34 92 98 92s109 -44 109 -121c0 -104 -88 -191 -240 -191v59c70 8 134 26 143 75z" />
    <glyph glyph-name="quotedblbase" unicode="&#x201e;" horiz-adv-x="588" 
d="M408 9h-37c-45 10 -73 36 -73 86c0 51 34 92 98 92s109 -44 109 -121c0 -104 -88 -191 -240 -191v59c70 8 134 26 143 75zM144 9h-37c-45 10 -73 36 -73 86c0 51 34 92 98 92s109 -44 109 -121c0 -104 -88 -191 -240 -191v59c70 8 134 26 143 75z" />
    <glyph glyph-name="quotedblright" unicode="&#x201d;" horiz-adv-x="588" 
d="M523 592h-37c-45 10 -73 36 -73 86c0 51 34 92 98 92s109 -44 109 -121c0 -104 -88 -191 -240 -191v59c70 8 134 26 143 75zM259 592h-37c-45 10 -73 36 -73 86c0 51 34 92 98 92s109 -44 109 -121c0 -104 -88 -191 -240 -191v59c70 8 134 26 143 75z" />
    <glyph glyph-name="guillemotright" unicode="&#xbb;" horiz-adv-x="564" 
d="M303 281l-2 -10l-221 -200h-89l157 205l-59 205h78zM529 281l-2 -10l-222 -200h-88l157 205l-59 205h77z" />
    <glyph glyph-name="ellipsis" unicode="&#x2026;" horiz-adv-x="930" 
d="M23 97c0 63 48 108 107 108c60 0 108 -45 108 -108s-48 -107 -108 -107c-59 0 -107 44 -107 107zM333 97c0 63 48 108 107 108c60 0 108 -45 108 -108s-48 -107 -108 -107c-59 0 -107 44 -107 107zM643 97c0 63 48 108 107 108c60 0 108 -45 108 -108s-48 -107 -108 -107
c-59 0 -107 44 -107 107z" />
    <glyph glyph-name="perthousand" unicode="&#x2030;" horiz-adv-x="1349" 
d="M301 664c-48 0 -97 -98 -97 -213c0 -42 12 -68 37 -68c48 0 97 98 97 213c0 42 -12 68 -37 68zM133 -19l606 741h78l-608 -741h-76zM235 335c-85 0 -157 47 -157 141c0 157 124 236 229 236c85 0 157 -47 157 -141c0 -157 -124 -236 -229 -236zM648 39c48 0 97 98 97 213
c0 42 -12 68 -37 68c-48 0 -97 -98 -97 -213c0 -42 12 -68 37 -68zM714 368c85 0 157 -47 157 -141c0 -157 -124 -236 -229 -236c-85 0 -157 47 -157 141c0 157 124 236 229 236zM1067 39c48 0 97 98 97 213c0 42 -12 68 -37 68c-48 0 -97 -98 -97 -213c0 -42 12 -68 37 -68
zM1133 368c85 0 157 -47 157 -141c0 -157 -124 -236 -229 -236c-85 0 -157 47 -157 141c0 157 124 236 229 236z" />
    <glyph glyph-name="questiondown" unicode="&#xbf;" horiz-adv-x="478" 
d="M412 457c0 -58 -44 -104 -100 -104s-100 46 -100 104c0 56 44 102 100 102s100 -46 100 -102zM239 87c-56 -32 -90 -59 -90 -121c0 -36 20 -64 61 -64c55 0 79 49 79 98c0 20 -2 31 -5 45h110c18 -16 29 -33 29 -59c0 -88 -99 -148 -221 -148c-130 0 -202 66 -202 165
c0 95 68 147 137 182c67 36 121 63 121 113c0 7 -1 13 -2 19h47c30 -23 51 -50 51 -90c0 -52 -33 -92 -115 -140z" />
    <glyph glyph-name="grave" unicode="`" horiz-adv-x="500" 
d="M153 766h181l35 -160h-91z" />
    <glyph glyph-name="acute" unicode="&#xb4;" horiz-adv-x="500" 
d="M199 766h197l-195 -160h-98z" />
    <glyph glyph-name="circumflex" unicode="&#x2c6;" horiz-adv-x="500" 
d="M335 766l92 -169h-89l-88 80l-134 -80h-101l184 169h136z" />
    <glyph glyph-name="tilde" unicode="&#x2dc;" horiz-adv-x="500" 
d="M397 771l58 -11c-63 -125 -93 -150 -151 -150c-49 0 -95 63 -132 63c-29 0 -47 -25 -68 -56l-59 12c64 125 93 150 151 150c56 0 94 -63 132 -63c28 0 48 24 69 55z" />
    <glyph glyph-name="macron" unicode="&#xaf;" horiz-adv-x="500" 
d="M85 626l23 101h308l-23 -101h-308z" />
    <glyph glyph-name="breve" unicode="&#x2d8;" horiz-adv-x="500" 
d="M244 603c-81 0 -127 45 -127 112c0 17 3 37 11 58h66c-1 -5 -1 -10 -1 -14c0 -51 37 -64 71 -64c37 0 80 16 105 78h74c-27 -106 -98 -170 -199 -170z" />
    <glyph glyph-name="dotaccent" unicode="&#x2d9;" horiz-adv-x="500" 
d="M261 599c-60 0 -96 41 -96 88c0 53 38 99 104 99c59 0 96 -40 96 -87c0 -54 -39 -100 -104 -100z" />
    <glyph glyph-name="dieresis" unicode="&#xa8;" horiz-adv-x="500" 
d="M138 603c-54 0 -87 39 -87 83c0 49 35 93 93 93c54 0 86 -38 86 -82c0 -50 -35 -94 -92 -94zM357 603c-54 0 -86 39 -86 83c0 49 34 93 92 93c54 0 86 -38 86 -82c0 -50 -34 -94 -92 -94z" />
    <glyph glyph-name="ring" unicode="&#x2da;" horiz-adv-x="500" 
d="M256 654c33 0 51 23 51 49c0 23 -15 39 -42 39c-33 0 -51 -23 -51 -48c0 -24 15 -40 42 -40zM251 597c-62 0 -104 39 -104 93c0 63 57 109 123 109c62 0 104 -39 104 -93c0 -63 -57 -109 -123 -109z" />
    <glyph glyph-name="cedilla" unicode="&#xb8;" horiz-adv-x="500" 
d="M122 -233l-11 49c72 0 122 12 122 39c0 25 -29 34 -76 36l58 117h50l-27 -52c59 -6 86 -31 86 -78c0 -74 -102 -111 -202 -111z" />
    <glyph glyph-name="hungarumlaut" unicode="&#x2dd;" horiz-adv-x="500" 
d="M109 766h171l-179 -160h-88zM319 766h177l-185 -160h-88z" />
    <glyph glyph-name="ogonek" unicode="&#x2db;" horiz-adv-x="500" 
d="M340 43l9 -24c-73 -41 -109 -81 -109 -118c0 -22 11 -39 39 -39c20 0 42 7 72 25l16 -28c-52 -50 -98 -75 -155 -75c-48 0 -86 26 -86 72c0 95 112 145 214 187z" />
    <glyph glyph-name="caron" unicode="&#x2c7;" horiz-adv-x="500" 
d="M137 606l-92 169h89l88 -80l134 80h101l-184 -169h-136z" />
    <glyph glyph-name="emdash" unicode="&#x2014;" horiz-adv-x="1000" 
d="M953 262h-907l18 86h907z" />
    <glyph glyph-name="AE" unicode="&#xc6;" horiz-adv-x="1042" 
d="M40 104l422 502c-8 25 -24 29 -67 29l13 67h673l-41 -191h-71c-14 82 -30 122 -110 122h-103l-49 -236h74c44 0 66 19 89 79h64l-48 -229h-64c0 59 -12 79 -56 79h-74l-37 -177c-3 -14 -5 -26 -5 -35c0 -37 25 -45 69 -45h23c71 0 114 37 191 137h79l-74 -206h-585l14 67
c69 3 85 15 96 69l22 108h-234l-71 -83c-21 -24 -29 -43 -29 -59c0 -22 14 -34 64 -35l-14 -67h-239l14 67c28 5 44 12 64 37zM561 603l-251 -291h190z" />
    <glyph glyph-name="ordfeminine" unicode="&#xaa;" horiz-adv-x="531" 
d="M248 410c45 0 106 110 131 235c-6 20 -12 33 -35 33c-63 0 -125 -128 -125 -218c0 -31 8 -50 29 -50zM408 685l86 39h51l-29 -101l-48 -188c-3 -14 -5 -24 -5 -29c0 -8 3 -11 10 -11c13 0 31 19 56 52l26 -23c-48 -68 -94 -109 -155 -109c-43 0 -76 32 -76 78
c0 23 9 41 20 80h-5c-35 -75 -83 -158 -162 -158c-57 0 -97 48 -97 127c0 133 97 282 243 282c42 0 63 -17 85 -39z" />
    <glyph glyph-name="Lslash" unicode="&#x141;" horiz-adv-x="684" 
d="M395 566l-29 -136l133 47l-16 -75l-133 -47l-43 -207c-3 -14 -5 -27 -5 -36c0 -31 20 -41 64 -41h27c64 0 90 28 197 167h84l-88 -238h-581l14 67c69 3 85 15 96 69l33 158l-88 -31l16 75l88 31l41 195c2 9 4 23 4 31c0 30 -16 38 -68 40l13 67h350l-13 -67
c-69 -3 -85 -15 -96 -69z" />
    <glyph glyph-name="Oslash" unicode="&#xd8;" horiz-adv-x="764" 
d="M682 742l-46 -74c77 -48 121 -131 121 -241c0 -218 -161 -437 -407 -437c-43 0 -82 6 -117 18l-56 -93l-54 30l54 89c-76 47 -120 131 -120 241c0 218 161 437 407 437c42 0 82 -6 116 -18l48 78zM252 250c0 -33 1 -61 5 -86l273 447c-16 20 -38 30 -70 30
c-129 0 -208 -238 -208 -391zM354 61c129 0 208 238 208 393c0 31 -2 59 -5 83l-273 -447c15 -19 38 -29 70 -29z" />
    <glyph glyph-name="OE" unicode="&#x152;" horiz-adv-x="1047" 
d="M516 702h570l-41 -191h-71c-14 82 -30 122 -110 122h-103l-49 -236h74c44 0 66 19 89 79h64l-48 -229h-64c0 59 -12 79 -56 79h-74l-37 -177c-3 -14 -5 -26 -5 -35c0 -37 25 -45 69 -45h23c71 0 114 37 191 137h79l-74 -206h-544c-212 0 -342 105 -342 288
c0 244 185 414 459 414zM572 633h-61c-189 0 -254 -223 -254 -364c0 -126 48 -198 157 -198h40z" />
    <glyph glyph-name="ordmasculine" unicode="&#xba;" horiz-adv-x="446" 
d="M241 363c64 0 100 150 100 234c0 46 -9 76 -36 76c-64 0 -100 -150 -100 -234c0 -46 9 -76 36 -76zM234 314c-92 0 -164 64 -164 167c0 134 90 241 242 241c92 0 164 -64 164 -167c0 -134 -90 -241 -242 -241z" />
    <glyph glyph-name="ae" unicode="&#xe6;" horiz-adv-x="865" 
d="M357 559c67 0 111 -25 145 -75c57 46 129 75 208 75c98 0 150 -58 150 -123c0 -108 -123 -166 -326 -203v-14c0 -78 38 -129 98 -129c59 0 101 25 155 86l28 -27c-63 -109 -166 -159 -257 -159c-113 0 -182 71 -195 173c-47 -89 -109 -173 -202 -173
c-79 0 -135 67 -135 176c0 186 135 393 331 393zM249 111c34 0 76 44 113 113c6 83 44 164 103 226c-16 33 -43 54 -73 54c-106 0 -186 -192 -186 -322c0 -43 12 -71 43 -71zM685 498c-69 0 -131 -116 -147 -226c126 38 180 92 180 174c0 26 -8 52 -33 52z" />
    <glyph glyph-name="dotlessi" unicode="&#x131;" horiz-adv-x="370" 
d="M328 559l-103 -409c-5 -19 -8 -33 -8 -41c0 -10 5 -15 14 -15c19 0 44 27 80 73l31 -27c-66 -95 -126 -150 -201 -150c-63 0 -104 40 -104 94c0 27 5 52 13 86l66 269l-50 47l9 34l218 39h35z" />
    <glyph glyph-name="lslash" unicode="&#x142;" horiz-adv-x="385" 
d="M170 641l-61 44l10 34l228 42h35l-64 -254l105 49l-18 -69l-105 -49l-72 -288c-5 -19 -7 -33 -7 -41c0 -10 5 -15 14 -15c19 0 43 27 79 73l31 -27c-66 -95 -126 -150 -201 -150c-63 0 -104 40 -104 94c0 27 5 52 13 86l49 196l-87 -40l18 69l86 40z" />
    <glyph glyph-name="oslash" unicode="&#xf8;" horiz-adv-x="622" 
d="M559 591l-52 -77c52 -39 85 -103 85 -185c0 -187 -137 -339 -335 -339c-35 0 -67 7 -95 18l-68 -100l-43 28l66 97c-54 39 -87 103 -87 187c0 187 137 339 335 339c35 0 68 -6 97 -19l54 79zM197 165v-14l214 314c-10 19 -27 31 -54 31c-93 0 -160 -214 -160 -331z
M265 53c93 0 160 214 160 331v10l-212 -311c11 -19 27 -30 52 -30z" />
    <glyph glyph-name="oe" unicode="&#x153;" horiz-adv-x="899" 
d="M358 559c76 0 131 -35 168 -91c58 54 132 91 218 91c98 0 150 -58 150 -123c0 -108 -123 -166 -326 -203v-14c0 -78 38 -129 98 -129c59 0 101 25 155 86l28 -27c-63 -109 -166 -159 -257 -159c-67 0 -113 31 -143 76c-55 -48 -117 -76 -199 -76c-129 0 -222 87 -222 230
c0 187 132 339 330 339zM255 53c93 0 148 214 148 331c0 65 -12 112 -50 112c-93 0 -148 -214 -148 -331c0 -65 12 -112 50 -112zM719 498c-69 0 -131 -116 -147 -226c126 38 180 92 180 174c0 26 -8 52 -33 52z" />
    <glyph glyph-name="germandbls" unicode="&#xdf;" horiz-adv-x="709" 
d="M48 482l16 67h77c47 138 152 221 317 221c112 0 191 -44 191 -131c0 -63 -40 -99 -104 -130c-28 -14 -53 -22 -53 -50c0 -59 186 -145 186 -271c0 -121 -97 -198 -223 -198c-109 0 -165 51 -165 116c0 40 27 67 61 78h28c8 -89 40 -144 99 -144c35 0 55 22 55 53
c0 66 -168 153 -168 281c0 56 34 101 84 143c37 31 70 74 70 125c0 50 -23 78 -68 78c-68 0 -99 -44 -114 -116l-75 -357c-71 -337 -178 -454 -316 -454c-76 0 -127 31 -127 81c0 48 36 74 79 79h28c1 -64 13 -116 43 -116c32 0 41 44 64 165l90 480h-75z" />
    <glyph glyph-name="onesuperior" unicode="&#xb9;" horiz-adv-x="391" 
d="M334 748h50l-77 -363c-2 -7 -3 -14 -3 -19c0 -21 17 -24 67 -27l-11 -52h-296l11 52c73 4 75 7 84 46l47 218h-75l10 48l29 6c83 17 117 43 164 91z" />
    <glyph glyph-name="mu" unicode="&#xb5;" horiz-adv-x="701" 
d="M173 -6l-34 -181l-179 -10l155 636l-50 47l10 34l217 39h35l-100 -395c-3 -13 -4 -24 -4 -30c0 -16 4 -23 17 -23c46 0 161 158 199 308l31 120l183 10l-100 -399c-5 -19 -8 -33 -8 -41c0 -10 5 -15 14 -15c19 0 44 27 80 73l31 -27c-66 -95 -124 -150 -199 -150
c-64 0 -98 45 -98 108c0 32 14 82 34 145h-7c-69 -125 -149 -223 -227 -249z" />
    <glyph glyph-name="trademark" unicode="&#x2122;" horiz-adv-x="957" 
d="M162 702h327l-20 -120h-36c-12 54 -19 82 -59 82h-8l-51 -236c-1 -5 -2 -9 -2 -13c0 -17 12 -20 38 -22l-7 -34h-183l7 34c32 2 43 7 49 35l51 236h-7c-42 0 -60 -28 -96 -82h-36zM698 501l83 161c8 16 13 30 15 40h165l-17 -38c-33 0 -44 -9 -50 -36l-12 -203
c-1 -25 7 -30 35 -32l-7 -34h-187l7 34c35 2 50 7 55 33c1 4 3 19 4 37l7 140l-130 -244h-39l-32 244l-51 -140c-6 -18 -13 -35 -13 -48c0 -15 6 -20 42 -22l-7 -34h-140l7 34c30 2 40 6 50 32l74 203c0 23 -1 36 -32 36l8 38h143c-1 -10 -2 -24 0 -39z" />
    <glyph glyph-name="Eth" unicode="&#xd0;" horiz-adv-x="801" 
d="M59 327l15 71h86l35 166c2 9 4 23 4 31c0 30 -16 38 -68 40l13 67h308c212 0 342 -105 342 -288c0 -244 -185 -414 -448 -414h-351l14 67c69 3 85 15 96 69l40 191h-86zM437 631h-39l-49 -233h123l-15 -71h-123l-36 -175c-4 -18 -6 -32 -6 -42c0 -31 18 -39 57 -39h11
c169 0 234 221 234 362c0 126 -48 198 -157 198z" />
    <glyph glyph-name="onehalf" unicode="&#xbd;" horiz-adv-x="977" 
d="M194 0l606 741h77l-607 -741h-76zM334 748h50l-77 -363c-2 -7 -3 -14 -3 -19c0 -21 17 -24 67 -27l-11 -52h-296l11 52c73 4 75 7 84 46l47 218h-75l10 48l29 6c83 17 117 43 164 91zM672 37h110c39 0 47 5 88 50h41l-46 -158h-363l9 47c224 164 254 204 254 256
c0 38 -19 58 -57 58c-41 0 -79 -25 -106 -56l-27 35c39 65 106 121 209 121c74 0 133 -36 133 -112c0 -105 -116 -177 -245 -241z" />
    <glyph glyph-name="plusminus" unicode="&#xb1;" horiz-adv-x="603" 
d="M331 621h92l-29 -134h179l-19 -92h-179l-29 -136h-92l29 136h-178l20 92h177zM46 116l20 93h447l-21 -93h-446z" />
    <glyph glyph-name="Thorn" unicode="&#xde;" horiz-adv-x="684" 
d="M358 484l-57 -267h31c90 0 167 33 167 151c0 77 -35 116 -119 116h-22zM374 566l-2 -11h71c173 0 248 -72 248 -177c0 -166 -133 -226 -325 -226h-78l-1 -5c-2 -10 -4 -22 -4 -35c0 -41 29 -47 105 -49l-12 -63h-391l14 67c69 3 85 15 96 69l90 428c2 9 4 23 4 31
c0 30 -16 38 -68 40l13 67h350l-13 -67c-69 -3 -87 -15 -97 -69z" />
    <glyph glyph-name="onequarter" unicode="&#xbc;" horiz-adv-x="979" 
d="M540 104h139l38 181zM788 -71h-147l25 118h-212l11 48l288 294h133l-60 -285h88l-13 -57h-88zM194 0l606 741h77l-607 -741h-76zM334 748h50l-77 -363c-2 -7 -3 -14 -3 -19c0 -21 17 -24 67 -27l-11 -52h-296l11 52c73 4 75 7 84 46l47 218h-75l10 48l29 6
c83 17 117 43 164 91z" />
    <glyph glyph-name="divide" unicode="&#xf7;" horiz-adv-x="603" 
d="M80 318l20 93h459l-19 -93h-460zM210 179c0 40 32 70 69 70c40 0 71 -30 71 -70s-31 -71 -71 -71c-37 0 -69 31 -69 71zM289 550c0 39 32 70 69 70c40 0 72 -31 72 -70s-32 -72 -72 -72c-37 0 -69 33 -69 72z" />
    <glyph glyph-name="brokenbar" unicode="&#xa6;" horiz-adv-x="302" 
d="M315 770l-80 -376h-102l80 376h102zM202 235l-80 -376h-102l80 376h102z" />
    <glyph glyph-name="degree" unicode="&#xb0;" horiz-adv-x="376" 
d="M219 456c56 0 94 52 94 118c0 40 -20 73 -63 73c-56 0 -95 -52 -95 -118c0 -40 21 -73 64 -73zM214 391c-81 0 -137 56 -137 133c0 104 76 188 177 188c81 0 137 -56 137 -133c0 -104 -76 -188 -177 -188z" />
    <glyph glyph-name="thorn" unicode="&#xfe;" horiz-adv-x="658" 
d="M204 104c11 -28 27 -58 59 -58c105 0 188 190 188 319c0 44 -13 73 -44 73c-66 0 -166 -166 -203 -334zM-13 -75l172 716l-61 44l10 34l228 42h35l-75 -303l-57 -157h7c49 105 139 258 253 258c92 0 133 -68 133 -176c0 -186 -139 -393 -340 -393c-50 0 -84 27 -97 51
l-24 -107c-3 -13 -5 -23 -5 -31c1 -27 21 -31 54 -35l-16 -65h-306l15 65c46 6 63 11 74 57z" />
    <glyph glyph-name="threequarters" unicode="&#xbe;" horiz-adv-x="990" 
d="M323 537c61 -8 109 -50 109 -105c0 -113 -108 -154 -220 -154c-85 0 -152 40 -152 92c0 36 22 54 45 62h87c-10 -19 -13 -39 -13 -54c0 -34 19 -55 48 -55c36 0 63 37 63 92c0 49 -22 73 -59 73c-6 0 -16 -1 -24 -2l-4 30c75 28 102 52 102 91c0 22 -15 42 -46 42
c-41 0 -71 -25 -94 -48l-31 25c35 68 109 118 189 118c75 0 124 -30 124 -95c0 -61 -51 -102 -124 -112zM551 104h139l38 181zM799 -71h-147l25 118h-212l11 48l288 294h133l-60 -285h88l-13 -57h-88zM205 0l606 741h77l-607 -741h-76z" />
    <glyph glyph-name="registered" unicode="&#xae;" horiz-adv-x="555" 
d="M337 580h-5l-19 -89h5c28 0 58 14 58 54c0 23 -15 35 -39 35zM245 608h115c61 0 86 -27 86 -65c0 -43 -40 -65 -67 -73l32 -56c6 -13 15 -20 27 -21l-6 -23h-60c-10 6 -18 17 -23 31l-29 64h-13l-10 -45c-1 -4 -2 -11 -2 -14c0 -9 5 -13 21 -13l-6 -23h-116l6 23
c24 0 27 6 30 25l31 141c1 5 2 10 2 13c0 9 -6 12 -22 13zM316 291c120 0 206 90 206 209c0 103 -70 178 -178 178c-120 0 -206 -90 -206 -209c0 -103 70 -178 178 -178zM316 257c-126 0 -214 92 -214 212c0 136 105 243 242 243c126 0 214 -92 214 -212
c0 -136 -105 -243 -242 -243z" />
    <glyph glyph-name="minus" unicode="&#x2212;" horiz-adv-x="603" 
d="M80 318l21 93h460l-21 -93h-460z" />
    <glyph glyph-name="eth" unicode="&#xf0;" horiz-adv-x="606" 
d="M177 570l-19 44l142 55c-31 24 -69 45 -115 66l30 41c72 -15 132 -39 180 -70l116 45l19 -44l-89 -35c101 -85 140 -205 140 -316c0 -209 -133 -366 -331 -366c-129 0 -222 87 -222 230c0 187 132 325 321 325c12 0 24 -1 35 -3c-10 36 -26 65 -47 90zM403 384
c0 34 -2 64 -6 92c-10 4 -23 6 -40 6c-97 0 -152 -200 -152 -317c0 -65 12 -112 50 -112c93 0 148 214 148 331z" />
    <glyph glyph-name="multiply" unicode="&#xd7;" horiz-adv-x="526" 
d="M223 365l-106 133l75 62l103 -134l161 134l53 -65l-162 -134l104 -132l-72 -60l-106 132l-159 -132l-51 63z" />
    <glyph glyph-name="threesuperior" unicode="&#xb3;" horiz-adv-x="432" 
d="M323 537c61 -8 109 -50 109 -105c0 -113 -108 -154 -220 -154c-85 0 -152 40 -152 92c0 36 22 54 45 62h87c-10 -19 -13 -39 -13 -54c0 -34 19 -55 48 -55c36 0 63 37 63 92c0 49 -22 73 -59 73c-6 0 -16 -1 -24 -2l-4 30c75 28 102 52 102 91c0 22 -15 42 -46 42
c-41 0 -71 -25 -94 -48l-31 25c35 68 109 118 189 118c75 0 124 -30 124 -95c0 -61 -51 -102 -124 -112z" />
    <glyph glyph-name="copyright" unicode="&#xa9;" horiz-adv-x="796" 
d="M399 30c192 0 337 153 337 347c0 167 -118 295 -292 295c-192 0 -337 -153 -337 -347c0 -167 118 -295 292 -295zM399 -10c-197 0 -336 145 -336 335c0 216 166 387 381 387c197 0 336 -145 336 -335c0 -216 -166 -387 -381 -387zM399 141c-122 0 -182 73 -182 165
c0 150 113 258 257 258c62 0 105 -19 133 -45l-20 -93h-65c-3 58 -7 90 -49 90c-74 0 -123 -117 -123 -223c0 -59 17 -101 56 -101c49 0 64 29 100 101h66l-25 -113c-40 -24 -92 -39 -148 -39z" />
    <glyph glyph-name="Aacute" unicode="&#xc1;" horiz-adv-x="759" 
d="M462 151l-12 63h-255l-39 -63c-9 -15 -18 -33 -18 -49c0 -22 14 -34 64 -35l-14 -67h-226l14 67c28 5 47 10 64 37l327 520l-18 79h190l128 -599c5 -25 21 -33 51 -37l-13 -67h-334l14 67c58 3 82 13 82 45c0 12 -2 25 -5 39zM391 529l-154 -247h200zM500 909h197
l-194 -158h-99z" />
    <glyph glyph-name="Acircumflex" unicode="&#xc2;" horiz-adv-x="759" 
d="M462 151l-12 63h-255l-39 -63c-9 -15 -18 -33 -18 -49c0 -22 14 -34 64 -35l-14 -67h-226l14 67c28 5 47 10 64 37l327 520l-18 79h190l128 -599c5 -25 21 -33 51 -37l-13 -67h-334l14 67c58 3 82 13 82 45c0 12 -2 25 -5 39zM564 918l92 -169h-89l-88 80l-134 -80h-101
l184 169h136zM391 529l-154 -247h200z" />
    <glyph glyph-name="Adieresis" unicode="&#xc4;" horiz-adv-x="759" 
d="M462 151l-12 63h-255l-39 -63c-9 -15 -18 -33 -18 -49c0 -22 14 -34 64 -35l-14 -67h-226l14 67c28 5 47 10 64 37l327 520l-18 79h190l128 -599c5 -25 21 -33 51 -37l-13 -67h-334l14 67c58 3 82 13 82 45c0 12 -2 25 -5 39zM366 743c-54 0 -87 39 -87 83
c0 49 35 93 93 93c54 0 86 -38 86 -82c0 -50 -35 -94 -92 -94zM585 743c-54 0 -86 39 -86 83c0 49 34 93 92 93c54 0 86 -38 86 -82c0 -50 -34 -94 -92 -94zM391 529l-154 -247h200z" />
    <glyph glyph-name="Agrave" unicode="&#xc0;" horiz-adv-x="759" 
d="M462 151l-12 63h-255l-39 -63c-9 -15 -18 -33 -18 -49c0 -22 14 -34 64 -35l-14 -67h-226l14 67c28 5 47 10 64 37l327 520l-18 79h190l128 -599c5 -25 21 -33 51 -37l-13 -67h-334l14 67c58 3 82 13 82 45c0 12 -2 25 -5 39zM391 529l-154 -247h200zM301 909h181
l35 -158h-91z" />
    <glyph glyph-name="Aring" unicode="&#xc5;" horiz-adv-x="759" 
d="M462 151l-12 63h-255l-39 -63c-9 -15 -18 -33 -18 -49c0 -22 14 -34 64 -35l-14 -67h-226l14 67c28 5 47 10 64 37l327 520l-18 79h190l128 -599c5 -25 21 -33 51 -37l-13 -67h-334l14 67c58 3 82 13 82 45c0 12 -2 25 -5 39zM471 739c-62 0 -104 39 -104 93
c0 63 57 109 123 109c62 0 104 -39 104 -93c0 -63 -57 -109 -123 -109zM391 529l-154 -247h200zM476 796c33 0 51 23 51 49c0 23 -15 39 -42 39c-33 0 -51 -23 -51 -48c0 -24 15 -40 42 -40z" />
    <glyph glyph-name="Atilde" unicode="&#xc3;" horiz-adv-x="759" 
d="M462 151l-12 63h-255l-39 -63c-9 -15 -18 -33 -18 -49c0 -22 14 -34 64 -35l-14 -67h-226l14 67c28 5 47 10 64 37l327 520l-18 79h190l128 -599c5 -25 21 -33 51 -37l-13 -67h-334l14 67c58 3 82 13 82 45c0 12 -2 25 -5 39zM624 900l58 -12
c-63 -125 -93 -150 -151 -150c-49 0 -95 63 -132 63c-29 0 -47 -25 -68 -55l-59 11c64 125 93 150 151 150c56 0 94 -63 132 -63c28 0 48 24 69 56zM391 529l-154 -247h200z" />
    <glyph glyph-name="Ccedilla" unicode="&#xc7;" horiz-adv-x="704" 
d="M209 -233l-11 49c72 0 122 12 122 39c0 25 -29 34 -76 36l51 105c-159 25 -238 138 -238 276c0 256 193 440 439 440c105 0 179 -32 226 -77l-34 -159h-93c-6 100 -22 166 -101 166c-147 0 -236 -212 -236 -392c0 -112 35 -185 121 -185c85 0 127 60 189 183h95l-43 -192
c-68 -41 -157 -66 -253 -66c-8 0 -16 0 -24 1l-18 -35c59 -6 86 -31 86 -78c0 -74 -102 -111 -202 -111z" />
    <glyph glyph-name="Eacute" unicode="&#xc9;" horiz-adv-x="674" 
d="M-15 0l14 67c69 3 85 15 96 69l90 428c2 9 4 23 4 31c0 30 -16 38 -68 40l13 67h579l-41 -191h-71c-14 82 -30 122 -110 122h-103l-49 -236h74c44 0 66 19 89 79h64l-48 -229h-64c0 59 -12 79 -56 79h-74l-37 -177c-3 -14 -5 -26 -5 -35c0 -37 25 -45 69 -45h23
c71 0 114 37 191 137h79l-74 -206h-585zM476 909h197l-194 -158h-99z" />
    <glyph glyph-name="Ecircumflex" unicode="&#xca;" horiz-adv-x="674" 
d="M-15 0l14 67c69 3 85 15 96 69l90 428c2 9 4 23 4 31c0 30 -16 38 -68 40l13 67h579l-41 -191h-71c-14 82 -30 122 -110 122h-103l-49 -236h74c44 0 66 19 89 79h64l-48 -229h-64c0 59 -12 79 -56 79h-74l-37 -177c-3 -14 -5 -26 -5 -35c0 -37 25 -45 69 -45h23
c71 0 114 37 191 137h79l-74 -206h-585zM541 918l92 -169h-89l-88 80l-134 -80h-101l184 169h136z" />
    <glyph glyph-name="Edieresis" unicode="&#xcb;" horiz-adv-x="674" 
d="M-15 0l14 67c69 3 85 15 96 69l90 428c2 9 4 23 4 31c0 30 -16 38 -68 40l13 67h579l-41 -191h-71c-14 82 -30 122 -110 122h-103l-49 -236h74c44 0 66 19 89 79h64l-48 -229h-64c0 59 -12 79 -56 79h-74l-37 -177c-3 -14 -5 -26 -5 -35c0 -37 25 -45 69 -45h23
c71 0 114 37 191 137h79l-74 -206h-585zM343 743c-54 0 -87 39 -87 83c0 49 35 93 93 93c54 0 86 -38 86 -82c0 -50 -35 -94 -92 -94zM562 743c-54 0 -86 39 -86 83c0 49 34 93 92 93c54 0 86 -38 86 -82c0 -50 -34 -94 -92 -94z" />
    <glyph glyph-name="Egrave" unicode="&#xc8;" horiz-adv-x="674" 
d="M-15 0l14 67c69 3 85 15 96 69l90 428c2 9 4 23 4 31c0 30 -16 38 -68 40l13 67h579l-41 -191h-71c-14 82 -30 122 -110 122h-103l-49 -236h74c44 0 66 19 89 79h64l-48 -229h-64c0 59 -12 79 -56 79h-74l-37 -177c-3 -14 -5 -26 -5 -35c0 -37 25 -45 69 -45h23
c71 0 114 37 191 137h79l-74 -206h-585zM278 909h181l35 -158h-91z" />
    <glyph glyph-name="Iacute" unicode="&#xcd;" horiz-adv-x="413" 
d="M375 566l-90 -428c-2 -9 -4 -23 -4 -31c0 -30 16 -38 68 -40l-13 -67h-351l14 67c69 3 85 15 96 69l90 428c2 9 4 23 4 31c0 30 -16 38 -68 40l13 67h350l-13 -67c-69 -3 -85 -15 -96 -69zM357 909h197l-194 -158h-99z" />
    <glyph glyph-name="Icircumflex" unicode="&#xce;" horiz-adv-x="413" 
d="M375 566l-90 -428c-2 -9 -4 -23 -4 -31c0 -30 16 -38 68 -40l-13 -67h-351l14 67c69 3 85 15 96 69l90 428c2 9 4 23 4 31c0 30 -16 38 -68 40l13 67h350l-13 -67c-69 -3 -85 -15 -96 -69zM422 918l92 -169h-89l-88 80l-134 -80h-101l184 169h136z" />
    <glyph glyph-name="Idieresis" unicode="&#xcf;" horiz-adv-x="413" 
d="M375 566l-90 -428c-2 -9 -4 -23 -4 -31c0 -30 16 -38 68 -40l-13 -67h-351l14 67c69 3 85 15 96 69l90 428c2 9 4 23 4 31c0 30 -16 38 -68 40l13 67h350l-13 -67c-69 -3 -85 -15 -96 -69zM224 743c-54 0 -87 39 -87 83c0 49 35 93 93 93c54 0 86 -38 86 -82
c0 -50 -35 -94 -92 -94zM443 743c-54 0 -86 39 -86 83c0 49 34 93 92 93c54 0 86 -38 86 -82c0 -50 -34 -94 -92 -94z" />
    <glyph glyph-name="Igrave" unicode="&#xcc;" horiz-adv-x="413" 
d="M375 566l-90 -428c-2 -9 -4 -23 -4 -31c0 -30 16 -38 68 -40l-13 -67h-351l14 67c69 3 85 15 96 69l90 428c2 9 4 23 4 31c0 30 -16 38 -68 40l13 67h350l-13 -67c-69 -3 -85 -15 -96 -69zM159 909h181l35 -158h-91z" />
    <glyph glyph-name="Ntilde" unicode="&#xd1;" horiz-adv-x="785" 
d="M676 900l58 -12c-63 -125 -93 -150 -151 -150c-49 0 -95 63 -132 63c-29 0 -47 -25 -68 -55l-59 11c64 125 93 150 151 150c56 0 94 -63 132 -63c28 0 48 24 69 56zM605 293l56 271c2 9 4 23 4 31c0 30 -16 38 -68 40l13 67h249l-13 -67c-69 -3 -85 -15 -97 -69
l-118 -566h-79l-292 507l-77 -369c-2 -9 -4 -23 -4 -31c0 -30 15 -38 68 -40l-14 -67h-248l14 67c69 3 85 15 96 69l95 449c-22 41 -36 46 -70 50l14 67h252z" />
    <glyph glyph-name="Oacute" unicode="&#xd3;" horiz-adv-x="764" 
d="M354 61c129 0 201 238 201 398c0 111 -21 182 -95 182c-129 0 -201 -238 -201 -398c0 -111 21 -182 95 -182zM350 -10c-179 0 -293 108 -293 285c0 218 161 437 407 437c179 0 293 -108 293 -285c0 -218 -161 -437 -407 -437zM526 909h197l-194 -158h-99z" />
    <glyph glyph-name="Ocircumflex" unicode="&#xd4;" horiz-adv-x="764" 
d="M354 61c129 0 201 238 201 398c0 111 -21 182 -95 182c-129 0 -201 -238 -201 -398c0 -111 21 -182 95 -182zM350 -10c-179 0 -293 108 -293 285c0 218 161 437 407 437c179 0 293 -108 293 -285c0 -218 -161 -437 -407 -437zM591 918l92 -169h-89l-88 80l-134 -80h-101
l184 169h136z" />
    <glyph glyph-name="Odieresis" unicode="&#xd6;" horiz-adv-x="764" 
d="M354 61c129 0 201 238 201 398c0 111 -21 182 -95 182c-129 0 -201 -238 -201 -398c0 -111 21 -182 95 -182zM350 -10c-179 0 -293 108 -293 285c0 218 161 437 407 437c179 0 293 -108 293 -285c0 -218 -161 -437 -407 -437zM393 743c-54 0 -87 39 -87 83
c0 49 35 93 93 93c54 0 86 -38 86 -82c0 -50 -35 -94 -92 -94zM612 743c-54 0 -86 39 -86 83c0 49 34 93 92 93c54 0 86 -38 86 -82c0 -50 -34 -94 -92 -94z" />
    <glyph glyph-name="Ograve" unicode="&#xd2;" horiz-adv-x="764" 
d="M354 61c129 0 201 238 201 398c0 111 -21 182 -95 182c-129 0 -201 -238 -201 -398c0 -111 21 -182 95 -182zM350 -10c-179 0 -293 108 -293 285c0 218 161 437 407 437c179 0 293 -108 293 -285c0 -218 -161 -437 -407 -437zM328 909h181l35 -158h-91z" />
    <glyph glyph-name="Otilde" unicode="&#xd5;" horiz-adv-x="764" 
d="M354 61c129 0 201 238 201 398c0 111 -21 182 -95 182c-129 0 -201 -238 -201 -398c0 -111 21 -182 95 -182zM350 -10c-179 0 -293 108 -293 285c0 218 161 437 407 437c179 0 293 -108 293 -285c0 -218 -161 -437 -407 -437zM650 900l58 -12
c-63 -125 -93 -150 -151 -150c-49 0 -95 63 -132 63c-29 0 -47 -25 -68 -55l-59 11c64 125 93 150 151 150c56 0 94 -63 132 -63c28 0 48 24 69 56z" />
    <glyph glyph-name="Scaron" unicode="&#x160;" horiz-adv-x="589" 
d="M265 -10c-116 0 -208 48 -245 95l27 156h91c4 -114 52 -187 141 -187c62 0 105 33 105 96c0 53 -28 79 -115 120c-117 56 -171 121 -171 217c0 142 115 225 271 225c109 0 179 -35 223 -75l-30 -147h-79c-10 84 -33 157 -128 157c-61 0 -97 -38 -97 -89
c0 -53 35 -77 112 -115c118 -58 184 -109 184 -218c0 -161 -141 -235 -289 -235zM336 752l-92 169h89l88 -80l134 80h101l-184 -169h-136z" />
    <glyph glyph-name="Uacute" unicode="&#xda;" horiz-adv-x="775" 
d="M598 275l62 289c2 9 4 23 4 31c0 30 -16 38 -68 40l13 67h249l-14 -67c-68 -3 -85 -15 -96 -69l-66 -320c-36 -175 -158 -256 -314 -256c-161 0 -264 77 -264 217c0 22 3 46 10 79l58 278c2 9 4 23 4 31c0 30 -16 38 -68 40l13 67h351l-14 -67c-69 -3 -85 -15 -96 -69
l-57 -269c-5 -25 -9 -50 -9 -72c0 -84 42 -132 117 -132c90 0 154 38 185 182zM581 909h197l-194 -158h-99z" />
    <glyph glyph-name="Ucircumflex" unicode="&#xdb;" horiz-adv-x="775" 
d="M598 275l62 289c2 9 4 23 4 31c0 30 -16 38 -68 40l13 67h249l-14 -67c-68 -3 -85 -15 -96 -69l-66 -320c-36 -175 -158 -256 -314 -256c-161 0 -264 77 -264 217c0 22 3 46 10 79l58 278c2 9 4 23 4 31c0 30 -16 38 -68 40l13 67h351l-14 -67c-69 -3 -85 -15 -96 -69
l-57 -269c-5 -25 -9 -50 -9 -72c0 -84 42 -132 117 -132c90 0 154 38 185 182zM646 918l92 -169h-89l-88 80l-134 -80h-101l184 169h136z" />
    <glyph glyph-name="Udieresis" unicode="&#xdc;" horiz-adv-x="775" 
d="M598 275l62 289c2 9 4 23 4 31c0 30 -16 38 -68 40l13 67h249l-14 -67c-68 -3 -85 -15 -96 -69l-66 -320c-36 -175 -158 -256 -314 -256c-161 0 -264 77 -264 217c0 22 3 46 10 79l58 278c2 9 4 23 4 31c0 30 -16 38 -68 40l13 67h351l-14 -67c-69 -3 -85 -15 -96 -69
l-57 -269c-5 -25 -9 -50 -9 -72c0 -84 42 -132 117 -132c90 0 154 38 185 182zM448 743c-54 0 -87 39 -87 83c0 49 35 93 93 93c54 0 86 -38 86 -82c0 -50 -35 -94 -92 -94zM667 743c-54 0 -86 39 -86 83c0 49 34 93 92 93c54 0 86 -38 86 -82c0 -50 -34 -94 -92 -94z" />
    <glyph glyph-name="Ugrave" unicode="&#xd9;" horiz-adv-x="775" 
d="M598 275l62 289c2 9 4 23 4 31c0 30 -16 38 -68 40l13 67h249l-14 -67c-68 -3 -85 -15 -96 -69l-66 -320c-36 -175 -158 -256 -314 -256c-161 0 -264 77 -264 217c0 22 3 46 10 79l58 278c2 9 4 23 4 31c0 30 -16 38 -68 40l13 67h351l-14 -67c-69 -3 -85 -15 -96 -69
l-57 -269c-5 -25 -9 -50 -9 -72c0 -84 42 -132 117 -132c90 0 154 38 185 182zM383 909h181l35 -158h-91z" />
    <glyph glyph-name="Yacute" unicode="&#xdd;" horiz-adv-x="692" 
d="M419 340l148 196c19 26 36 45 36 65c0 21 -14 32 -59 34l14 67h230l-14 -67c-30 -5 -47 -11 -67 -37l-263 -341l-26 -121c-2 -10 -3 -19 -3 -26c0 -32 21 -41 76 -43l-14 -67h-355l14 67c66 3 89 15 100 69l26 122l-118 340c-9 26 -22 32 -48 37l14 67h324l-14 -67
c-45 0 -76 -11 -76 -52c0 -15 3 -29 10 -48zM543 909h197l-194 -158h-99z" />
    <glyph glyph-name="Ydieresis" unicode="&#x178;" horiz-adv-x="692" 
d="M419 340l148 196c19 26 36 45 36 65c0 21 -14 32 -59 34l14 67h230l-14 -67c-30 -5 -47 -11 -67 -37l-263 -341l-26 -121c-2 -10 -3 -19 -3 -26c0 -32 21 -41 76 -43l-14 -67h-355l14 67c66 3 89 15 100 69l26 122l-118 340c-9 26 -22 32 -48 37l14 67h324l-14 -67
c-45 0 -76 -11 -76 -52c0 -15 3 -29 10 -48zM400 743c-54 0 -87 39 -87 83c0 49 35 93 93 93c54 0 86 -38 86 -82c0 -50 -35 -94 -92 -94zM619 743c-54 0 -86 39 -86 83c0 49 34 93 92 93c54 0 86 -38 86 -82c0 -50 -34 -94 -92 -94z" />
    <glyph glyph-name="Zcaron" unicode="&#x17d;" horiz-adv-x="648" 
d="M230 71h114c82 0 103 21 208 161h80l-84 -232h-571l10 47l476 583h-117c-81 0 -103 -51 -163 -137h-69l45 209h555l-11 -48zM361 752l-92 169h89l88 -80l134 80h101l-184 -169h-136z" />
    <glyph glyph-name="aacute" unicode="&#xe1;" horiz-adv-x="694" 
d="M249 111c66 0 156 163 193 342c-11 29 -18 47 -51 47c-106 0 -185 -188 -185 -318c0 -43 12 -71 43 -71zM482 505l105 54h71l-41 -141l-66 -268c-5 -19 -8 -33 -8 -41c0 -10 5 -15 14 -15c19 0 43 27 79 73l32 -27c-67 -95 -127 -150 -202 -150c-63 0 -100 45 -100 108
c0 32 12 58 27 112h-7c-49 -104 -115 -220 -225 -220c-79 0 -135 67 -135 176c0 186 135 393 338 393c58 0 88 -23 118 -54zM461 766h197l-195 -160h-98z" />
    <glyph glyph-name="acircumflex" unicode="&#xe2;" horiz-adv-x="694" 
d="M249 111c66 0 156 163 193 342c-11 29 -18 47 -51 47c-106 0 -185 -188 -185 -318c0 -43 12 -71 43 -71zM482 505l105 54h71l-41 -141l-66 -268c-5 -19 -8 -33 -8 -41c0 -10 5 -15 14 -15c19 0 43 27 79 73l32 -27c-67 -95 -127 -150 -202 -150c-63 0 -100 45 -100 108
c0 32 12 58 27 112h-7c-49 -104 -115 -220 -225 -220c-79 0 -135 67 -135 176c0 186 135 393 338 393c58 0 88 -23 118 -54zM528 766l92 -169h-89l-88 80l-134 -80h-101l184 169h136z" />
    <glyph glyph-name="adieresis" unicode="&#xe4;" horiz-adv-x="694" 
d="M249 111c66 0 156 163 193 342c-11 29 -18 47 -51 47c-106 0 -185 -188 -185 -318c0 -43 12 -71 43 -71zM482 505l105 54h71l-41 -141l-66 -268c-5 -19 -8 -33 -8 -41c0 -10 5 -15 14 -15c19 0 43 27 79 73l32 -27c-67 -95 -127 -150 -202 -150c-63 0 -100 45 -100 108
c0 32 12 58 27 112h-7c-49 -104 -115 -220 -225 -220c-79 0 -135 67 -135 176c0 186 135 393 338 393c58 0 88 -23 118 -54zM327 603c-54 0 -87 39 -87 83c0 49 35 93 93 93c54 0 86 -38 86 -82c0 -50 -35 -94 -92 -94zM546 603c-54 0 -86 39 -86 83c0 49 34 93 92 93
c54 0 86 -38 86 -82c0 -50 -34 -94 -92 -94z" />
    <glyph glyph-name="agrave" unicode="&#xe0;" horiz-adv-x="694" 
d="M249 111c66 0 156 163 193 342c-11 29 -18 47 -51 47c-106 0 -185 -188 -185 -318c0 -43 12 -71 43 -71zM482 505l105 54h71l-41 -141l-66 -268c-5 -19 -8 -33 -8 -41c0 -10 5 -15 14 -15c19 0 43 27 79 73l32 -27c-67 -95 -127 -150 -202 -150c-63 0 -100 45 -100 108
c0 32 12 58 27 112h-7c-49 -104 -115 -220 -225 -220c-79 0 -135 67 -135 176c0 186 135 393 338 393c58 0 88 -23 118 -54zM261 766h181l35 -160h-91z" />
    <glyph glyph-name="aring" unicode="&#xe5;" horiz-adv-x="694" 
d="M249 111c66 0 156 163 193 342c-11 29 -18 47 -51 47c-106 0 -185 -188 -185 -318c0 -43 12 -71 43 -71zM482 505l105 54h71l-41 -141l-66 -268c-5 -19 -8 -33 -8 -41c0 -10 5 -15 14 -15c19 0 43 27 79 73l32 -27c-67 -95 -127 -150 -202 -150c-63 0 -100 45 -100 108
c0 32 12 58 27 112h-7c-49 -104 -115 -220 -225 -220c-79 0 -135 67 -135 176c0 186 135 393 338 393c58 0 88 -23 118 -54zM436 654c33 0 51 23 51 49c0 23 -15 39 -42 39c-33 0 -51 -23 -51 -48c0 -24 15 -40 42 -40zM431 597c-62 0 -104 39 -104 93c0 63 57 109 123 109
c62 0 104 -39 104 -93c0 -63 -57 -109 -123 -109z" />
    <glyph glyph-name="atilde" unicode="&#xe3;" horiz-adv-x="694" 
d="M249 111c66 0 156 163 193 342c-11 29 -18 47 -51 47c-106 0 -185 -188 -185 -318c0 -43 12 -71 43 -71zM482 505l105 54h71l-41 -141l-66 -268c-5 -19 -8 -33 -8 -41c0 -10 5 -15 14 -15c19 0 43 27 79 73l32 -27c-67 -95 -127 -150 -202 -150c-63 0 -100 45 -100 108
c0 32 12 58 27 112h-7c-49 -104 -115 -220 -225 -220c-79 0 -135 67 -135 176c0 186 135 393 338 393c58 0 88 -23 118 -54zM586 771l58 -11c-63 -125 -93 -150 -151 -150c-49 0 -95 63 -132 63c-29 0 -47 -25 -68 -56l-59 12c64 125 93 150 151 150c56 0 94 -63 132 -63
c28 0 48 24 69 55z" />
    <glyph glyph-name="ccedilla" unicode="&#xe7;" horiz-adv-x="510" 
d="M76 -233l-11 49c72 0 122 12 122 39c0 25 -29 34 -76 36l52 106c-87 23 -137 100 -137 200c0 181 142 362 343 362c79 0 144 -30 144 -104c0 -39 -21 -71 -64 -82h-58c8 73 3 126 -38 126c-80 0 -147 -159 -147 -280c0 -77 32 -120 85 -120c47 0 90 16 144 77l27 -27
c-60 -107 -147 -159 -240 -159h-13l-17 -34c59 -6 86 -31 86 -78c0 -74 -102 -111 -202 -111z" />
    <glyph glyph-name="eacute" unicode="&#xe9;" horiz-adv-x="530" 
d="M525 436c0 -108 -123 -166 -326 -203v-14c0 -78 38 -129 98 -129c59 0 101 25 155 86l28 -27c-63 -109 -166 -159 -257 -159c-125 0 -197 88 -197 208c0 181 152 361 349 361c98 0 150 -58 150 -123zM397 766h197l-195 -160h-98zM350 498c-69 0 -131 -116 -147 -226
c126 38 180 92 180 174c0 26 -8 52 -33 52z" />
    <glyph glyph-name="ecircumflex" unicode="&#xea;" horiz-adv-x="530" 
d="M525 436c0 -108 -123 -166 -326 -203v-14c0 -78 38 -129 98 -129c59 0 101 25 155 86l28 -27c-63 -109 -166 -159 -257 -159c-125 0 -197 88 -197 208c0 181 152 361 349 361c98 0 150 -58 150 -123zM464 766l92 -169h-89l-88 80l-134 -80h-101l184 169h136zM350 498
c-69 0 -131 -116 -147 -226c126 38 180 92 180 174c0 26 -8 52 -33 52z" />
    <glyph glyph-name="edieresis" unicode="&#xeb;" horiz-adv-x="530" 
d="M525 436c0 -108 -123 -166 -326 -203v-14c0 -78 38 -129 98 -129c59 0 101 25 155 86l28 -27c-63 -109 -166 -159 -257 -159c-125 0 -197 88 -197 208c0 181 152 361 349 361c98 0 150 -58 150 -123zM263 603c-54 0 -87 39 -87 83c0 49 35 93 93 93c54 0 86 -38 86 -82
c0 -50 -35 -94 -92 -94zM482 603c-54 0 -86 39 -86 83c0 49 34 93 92 93c54 0 86 -38 86 -82c0 -50 -34 -94 -92 -94zM350 498c-69 0 -131 -116 -147 -226c126 38 180 92 180 174c0 26 -8 52 -33 52z" />
    <glyph glyph-name="egrave" unicode="&#xe8;" horiz-adv-x="530" 
d="M525 436c0 -108 -123 -166 -326 -203v-14c0 -78 38 -129 98 -129c59 0 101 25 155 86l28 -27c-63 -109 -166 -159 -257 -159c-125 0 -197 88 -197 208c0 181 152 361 349 361c98 0 150 -58 150 -123zM350 498c-69 0 -131 -116 -147 -226c126 38 180 92 180 174
c0 26 -8 52 -33 52zM197 766h181l35 -160h-91z" />
    <glyph glyph-name="iacute" unicode="&#xed;" horiz-adv-x="370" 
d="M328 559l-103 -409c-5 -19 -8 -33 -8 -41c0 -10 5 -15 14 -15c19 0 44 27 80 73l31 -27c-66 -95 -126 -150 -201 -150c-63 0 -104 40 -104 94c0 27 5 52 13 86l66 269l-50 47l9 34l218 39h35zM281 766h197l-195 -160h-98z" />
    <glyph glyph-name="icircumflex" unicode="&#xee;" horiz-adv-x="370" 
d="M328 559l-103 -409c-5 -19 -8 -33 -8 -41c0 -10 5 -15 14 -15c19 0 44 27 80 73l31 -27c-66 -95 -126 -150 -201 -150c-63 0 -104 40 -104 94c0 27 5 52 13 86l66 269l-50 47l9 34l218 39h35zM358 766l92 -169h-89l-88 80l-134 -80h-101l184 169h136z" />
    <glyph glyph-name="idieresis" unicode="&#xef;" horiz-adv-x="370" 
d="M328 559l-103 -409c-5 -19 -8 -33 -8 -41c0 -10 5 -15 14 -15c19 0 44 27 80 73l31 -27c-66 -95 -126 -150 -201 -150c-63 0 -104 40 -104 94c0 27 5 52 13 86l66 269l-50 47l9 34l218 39h35zM157 603c-54 0 -87 39 -87 83c0 49 35 93 93 93c54 0 86 -38 86 -82
c0 -50 -35 -94 -92 -94zM376 603c-54 0 -86 39 -86 83c0 49 34 93 92 93c54 0 86 -38 86 -82c0 -50 -34 -94 -92 -94z" />
    <glyph glyph-name="igrave" unicode="&#xec;" horiz-adv-x="370" 
d="M328 559l-103 -409c-5 -19 -8 -33 -8 -41c0 -10 5 -15 14 -15c19 0 44 27 80 73l31 -27c-66 -95 -126 -150 -201 -150c-63 0 -104 40 -104 94c0 27 5 52 13 86l66 269l-50 47l9 34l218 39h35zM91 766h181l35 -160h-91z" />
    <glyph glyph-name="ntilde" unicode="&#xf1;" horiz-adv-x="689" 
d="M335 562l-27 -105l-56 -158h7c100 172 193 260 287 260c55 0 86 -35 86 -88c0 -13 -3 -31 -6 -44l-75 -277c-5 -19 -9 -33 -9 -41c0 -10 5 -15 14 -15c19 0 43 27 80 73l31 -27c-67 -95 -127 -150 -201 -150c-64 0 -106 40 -106 94c0 27 4 52 14 86l64 220
c3 13 5 25 5 33c0 11 -4 18 -17 18c-37 0 -154 -141 -197 -306l-35 -135h-181l109 439l-51 47l10 34l218 42h36zM587 771l58 -11c-63 -125 -93 -150 -151 -150c-49 0 -95 63 -132 63c-29 0 -47 -25 -68 -56l-59 12c64 125 93 150 151 150c56 0 94 -63 132 -63
c28 0 48 24 69 55z" />
    <glyph glyph-name="oacute" unicode="&#xf3;" horiz-adv-x="608" 
d="M255 53c93 0 148 214 148 331c0 65 -12 112 -50 112c-93 0 -148 -214 -148 -331c0 -65 12 -112 50 -112zM250 -10c-129 0 -222 87 -222 230c0 187 132 339 330 339c129 0 222 -87 222 -230c0 -187 -132 -339 -330 -339zM414 766h197l-195 -160h-98z" />
    <glyph glyph-name="ocircumflex" unicode="&#xf4;" horiz-adv-x="608" 
d="M255 53c93 0 148 214 148 331c0 65 -12 112 -50 112c-93 0 -148 -214 -148 -331c0 -65 12 -112 50 -112zM250 -10c-129 0 -222 87 -222 230c0 187 132 339 330 339c129 0 222 -87 222 -230c0 -187 -132 -339 -330 -339zM481 766l92 -169h-89l-88 80l-134 -80h-101
l184 169h136z" />
    <glyph glyph-name="odieresis" unicode="&#xf6;" horiz-adv-x="608" 
d="M255 53c93 0 148 214 148 331c0 65 -12 112 -50 112c-93 0 -148 -214 -148 -331c0 -65 12 -112 50 -112zM250 -10c-129 0 -222 87 -222 230c0 187 132 339 330 339c129 0 222 -87 222 -230c0 -187 -132 -339 -330 -339zM275 603c-54 0 -87 39 -87 83c0 49 35 93 93 93
c54 0 86 -38 86 -82c0 -50 -35 -94 -92 -94zM494 603c-54 0 -86 39 -86 83c0 49 34 93 92 93c54 0 86 -38 86 -82c0 -50 -34 -94 -92 -94z" />
    <glyph glyph-name="ograve" unicode="&#xf2;" horiz-adv-x="608" 
d="M255 53c93 0 148 214 148 331c0 65 -12 112 -50 112c-93 0 -148 -214 -148 -331c0 -65 12 -112 50 -112zM250 -10c-129 0 -222 87 -222 230c0 187 132 339 330 339c129 0 222 -87 222 -230c0 -187 -132 -339 -330 -339zM214 766h181l35 -160h-91z" />
    <glyph glyph-name="otilde" unicode="&#xf5;" horiz-adv-x="608" 
d="M255 53c93 0 148 214 148 331c0 65 -12 112 -50 112c-93 0 -148 -214 -148 -331c0 -65 12 -112 50 -112zM250 -10c-129 0 -222 87 -222 230c0 187 132 339 330 339c129 0 222 -87 222 -230c0 -187 -132 -339 -330 -339zM539 771l58 -11c-63 -125 -93 -150 -151 -150
c-49 0 -95 63 -132 63c-29 0 -47 -25 -68 -56l-59 12c64 125 93 150 151 150c56 0 94 -63 132 -63c28 0 48 24 69 55z" />
    <glyph glyph-name="scaron" unicode="&#x161;" horiz-adv-x="482" 
d="M214 45c36 0 57 21 57 52c0 70 -202 133 -202 261c0 120 94 201 229 201c84 0 154 -41 154 -106c0 -28 -24 -51 -56 -60h-34c-9 64 -47 110 -95 110c-40 0 -60 -18 -60 -47c0 -66 213 -142 213 -268c0 -121 -101 -198 -230 -198c-112 0 -194 51 -194 116
c0 40 28 67 63 78h30c14 -88 52 -139 125 -139zM247 606l-92 169h89l88 -80l134 80h101l-184 -169h-136z" />
    <glyph glyph-name="uacute" unicode="&#xfa;" horiz-adv-x="701" 
d="M407 243h-7c-81 -147 -172 -253 -265 -253c-68 0 -98 39 -98 98c0 18 3 38 8 60l70 291l-50 47l10 34l217 39h35l-100 -395c-3 -13 -4 -24 -4 -30c0 -16 4 -23 17 -23c46 0 161 158 199 308l31 120l183 10l-100 -399c-5 -19 -8 -33 -8 -41c0 -10 5 -15 14 -15
c19 0 44 27 80 73l31 -27c-66 -95 -124 -150 -199 -150c-64 0 -98 45 -98 108c0 32 14 82 34 145zM453 766h197l-195 -160h-98z" />
    <glyph glyph-name="ucircumflex" unicode="&#xfb;" horiz-adv-x="701" 
d="M407 243h-7c-81 -147 -172 -253 -265 -253c-68 0 -98 39 -98 98c0 18 3 38 8 60l70 291l-50 47l10 34l217 39h35l-100 -395c-3 -13 -4 -24 -4 -30c0 -16 4 -23 17 -23c46 0 161 158 199 308l31 120l183 10l-100 -399c-5 -19 -8 -33 -8 -41c0 -10 5 -15 14 -15
c19 0 44 27 80 73l31 -27c-66 -95 -124 -150 -199 -150c-64 0 -98 45 -98 108c0 32 14 82 34 145zM520 766l92 -169h-89l-88 80l-134 -80h-101l184 169h136z" />
    <glyph glyph-name="udieresis" unicode="&#xfc;" horiz-adv-x="701" 
d="M407 243h-7c-81 -147 -172 -253 -265 -253c-68 0 -98 39 -98 98c0 18 3 38 8 60l70 291l-50 47l10 34l217 39h35l-100 -395c-3 -13 -4 -24 -4 -30c0 -16 4 -23 17 -23c46 0 161 158 199 308l31 120l183 10l-100 -399c-5 -19 -8 -33 -8 -41c0 -10 5 -15 14 -15
c19 0 44 27 80 73l31 -27c-66 -95 -124 -150 -199 -150c-64 0 -98 45 -98 108c0 32 14 82 34 145zM319 603c-54 0 -87 39 -87 83c0 49 35 93 93 93c54 0 86 -38 86 -82c0 -50 -35 -94 -92 -94zM538 603c-54 0 -86 39 -86 83c0 49 34 93 92 93c54 0 86 -38 86 -82
c0 -50 -34 -94 -92 -94z" />
    <glyph glyph-name="ugrave" unicode="&#xf9;" horiz-adv-x="701" 
d="M407 243h-7c-81 -147 -172 -253 -265 -253c-68 0 -98 39 -98 98c0 18 3 38 8 60l70 291l-50 47l10 34l217 39h35l-100 -395c-3 -13 -4 -24 -4 -30c0 -16 4 -23 17 -23c46 0 161 158 199 308l31 120l183 10l-100 -399c-5 -19 -8 -33 -8 -41c0 -10 5 -15 14 -15
c19 0 44 27 80 73l31 -27c-66 -95 -124 -150 -199 -150c-64 0 -98 45 -98 108c0 32 14 82 34 145zM253 766h181l35 -160h-91z" />
    <glyph glyph-name="yacute" unicode="&#xfd;" horiz-adv-x="569" 
d="M363 58c-153 -195 -250 -264 -353 -264c-63 0 -117 29 -117 91c0 35 23 67 63 80h32c0 -61 19 -98 78 -98c39 0 80 22 130 70l-117 508l-61 41l10 34l185 39h35l85 -457l3 3c82 111 102 213 102 272c0 62 -34 92 -87 92l1 19c23 37 63 71 121 71c64 0 92 -52 92 -104
c0 -122 -92 -258 -202 -397zM389 766h197l-195 -160h-98z" />
    <glyph glyph-name="ydieresis" unicode="&#xff;" horiz-adv-x="569" 
d="M363 58c-153 -195 -250 -264 -353 -264c-63 0 -117 29 -117 91c0 35 23 67 63 80h32c0 -61 19 -98 78 -98c39 0 80 22 130 70l-117 508l-61 41l10 34l185 39h35l85 -457l3 3c82 111 102 213 102 272c0 62 -34 92 -87 92l1 19c23 37 63 71 121 71c64 0 92 -52 92 -104
c0 -122 -92 -258 -202 -397zM255 603c-54 0 -87 39 -87 83c0 49 35 93 93 93c54 0 86 -38 86 -82c0 -50 -35 -94 -92 -94zM474 603c-54 0 -86 39 -86 83c0 49 34 93 92 93c54 0 86 -38 86 -82c0 -50 -34 -94 -92 -94z" />
    <glyph glyph-name="zcaron" unicode="&#x17e;" horiz-adv-x="543" 
d="M361 402h-186c-32 0 -42 -7 -60 -34l-27 -41l-34 9l89 247h35c4 -26 8 -37 22 -37h366v-33l-366 -329l84 -25c16 -5 43 -12 72 -12c51 0 76 4 126 78l34 -11c-59 -156 -116 -229 -210 -229c-51 0 -90 15 -141 44l-88 50l-49 -83c-36 0 -55 13 -55 37c0 17 7 35 29 54z
M280 606l-92 169h89l88 -80l134 80h101l-184 -169h-136z" />
    <glyph glyph-name="Omega" unicode="&#x2126;" horiz-adv-x="756" 
d="M465 639c-138 0 -192 -236 -192 -348c0 -84 20 -154 40 -201l-19 -90h-271l17 198h41c27 -79 33 -88 123 -88h53c-83 27 -160 125 -160 254c0 195 179 348 378 348c167 0 254 -110 254 -249c0 -173 -127 -301 -288 -353h53c90 0 100 9 161 88h41l-67 -198h-271l19 90
c96 114 174 271 174 415c0 79 -27 134 -86 134z" />
    <glyph glyph-name="pi" unicode="&#x3c0;" horiz-adv-x="690" 
d="M442 422h-123c-43 -204 -72 -291 -129 -422h-191l9 47c73 92 147 186 187 375h-108l27 128h590l-44 -128h-80c-30 -116 -60 -242 -60 -291c0 -21 12 -36 33 -36c8 0 28 2 43 6l-2 -51c-47 -37 -93 -60 -152 -60c-62 0 -101 33 -101 93c0 72 48 203 101 339z" />
    <glyph glyph-name="Euro" unicode="&#x20ac;" horiz-adv-x="718" 
d="M51 383l13 57h80c67 173 223 272 387 272c98 0 159 -30 206 -74l-32 -154h-82c-5 106 -23 155 -94 155c-93 0 -161 -90 -197 -199h216l-21 -57h-211c-4 -21 -8 -43 -10 -64h199l-21 -58h-182v-7c0 -110 26 -190 106 -190c81 0 123 55 175 178h90l-39 -179
c-67 -43 -143 -73 -243 -73c-180 0 -280 100 -280 262v9h-87l13 58h78c2 22 6 43 11 64h-75z" />
    <glyph glyph-name="partialdiff" unicode="&#x2202;" horiz-adv-x="608" 
d="M349 545c12 0 24 -1 35 -3c-28 95 -92 145 -199 193l30 41c273 -55 366 -248 366 -420c0 -209 -133 -366 -331 -366c-129 0 -222 87 -222 230c0 187 132 325 321 325zM403 384c0 34 -2 64 -6 92c-10 4 -23 6 -40 6c-97 0 -152 -200 -152 -317c0 -65 12 -112 50 -112
c93 0 148 214 148 331z" />
    <glyph glyph-name="product" unicode="&#x220f;" horiz-adv-x="832" 
d="M116 702h782l-15 -69c-68 -3 -82 -15 -93 -68l-133 -625c-3 -12 -4 -22 -4 -30c0 -28 17 -36 68 -38l-14 -69h-346l14 69c67 3 83 15 94 68l148 699h-248l-148 -699c-3 -12 -4 -22 -4 -30c0 -28 17 -36 68 -38l-14 -69h-345l14 69c67 3 82 15 93 68l133 625
c2 12 4 21 4 29c0 29 -18 37 -69 39z" />
    <glyph glyph-name="summation" unicode="&#x2211;" horiz-adv-x="645" 
d="M81 -46h186c81 0 123 2 199 94h74l-95 -245h-547l13 65l351 391l-177 368l16 75h555l-41 -192h-87c-18 91 -37 129 -128 129h-111l127 -286l-9 -41z" />
    <glyph glyph-name="radical" unicode="&#x221a;" horiz-adv-x="615" 
d="M353 255l275 457h77l-431 -712h-78l-53 433c-5 40 -16 53 -48 57l-25 3l12 57h244z" />
    <glyph glyph-name="infinity" unicode="&#x221e;" horiz-adv-x="760" 
d="M343 349l-28 38c-24 31 -47 48 -80 48c-50 0 -92 -38 -92 -103c0 -43 31 -69 66 -69c34 0 60 15 87 41zM450 349l28 -38c24 -31 47 -48 80 -48c50 0 92 38 92 103c0 43 -31 69 -66 69c-34 0 -60 -15 -87 -41zM389 286l-34 -35c-46 -48 -93 -75 -156 -75
c-82 0 -146 54 -146 149c0 117 87 196 188 196c62 0 108 -29 139 -74l24 -35l34 35c46 48 93 75 156 75c82 0 146 -54 146 -149c0 -117 -87 -196 -188 -196c-62 0 -108 29 -139 74z" />
    <glyph glyph-name="integral" unicode="&#x222b;" horiz-adv-x="457" 
d="M324 487l-83 -401c-36 -176 -102 -284 -277 -284c-71 0 -129 24 -129 89c0 33 19 59 54 70h62c-8 -57 -16 -109 17 -109c40 0 51 56 76 175l83 401c37 176 102 284 277 284c71 0 129 -24 129 -89c0 -33 -19 -59 -54 -70h-62c8 57 16 109 -17 109c-40 0 -51 -56 -76 -175z
" />
    <glyph glyph-name="approxequal" unicode="&#x2248;" horiz-adv-x="615" 
d="M101 379l20 91c51 28 93 41 131 41c79 0 124 -40 202 -40c38 0 82 10 135 41l-20 -90c-51 -29 -97 -42 -134 -42c-80 0 -122 41 -201 41c-37 0 -82 -13 -133 -42zM69 223l17 89c53 30 95 42 133 42c79 0 124 -40 202 -40c38 0 84 11 135 41l-19 -89
c-52 -31 -97 -42 -135 -42c-79 0 -122 40 -200 40c-37 0 -82 -12 -133 -41z" />
    <glyph glyph-name="notequal" unicode="&#x2260;" horiz-adv-x="615" 
d="M106 407l19 86h274l92 103h84l-92 -103h102l-19 -86h-159l-73 -83h214l-16 -86h-274l-92 -104h-86l92 104h-100l18 86h159l74 83h-217z" />
    <glyph glyph-name="lessequal" unicode="&#x2264;" horiz-adv-x="482" 
d="M94 405l2 11l378 185l-22 -109l-185 -86l149 -85l-22 -101zM29 93l20 93h338l-20 -93h-338z" />
    <glyph glyph-name="greaterequal" unicode="&#x2265;" horiz-adv-x="482" 
d="M405 186l-20 -93h-337l18 93h339zM453 416l-2 -11l-376 -185l23 110l182 86l-147 82l22 103z" />
    <glyph glyph-name="lozenge" unicode="&#x25ca;" horiz-adv-x="571" 
d="M52 351l281 351h98l132 -351l-281 -351h-98zM444 351l-85 246l-190 -246l86 -245z" />
    <glyph glyph-name="uni00A0" unicode="&#xa0;" horiz-adv-x="200" 
 />
    <glyph glyph-name="twosuperior" unicode="&#xb2;" horiz-adv-x="451" 
d="M216 395h110c39 0 47 5 88 50h41l-46 -158h-363l9 47c224 164 254 204 254 256c0 38 -19 58 -57 58c-41 0 -79 -25 -106 -56l-27 35c39 65 106 121 209 121c74 0 133 -36 133 -112c0 -105 -116 -177 -245 -241z" />
    <glyph glyph-name="Tcedilla" unicode="&#x162;" horiz-adv-x="737" 
d="M146 702h651l-35 -235h-72c-18 112 -40 169 -120 169h-18l-103 -486c-5 -24 -6 -33 -6 -40c0 -32 23 -41 77 -43l-13 -67h-365l14 67c67 3 90 15 101 69l106 500h-19c-80 0 -115 -56 -188 -169h-75zM309 -158h-61c-26 7 -41 22 -41 50c0 42 33 76 94 76
c55 0 86 -33 86 -81c0 -75 -51 -137 -190 -137v45c67 0 106 20 112 47z" />
    <glyph glyph-name="tcedilla" unicode="&#x163;" horiz-adv-x="433" 
d="M308 482l-76 -308c-6 -24 -8 -39 -8 -51c0 -17 7 -29 23 -29c30 0 64 31 124 95l31 -27c-79 -108 -152 -172 -248 -172c-76 0 -113 54 -113 111c0 27 3 46 10 76l75 305h-73l13 49c78 14 169 73 230 144h60l-31 -125h117l-17 -68h-117zM157 -158h-61c-26 7 -41 22 -41 50
c0 42 33 76 94 76c55 0 86 -33 86 -81c0 -75 -51 -137 -190 -137v45c67 0 106 20 112 47z" />
    <glyph glyph-name="Tcedilla.sc" horiz-adv-x="677" 
d="M507 545l-92 -423c-2 -10 -4 -18 -4 -25c0 -23 19 -32 71 -32l-14 -65h-343l14 65c62 0 81 14 91 59l91 421h-8c-69 0 -102 -52 -161 -147h-78l58 210h590l-33 -210h-71c-13 91 -36 147 -104 147h-7zM282 -158h-61c-26 7 -41 22 -41 50c0 42 33 76 94 76
c55 0 86 -33 86 -81c0 -75 -51 -137 -190 -137v45c67 0 106 20 112 47z" />
    <glyph glyph-name="i.dot" horiz-adv-x="370" 
d="M328 559l-103 -409c-5 -19 -8 -33 -8 -41c0 -10 5 -15 14 -15c19 0 44 27 80 73l31 -27c-66 -95 -126 -150 -201 -150c-63 0 -104 40 -104 94c0 27 5 52 13 86l66 269l-50 47l9 34l218 39h35zM265 599c-60 0 -96 41 -96 88c0 53 38 99 104 99c59 0 96 -40 96 -87
c0 -54 -39 -100 -104 -100z" />
    <glyph glyph-name="uni0237" unicode="&#x237;" horiz-adv-x="340" 
d="M24 -4l101 443l-51 47l10 34l218 39h35l-115 -456c-51 -201 -146 -310 -284 -310c-76 0 -127 31 -127 81c0 48 36 74 79 79h28c1 -64 10 -114 40 -114s40 44 66 157z" />
    <glyph glyph-name="space_uni0326" horiz-adv-x="500" 
d="M254 -158h-61c-26 7 -41 22 -41 50c0 42 33 76 94 76c55 0 86 -33 86 -81c0 -75 -51 -137 -190 -137v45c67 0 106 20 112 47z" />
    <glyph glyph-name="space_uni0326.alt" horiz-adv-x="500" 
d="M220 720h61c26 -7 41 -22 41 -50c0 -42 -33 -76 -94 -76c-55 0 -86 33 -86 81c0 75 51 137 190 137v-45c-67 0 -106 -20 -112 -47z" />
    <glyph glyph-name="space_dotbelowcomb" horiz-adv-x="500" 
d="M163 -159c-2 48 36 92 82 94c48 2 89 -38 91 -86c2 -47 -35 -90 -83 -92c-46 -2 -88 37 -90 84z" />
    <glyph glyph-name="uni2117" unicode="&#x2117;" horiz-adv-x="796" 
d="M399 30c192 0 337 153 337 347c0 167 -118 295 -292 295c-192 0 -337 -153 -337 -347c0 -167 118 -295 292 -295zM399 -10c-197 0 -336 145 -336 335c0 216 166 387 381 387c197 0 336 -145 336 -335c0 -216 -166 -387 -381 -387zM443 304h-48l-15 -67
c-1 -6 -2 -12 -2 -16c0 -17 12 -21 50 -22l-10 -45h-216l10 45c38 1 43 8 50 38l53 233c2 8 3 14 3 19c0 13 -8 16 -36 17l10 45h202c103 0 141 -46 141 -109c0 -77 -78 -138 -192 -138zM440 503l-35 -156h15c58 0 100 26 100 94c0 42 -21 62 -65 62h-15z" />
    <glyph glyph-name="Delta" unicode="&#x2206;" horiz-adv-x="682" 
d="M619 0h-642l10 51l434 651h47l161 -651zM341 470l-266 -402h358z" />
    <glyph glyph-name="Abreve" unicode="&#x102;" horiz-adv-x="759" 
d="M462 151l-12 63h-255l-39 -63c-9 -15 -18 -33 -18 -49c0 -22 14 -34 64 -35l-14 -67h-226l14 67c28 5 47 10 64 37l327 520l-18 79h190l128 -599c5 -25 21 -33 51 -37l-13 -67h-334l14 67c58 3 82 13 82 45c0 12 -2 25 -5 39zM462 746c-81 0 -127 45 -127 112
c0 17 3 37 11 58h66c-1 -5 -1 -10 -1 -14c0 -51 37 -64 71 -64c37 0 80 16 105 78h74c-27 -106 -98 -170 -199 -170zM391 529l-154 -247h200z" />
    <glyph glyph-name="Amacron" unicode="&#x100;" horiz-adv-x="759" 
d="M462 151l-12 63h-255l-39 -63c-9 -15 -18 -33 -18 -49c0 -22 14 -34 64 -35l-14 -67h-226l14 67c28 5 47 10 64 37l327 520l-18 79h190l128 -599c5 -25 21 -33 51 -37l-13 -67h-334l14 67c58 3 82 13 82 45c0 12 -2 25 -5 39zM303 758l24 106h318l-24 -106h-318zM391 529
l-154 -247h200z" />
    <glyph glyph-name="Aogonek" unicode="&#x104;" horiz-adv-x="759" 
d="M462 151l-12 63h-255l-39 -63c-9 -15 -18 -33 -18 -49c0 -22 14 -34 64 -35l-14 -67h-226l14 67c28 5 47 10 64 37l327 520l-18 79h190l128 -599c5 -25 21 -33 51 -37l-13 -67h-290c-52 -34 -80 -67 -80 -99c0 -22 11 -39 39 -39c20 0 42 7 72 25l16 -28
c-52 -50 -98 -75 -155 -75c-48 0 -86 26 -86 72c0 77 76 119 153 163c76 44 93 61 93 93c0 12 -2 25 -5 39zM391 529l-154 -247h200z" />
    <glyph glyph-name="Aringacute" unicode="&#x1fa;" horiz-adv-x="759" 
d="M462 151l-12 63h-255l-39 -63c-9 -15 -18 -33 -18 -49c0 -22 14 -34 64 -35l-14 -67h-226l14 67c28 5 47 10 64 37l327 520l-18 79h190l128 -599c5 -25 21 -33 51 -37l-13 -67h-334l14 67c58 3 82 13 82 45c0 12 -2 25 -5 39zM474 734c-67 0 -112 32 -112 81
c0 58 61 99 132 99c67 0 112 -31 112 -80c0 -58 -61 -100 -132 -100zM391 529l-154 -247h200zM549 1061h197l-170 -120h-99zM479 786c36 0 55 20 55 44c0 21 -16 32 -45 32c-36 0 -55 -20 -55 -43c0 -22 16 -33 45 -33z" />
    <glyph glyph-name="AEacute" unicode="&#x1fc;" horiz-adv-x="1042" 
d="M40 104l422 502c-8 25 -24 29 -67 29l13 67h673l-41 -191h-71c-14 82 -30 122 -110 122h-103l-49 -236h74c44 0 66 19 89 79h64l-48 -229h-64c0 59 -12 79 -56 79h-74l-37 -177c-3 -14 -5 -26 -5 -35c0 -37 25 -45 69 -45h23c71 0 114 37 191 137h79l-74 -206h-585l14 67
c69 3 85 15 96 69l22 108h-234l-71 -83c-21 -24 -29 -43 -29 -59c0 -22 14 -34 64 -35l-14 -67h-239l14 67c28 5 44 12 64 37zM561 603l-251 -291h190zM768 909h197l-194 -158h-99z" />
    <glyph glyph-name="Cacute" unicode="&#x106;" horiz-adv-x="704" 
d="M367 -10c-207 0 -310 125 -310 282c0 256 193 440 439 440c105 0 179 -32 226 -77l-34 -159h-93c-6 100 -22 166 -101 166c-147 0 -236 -212 -236 -392c0 -112 35 -185 121 -185c85 0 127 60 189 183h95l-43 -192c-68 -41 -157 -66 -253 -66zM556 909h197l-194 -158h-99z
" />
    <glyph glyph-name="Ccaron" unicode="&#x10c;" horiz-adv-x="704" 
d="M367 -10c-207 0 -310 125 -310 282c0 256 193 440 439 440c105 0 179 -32 226 -77l-34 -159h-93c-6 100 -22 166 -101 166c-147 0 -236 -212 -236 -392c0 -112 35 -185 121 -185c85 0 127 60 189 183h95l-43 -192c-68 -41 -157 -66 -253 -66zM449 752l-92 169h89l88 -80
l134 80h101l-184 -169h-136z" />
    <glyph glyph-name="Ccircumflex" unicode="&#x108;" horiz-adv-x="704" 
d="M367 -10c-207 0 -310 125 -310 282c0 256 193 440 439 440c105 0 179 -32 226 -77l-34 -159h-93c-6 100 -22 166 -101 166c-147 0 -236 -212 -236 -392c0 -112 35 -185 121 -185c85 0 127 60 189 183h95l-43 -192c-68 -41 -157 -66 -253 -66zM621 918l92 -169h-89l-88 80
l-134 -80h-101l184 169h136z" />
    <glyph glyph-name="Cdotaccent" unicode="&#x10a;" horiz-adv-x="704" 
d="M367 -10c-207 0 -310 125 -310 282c0 256 193 440 439 440c105 0 179 -32 226 -77l-34 -159h-93c-6 100 -22 166 -101 166c-147 0 -236 -212 -236 -392c0 -112 35 -185 121 -185c85 0 127 60 189 183h95l-43 -192c-68 -41 -157 -66 -253 -66zM532 744
c-60 0 -96 41 -96 88c0 53 38 99 104 99c59 0 96 -40 96 -87c0 -54 -39 -100 -104 -100z" />
    <glyph glyph-name="Dcaron" unicode="&#x10e;" horiz-adv-x="791" 
d="M427 631h-39l-100 -479c-4 -18 -6 -32 -6 -42c0 -31 18 -39 57 -39h11c169 0 234 221 234 362c0 126 -48 198 -157 198zM-15 0l14 67c69 3 85 15 96 69l90 428c2 9 4 23 4 31c0 30 -16 38 -68 40l13 67h308c212 0 342 -105 342 -288c0 -244 -185 -414 -448 -414h-351z
M400 752l-92 169h89l88 -80l134 80h101l-184 -169h-136z" />
    <glyph glyph-name="Dcroat" unicode="&#x110;" horiz-adv-x="801" 
d="M59 327l15 71h86l35 166c2 9 4 23 4 31c0 30 -16 38 -68 40l13 67h308c212 0 342 -105 342 -288c0 -244 -185 -414 -448 -414h-351l14 67c69 3 85 15 96 69l40 191h-86zM437 631h-39l-49 -233h123l-15 -71h-123l-36 -175c-4 -18 -6 -32 -6 -42c0 -31 18 -39 57 -39h11
c169 0 234 221 234 362c0 126 -48 198 -157 198z" />
    <glyph glyph-name="Ebreve" unicode="&#x114;" horiz-adv-x="674" 
d="M-15 0l14 67c69 3 85 15 96 69l90 428c2 9 4 23 4 31c0 30 -16 38 -68 40l13 67h579l-41 -191h-71c-14 82 -30 122 -110 122h-103l-49 -236h74c44 0 66 19 89 79h64l-48 -229h-64c0 59 -12 79 -56 79h-74l-37 -177c-3 -14 -5 -26 -5 -35c0 -37 25 -45 69 -45h23
c71 0 114 37 191 137h79l-74 -206h-585zM439 746c-81 0 -127 45 -127 112c0 17 3 37 11 58h66c-1 -5 -1 -10 -1 -14c0 -51 37 -64 71 -64c37 0 80 16 105 78h74c-27 -106 -98 -170 -199 -170z" />
    <glyph glyph-name="Ecaron" unicode="&#x11a;" horiz-adv-x="674" 
d="M-15 0l14 67c69 3 85 15 96 69l90 428c2 9 4 23 4 31c0 30 -16 38 -68 40l13 67h579l-41 -191h-71c-14 82 -30 122 -110 122h-103l-49 -236h74c44 0 66 19 89 79h64l-48 -229h-64c0 59 -12 79 -56 79h-74l-37 -177c-3 -14 -5 -26 -5 -35c0 -37 25 -45 69 -45h23
c71 0 114 37 191 137h79l-74 -206h-585zM369 752l-92 169h89l88 -80l134 80h101l-184 -169h-136z" />
    <glyph glyph-name="Edotaccent" unicode="&#x116;" horiz-adv-x="674" 
d="M-15 0l14 67c69 3 85 15 96 69l90 428c2 9 4 23 4 31c0 30 -16 38 -68 40l13 67h579l-41 -191h-71c-14 82 -30 122 -110 122h-103l-49 -236h74c44 0 66 19 89 79h64l-48 -229h-64c0 59 -12 79 -56 79h-74l-37 -177c-3 -14 -5 -26 -5 -35c0 -37 25 -45 69 -45h23
c71 0 114 37 191 137h79l-74 -206h-585zM452 744c-60 0 -96 41 -96 88c0 53 38 99 104 99c59 0 96 -40 96 -87c0 -54 -39 -100 -104 -100z" />
    <glyph glyph-name="Emacron" unicode="&#x112;" horiz-adv-x="674" 
d="M-15 0l14 67c69 3 85 15 96 69l90 428c2 9 4 23 4 31c0 30 -16 38 -68 40l13 67h579l-41 -191h-71c-14 82 -30 122 -110 122h-103l-49 -236h74c44 0 66 19 89 79h64l-48 -229h-64c0 59 -12 79 -56 79h-74l-37 -177c-3 -14 -5 -26 -5 -35c0 -37 25 -45 69 -45h23
c71 0 114 37 191 137h79l-74 -206h-585zM280 758l24 106h318l-24 -106h-318z" />
    <glyph glyph-name="Eogonek" unicode="&#x118;" horiz-adv-x="674" 
d="M-15 0l14 67c69 3 85 15 96 69l90 428c2 9 4 23 4 31c0 30 -16 38 -68 40l13 67h579l-41 -191h-71c-14 82 -30 122 -110 122h-103l-49 -236h74c44 0 66 19 89 79h64l-48 -229h-64c0 59 -12 79 -56 79h-74l-37 -177c-3 -14 -5 -26 -5 -35c0 -37 25 -45 69 -45h23
c71 0 114 37 191 137h79l-74 -206h-107c-52 -34 -77 -67 -77 -99c0 -22 11 -39 39 -39c20 0 42 7 72 25l16 -28c-52 -50 -98 -75 -155 -75c-48 0 -86 26 -86 72c0 65 53 109 119 144h-406z" />
    <glyph glyph-name="Gbreve" unicode="&#x11e;" horiz-adv-x="764" 
d="M57 272c0 255 194 440 448 440c97 0 178 -32 224 -77l-34 -159h-93c-6 100 -29 166 -107 166c-148 0 -237 -212 -237 -392c0 -112 35 -185 122 -185c36 0 54 6 77 17l31 125c2 11 4 22 4 30c0 28 -19 35 -69 37l15 70h332l-14 -70c-68 -2 -80 -14 -92 -66l-33 -140
c-70 -49 -166 -78 -264 -78c-206 0 -310 124 -310 282zM511 746c-81 0 -127 45 -127 112c0 17 3 37 11 58h66c-1 -5 -1 -10 -1 -14c0 -51 37 -64 71 -64c37 0 80 16 105 78h74c-27 -106 -98 -170 -199 -170z" />
    <glyph glyph-name="Gcircumflex" unicode="&#x11c;" horiz-adv-x="764" 
d="M57 272c0 255 194 440 448 440c97 0 178 -32 224 -77l-34 -159h-93c-6 100 -29 166 -107 166c-148 0 -237 -212 -237 -392c0 -112 35 -185 122 -185c36 0 54 6 77 17l31 125c2 11 4 22 4 30c0 28 -19 35 -69 37l15 70h332l-14 -70c-68 -2 -80 -14 -92 -66l-33 -140
c-70 -49 -166 -78 -264 -78c-206 0 -310 124 -310 282zM613 918l92 -169h-89l-88 80l-134 -80h-101l184 169h136z" />
    <glyph glyph-name="Gcommaaccent" unicode="&#x122;" horiz-adv-x="764" 
d="M57 272c0 255 194 440 448 440c97 0 178 -32 224 -77l-34 -159h-93c-6 100 -29 166 -107 166c-148 0 -237 -212 -237 -392c0 -112 35 -185 122 -185c36 0 54 6 77 17l31 125c2 11 4 22 4 30c0 28 -19 35 -69 37l15 70h332l-14 -70c-68 -2 -80 -14 -92 -66l-33 -140
c-70 -49 -166 -78 -264 -78c-206 0 -310 124 -310 282zM337 -158h-61c-26 7 -41 22 -41 50c0 42 33 76 94 76c55 0 86 -33 86 -81c0 -75 -51 -137 -190 -137v45c67 0 106 20 112 47z" />
    <glyph glyph-name="Gdotaccent" unicode="&#x120;" horiz-adv-x="764" 
d="M57 272c0 255 194 440 448 440c97 0 178 -32 224 -77l-34 -159h-93c-6 100 -29 166 -107 166c-148 0 -237 -212 -237 -392c0 -112 35 -185 122 -185c36 0 54 6 77 17l31 125c2 11 4 22 4 30c0 28 -19 35 -69 37l15 70h332l-14 -70c-68 -2 -80 -14 -92 -66l-33 -140
c-70 -49 -166 -78 -264 -78c-206 0 -310 124 -310 282zM524 744c-60 0 -96 41 -96 88c0 53 38 99 104 99c59 0 96 -40 96 -87c0 -54 -39 -100 -104 -100z" />
    <glyph glyph-name="Hbar" unicode="&#x126;" horiz-adv-x="894" 
d="M102 449l15 71h79l9 44c2 9 4 23 4 31c0 30 -16 38 -68 40l13 67h350l-13 -67c-69 -3 -85 -15 -96 -69l-10 -46h261l9 44c2 9 4 23 4 31c0 30 -15 38 -68 40l14 67h350l-14 -67c-69 -3 -85 -15 -96 -69l-10 -46h87l-15 -71h-87l-65 -311c-2 -9 -4 -23 -4 -31
c0 -30 16 -38 69 -40l-14 -67h-350l13 67c69 3 86 15 97 69l31 151h-261l-31 -149c-2 -9 -4 -23 -4 -31c0 -30 16 -38 68 -40l-13 -67h-351l14 67c69 3 85 15 96 69l66 313h-79zM370 449l-19 -91h261l19 91h-261z" />
    <glyph glyph-name="Hcircumflex" unicode="&#x124;" horiz-adv-x="864" 
d="M825 566l-90 -428c-2 -9 -4 -23 -4 -31c0 -30 16 -38 69 -40l-14 -67h-350l13 67c69 3 86 15 97 69l39 190h-261l-39 -188c-2 -9 -4 -23 -4 -31c0 -30 16 -38 68 -40l-13 -67h-351l14 67c69 3 85 15 96 69l90 428c2 9 4 23 4 31c0 30 -16 38 -68 40l13 67h350l-13 -67
c-69 -3 -85 -15 -96 -69l-36 -169h261l35 167c2 9 4 23 4 31c0 30 -15 38 -68 40l14 67h350l-14 -67c-69 -3 -85 -15 -96 -69zM648 918l92 -169h-89l-88 80l-134 -80h-101l184 169h136z" />
    <glyph glyph-name="Ibreve" unicode="&#x12c;" horiz-adv-x="413" 
d="M375 566l-90 -428c-2 -9 -4 -23 -4 -31c0 -30 16 -38 68 -40l-13 -67h-351l14 67c69 3 85 15 96 69l90 428c2 9 4 23 4 31c0 30 -16 38 -68 40l13 67h350l-13 -67c-69 -3 -85 -15 -96 -69zM320 746c-81 0 -127 45 -127 112c0 17 3 37 11 58h66c-1 -5 -1 -10 -1 -14
c0 -51 37 -64 71 -64c37 0 80 16 105 78h74c-27 -106 -98 -170 -199 -170z" />
    <glyph glyph-name="Idotaccent" unicode="&#x130;" horiz-adv-x="413" 
d="M375 566l-90 -428c-2 -9 -4 -23 -4 -31c0 -30 16 -38 68 -40l-13 -67h-351l14 67c69 3 85 15 96 69l90 428c2 9 4 23 4 31c0 30 -16 38 -68 40l13 67h350l-13 -67c-69 -3 -85 -15 -96 -69zM333 744c-60 0 -96 41 -96 88c0 53 38 99 104 99c59 0 96 -40 96 -87
c0 -54 -39 -100 -104 -100z" />
    <glyph glyph-name="Imacron" unicode="&#x12a;" horiz-adv-x="413" 
d="M375 566l-90 -428c-2 -9 -4 -23 -4 -31c0 -30 16 -38 68 -40l-13 -67h-351l14 67c69 3 85 15 96 69l90 428c2 9 4 23 4 31c0 30 -16 38 -68 40l13 67h350l-13 -67c-69 -3 -85 -15 -96 -69zM161 758l24 106h318l-24 -106h-318z" />
    <glyph glyph-name="Iogonek" unicode="&#x12e;" horiz-adv-x="413" 
d="M375 566l-90 -428c-2 -9 -4 -23 -4 -31c0 -30 16 -38 68 -40l-13 -67h-123c-52 -34 -78 -67 -78 -99c0 -22 11 -39 39 -39c20 0 42 7 72 25l16 -28c-52 -50 -98 -75 -155 -75c-48 0 -86 26 -86 72c0 65 53 109 119 144h-155l14 67c69 3 85 15 96 69l90 428c2 9 4 23 4 31
c0 30 -16 38 -68 40l13 67h350l-13 -67c-69 -3 -85 -15 -96 -69z" />
    <glyph glyph-name="Itilde" unicode="&#x128;" horiz-adv-x="413" 
d="M375 566l-90 -428c-2 -9 -4 -23 -4 -31c0 -30 16 -38 68 -40l-13 -67h-351l14 67c69 3 85 15 96 69l90 428c2 9 4 23 4 31c0 30 -16 38 -68 40l13 67h350l-13 -67c-69 -3 -85 -15 -96 -69zM481 900l58 -12c-63 -125 -93 -150 -151 -150c-49 0 -95 63 -132 63
c-29 0 -47 -25 -68 -55l-59 11c64 125 93 150 151 150c56 0 94 -63 132 -63c28 0 48 24 69 56z" />
    <glyph glyph-name="IJ" unicode="&#x132;" horiz-adv-x="1026" 
d="M375 566l-90 -428c-2 -9 -4 -23 -4 -31c0 -30 16 -38 68 -40l-13 -67h-351l14 67c69 3 85 15 96 69l90 428c2 9 4 23 4 31c0 30 -16 38 -68 40l13 67h350l-13 -67c-69 -3 -85 -15 -96 -69zM732 192l78 372c2 9 4 23 4 31c0 30 -16 38 -68 40l13 67h351l-14 -67
c-69 -3 -85 -15 -96 -69l-73 -342c-35 -163 -134 -234 -297 -234c-146 0 -218 62 -218 144c0 50 31 88 67 105h132c-17 -43 -24 -69 -24 -107c0 -34 13 -74 54 -74c49 0 73 51 91 134z" />
    <glyph glyph-name="Jcircumflex" unicode="&#x134;" horiz-adv-x="613" 
d="M319 192l78 372c2 9 4 23 4 31c0 30 -16 38 -68 40l13 67h351l-14 -67c-69 -3 -85 -15 -96 -69l-73 -342c-35 -163 -134 -234 -297 -234c-146 0 -218 62 -218 144c0 50 31 88 67 105h132c-17 -43 -24 -69 -24 -107c0 -34 13 -74 54 -74c49 0 73 51 91 134zM637 918
l92 -169h-89l-88 80l-134 -80h-101l184 169h136z" />
    <glyph glyph-name="Kcommaaccent" unicode="&#x136;" horiz-adv-x="783" 
d="M520 415l125 -276c26 -56 44 -72 92 -73l-13 -66h-209c-28 20 -51 64 -74 120l-97 237l244 202c21 18 37 30 37 45c0 16 -12 30 -54 31l14 67h263l-13 -67c-47 -1 -64 -7 -108 -45zM375 566l-90 -428c-2 -9 -4 -23 -4 -31c0 -30 16 -38 68 -40l-13 -67h-351l14 67
c69 3 85 15 96 69l90 428c2 9 4 23 4 31c0 30 -16 38 -68 40l13 67h350l-13 -67c-69 -3 -85 -15 -96 -69zM377 -158h-61c-26 7 -41 22 -41 50c0 42 33 76 94 76c55 0 86 -33 86 -81c0 -75 -51 -137 -190 -137v45c67 0 106 20 112 47z" />
    <glyph glyph-name="Lacute" unicode="&#x139;" horiz-adv-x="664" 
d="M375 566l-88 -418c-3 -14 -5 -27 -5 -36c0 -31 20 -41 64 -41h27c64 0 90 28 197 167h84l-88 -238h-581l14 67c69 3 85 15 96 69l90 428c2 9 4 23 4 31c0 30 -16 38 -68 40l13 67h350l-13 -67c-69 -3 -85 -15 -96 -69zM372 909h197l-194 -158h-99z" />
    <glyph glyph-name="Lcaron" unicode="&#x13d;" horiz-adv-x="664" 
d="M375 566l-88 -418c-3 -14 -5 -27 -5 -36c0 -31 20 -41 64 -41h27c64 0 90 28 197 167h84l-88 -238h-581l14 67c69 3 85 15 96 69l90 428c2 9 4 23 4 31c0 30 -16 38 -68 40l13 67h350l-13 -67c-69 -3 -85 -15 -96 -69zM721 706l-133 -205h-76l51 205h158z" />
    <glyph glyph-name="Lcommaaccent" unicode="&#x13b;" horiz-adv-x="664" 
d="M375 566l-88 -418c-3 -14 -5 -27 -5 -36c0 -31 20 -41 64 -41h27c64 0 90 28 197 167h84l-88 -238h-581l14 67c69 3 85 15 96 69l90 428c2 9 4 23 4 31c0 30 -16 38 -68 40l13 67h350l-13 -67c-69 -3 -85 -15 -96 -69zM293 -158h-61c-26 7 -41 22 -41 50
c0 42 33 76 94 76c55 0 86 -33 86 -81c0 -75 -51 -137 -190 -137v45c67 0 106 20 112 47z" />
    <glyph glyph-name="Ldot" unicode="&#x13f;" horiz-adv-x="664" 
d="M375 566l-88 -418c-3 -14 -5 -27 -5 -36c0 -31 20 -41 64 -41h27c64 0 90 28 197 167h84l-88 -238h-581l14 67c69 3 85 15 96 69l90 428c2 9 4 23 4 31c0 30 -16 38 -68 40l13 67h350l-13 -67c-69 -3 -85 -15 -96 -69zM570 311c-60 0 -96 41 -96 88c0 53 38 99 104 99
c59 0 96 -40 96 -87c0 -54 -39 -100 -104 -100z" />
    <glyph glyph-name="Nacute" unicode="&#x143;" horiz-adv-x="785" 
d="M605 293l56 271c2 9 4 23 4 31c0 30 -16 38 -68 40l13 67h249l-13 -67c-69 -3 -85 -15 -97 -69l-118 -566h-79l-292 507l-77 -369c-2 -9 -4 -23 -4 -31c0 -30 15 -38 68 -40l-14 -67h-248l14 67c69 3 85 15 96 69l95 449c-22 41 -36 46 -70 50l14 67h252zM545 909h197
l-194 -158h-99z" />
    <glyph glyph-name="Ncaron" unicode="&#x147;" horiz-adv-x="785" 
d="M605 293l56 271c2 9 4 23 4 31c0 30 -16 38 -68 40l13 67h249l-13 -67c-69 -3 -85 -15 -97 -69l-118 -566h-79l-292 507l-77 -369c-2 -9 -4 -23 -4 -31c0 -30 15 -38 68 -40l-14 -67h-248l14 67c69 3 85 15 96 69l95 449c-22 41 -36 46 -70 50l14 67h252zM438 752
l-92 169h89l88 -80l134 80h101l-184 -169h-136z" />
    <glyph glyph-name="Ncommaaccent" unicode="&#x145;" horiz-adv-x="785" 
d="M605 293l56 271c2 9 4 23 4 31c0 30 -16 38 -68 40l13 67h249l-13 -67c-69 -3 -85 -15 -97 -69l-118 -566h-79l-292 507l-77 -369c-2 -9 -4 -23 -4 -31c0 -30 15 -38 68 -40l-14 -67h-248l14 67c69 3 85 15 96 69l95 449c-22 41 -36 46 -70 50l14 67h252zM354 -158h-61
c-26 7 -41 22 -41 50c0 42 33 76 94 76c55 0 86 -33 86 -81c0 -75 -51 -137 -190 -137v45c67 0 106 20 112 47z" />
    <glyph glyph-name="Eng" unicode="&#x14a;" horiz-adv-x="785" 
d="M749 566l-96 -463c-42 -203 -135 -310 -273 -310c-76 0 -127 31 -127 81c0 48 36 74 79 79h28c1 -64 10 -114 40 -114s53 29 84 164l17 74l-241 430l-77 -369c-2 -9 -4 -23 -4 -31c0 -30 15 -38 68 -40l-14 -67h-248l14 67c69 3 85 15 96 69l95 449c-22 41 -36 46 -70 50
l14 67h252l219 -409l56 271c2 9 4 23 4 31c0 30 -16 38 -68 40l13 67h249l-13 -67c-69 -3 -86 -15 -97 -69z" />
    <glyph glyph-name="Obreve" unicode="&#x14e;" horiz-adv-x="764" 
d="M354 61c129 0 201 238 201 398c0 111 -21 182 -95 182c-129 0 -201 -238 -201 -398c0 -111 21 -182 95 -182zM350 -10c-179 0 -293 108 -293 285c0 218 161 437 407 437c179 0 293 -108 293 -285c0 -218 -161 -437 -407 -437zM489 746c-81 0 -127 45 -127 112
c0 17 3 37 11 58h66c-1 -5 -1 -10 -1 -14c0 -51 37 -64 71 -64c37 0 80 16 105 78h74c-27 -106 -98 -170 -199 -170z" />
    <glyph glyph-name="Ohungarumlaut" unicode="&#x150;" horiz-adv-x="764" 
d="M354 61c129 0 201 238 201 398c0 111 -21 182 -95 182c-129 0 -201 -238 -201 -398c0 -111 21 -182 95 -182zM350 -10c-179 0 -293 108 -293 285c0 218 161 437 407 437c179 0 293 -108 293 -285c0 -218 -161 -437 -407 -437zM417 909h171l-178 -158h-88zM627 909h177
l-184 -158h-88z" />
    <glyph glyph-name="Omacron" unicode="&#x14c;" horiz-adv-x="764" 
d="M354 61c129 0 201 238 201 398c0 111 -21 182 -95 182c-129 0 -201 -238 -201 -398c0 -111 21 -182 95 -182zM350 -10c-179 0 -293 108 -293 285c0 218 161 437 407 437c179 0 293 -108 293 -285c0 -218 -161 -437 -407 -437zM330 758l24 106h318l-24 -106h-318z" />
    <glyph glyph-name="Oslashacute" unicode="&#x1fe;" horiz-adv-x="764" 
d="M682 742l-46 -74c77 -48 121 -131 121 -241c0 -218 -161 -437 -407 -437c-43 0 -82 6 -117 18l-56 -93l-54 30l54 89c-76 47 -120 131 -120 241c0 218 161 437 407 437c42 0 82 -6 116 -18l48 78zM252 250c0 -33 1 -61 5 -86l273 447c-16 20 -38 30 -70 30
c-129 0 -208 -238 -208 -391zM354 61c129 0 208 238 208 393c0 31 -2 59 -5 83l-273 -447c15 -19 38 -29 70 -29zM532 909h197l-194 -158h-99z" />
    <glyph glyph-name="Racute" unicode="&#x154;" horiz-adv-x="762" 
d="M422 631h-38l-59 -274h33c112 0 188 41 188 160c0 74 -41 114 -124 114zM312 290l-32 -152c-2 -9 -4 -23 -4 -31c0 -30 16 -38 68 -40l-13 -67h-346l14 67c69 3 85 15 96 69l90 428c2 9 4 23 4 31c0 30 -16 38 -68 40l13 67h354c165 0 248 -61 248 -183
c0 -108 -94 -180 -195 -199l79 -179c25 -59 41 -74 96 -74l-14 -67h-217c-26 25 -45 65 -60 110l-61 180h-52zM483 909h197l-194 -158h-99z" />
    <glyph glyph-name="Rcaron" unicode="&#x158;" horiz-adv-x="762" 
d="M422 631h-38l-59 -274h33c112 0 188 41 188 160c0 74 -41 114 -124 114zM312 290l-32 -152c-2 -9 -4 -23 -4 -31c0 -30 16 -38 68 -40l-13 -67h-346l14 67c69 3 85 15 96 69l90 428c2 9 4 23 4 31c0 30 -16 38 -68 40l13 67h354c165 0 248 -61 248 -183
c0 -108 -94 -180 -195 -199l79 -179c25 -59 41 -74 96 -74l-14 -67h-217c-26 25 -45 65 -60 110l-61 180h-52zM376 752l-92 169h89l88 -80l134 80h101l-184 -169h-136z" />
    <glyph glyph-name="Rcommaaccent" unicode="&#x156;" horiz-adv-x="762" 
d="M422 631h-38l-59 -274h33c112 0 188 41 188 160c0 74 -41 114 -124 114zM312 290l-32 -152c-2 -9 -4 -23 -4 -31c0 -30 16 -38 68 -40l-13 -67h-346l14 67c69 3 85 15 96 69l90 428c2 9 4 23 4 31c0 30 -16 38 -68 40l13 67h354c165 0 248 -61 248 -183
c0 -108 -94 -180 -195 -199l79 -179c25 -59 41 -74 96 -74l-14 -67h-217c-26 25 -45 65 -60 110l-61 180h-52zM357 -158h-61c-26 7 -41 22 -41 50c0 42 33 76 94 76c55 0 86 -33 86 -81c0 -75 -51 -137 -190 -137v45c67 0 106 20 112 47z" />
    <glyph glyph-name="Sacute" unicode="&#x15a;" horiz-adv-x="589" 
d="M265 -10c-116 0 -208 48 -245 95l27 156h91c4 -114 52 -187 141 -187c62 0 105 33 105 96c0 53 -28 79 -115 120c-117 56 -171 121 -171 217c0 142 115 225 271 225c109 0 179 -35 223 -75l-30 -147h-79c-10 84 -33 157 -128 157c-61 0 -97 -38 -97 -89
c0 -53 35 -77 112 -115c118 -58 184 -109 184 -218c0 -161 -141 -235 -289 -235zM443 909h197l-194 -158h-99z" />
    <glyph glyph-name="Scedilla" unicode="&#x15e;" horiz-adv-x="589" 
d="M126 -233l-11 49c72 0 122 12 122 39c0 25 -29 34 -76 36l50 103c-90 11 -160 51 -191 91l27 156h91c4 -114 52 -187 141 -187c62 0 105 33 105 96c0 53 -28 79 -115 120c-117 56 -171 121 -171 217c0 142 115 225 271 225c109 0 179 -35 223 -75l-30 -147h-79
c-10 84 -33 157 -128 157c-61 0 -97 -38 -97 -89c0 -53 35 -77 112 -115c118 -58 184 -109 184 -218c0 -161 -141 -235 -289 -235h-6l-17 -34c59 -6 86 -31 86 -78c0 -74 -102 -111 -202 -111z" />
    <glyph glyph-name="Scircumflex" unicode="&#x15c;" horiz-adv-x="589" 
d="M265 -10c-116 0 -208 48 -245 95l27 156h91c4 -114 52 -187 141 -187c62 0 105 33 105 96c0 53 -28 79 -115 120c-117 56 -171 121 -171 217c0 142 115 225 271 225c109 0 179 -35 223 -75l-30 -147h-79c-10 84 -33 157 -128 157c-61 0 -97 -38 -97 -89
c0 -53 35 -77 112 -115c118 -58 184 -109 184 -218c0 -161 -141 -235 -289 -235zM508 918l92 -169h-89l-88 80l-134 -80h-101l184 169h136z" />
    <glyph glyph-name="Scommaaccent" unicode="&#x218;" horiz-adv-x="589" 
d="M265 -10c-116 0 -208 48 -245 95l27 156h91c4 -114 52 -187 141 -187c62 0 105 33 105 96c0 53 -28 79 -115 120c-117 56 -171 121 -171 217c0 142 115 225 271 225c109 0 179 -35 223 -75l-30 -147h-79c-10 84 -33 157 -128 157c-61 0 -97 -38 -97 -89
c0 -53 35 -77 112 -115c118 -58 184 -109 184 -218c0 -161 -141 -235 -289 -235zM232 -158h-61c-26 7 -41 22 -41 50c0 42 33 76 94 76c55 0 86 -33 86 -81c0 -75 -51 -137 -190 -137v45c67 0 106 20 112 47z" />
    <glyph glyph-name="Tbar" unicode="&#x166;" horiz-adv-x="737" 
d="M146 702h651l-35 -235h-72c-18 112 -40 169 -120 169h-18l-50 -235h105l-16 -71h-104l-38 -180c-5 -24 -6 -33 -6 -40c0 -32 23 -41 77 -43l-13 -67h-365l14 67c67 3 90 15 101 69l41 194h-101l16 71h100l50 235h-19c-80 0 -115 -56 -188 -169h-75z" />
    <glyph glyph-name="Tcaron" unicode="&#x164;" horiz-adv-x="737" 
d="M146 702h651l-35 -235h-72c-18 112 -40 169 -120 169h-18l-103 -486c-5 -24 -6 -33 -6 -40c0 -32 23 -41 77 -43l-13 -67h-365l14 67c67 3 90 15 101 69l106 500h-19c-80 0 -115 -56 -188 -169h-75zM413 752l-92 169h89l88 -80l134 80h101l-184 -169h-136z" />
    <glyph glyph-name="Ubreve" unicode="&#x16c;" horiz-adv-x="775" 
d="M598 275l62 289c2 9 4 23 4 31c0 30 -16 38 -68 40l13 67h249l-14 -67c-68 -3 -85 -15 -96 -69l-66 -320c-36 -175 -158 -256 -314 -256c-161 0 -264 77 -264 217c0 22 3 46 10 79l58 278c2 9 4 23 4 31c0 30 -16 38 -68 40l13 67h351l-14 -67c-69 -3 -85 -15 -96 -69
l-57 -269c-5 -25 -9 -50 -9 -72c0 -84 42 -132 117 -132c90 0 154 38 185 182zM544 746c-81 0 -127 45 -127 112c0 17 3 37 11 58h66c-1 -5 -1 -10 -1 -14c0 -51 37 -64 71 -64c37 0 80 16 105 78h74c-27 -106 -98 -170 -199 -170z" />
    <glyph glyph-name="Uhungarumlaut" unicode="&#x170;" horiz-adv-x="775" 
d="M598 275l62 289c2 9 4 23 4 31c0 30 -16 38 -68 40l13 67h249l-14 -67c-68 -3 -85 -15 -96 -69l-66 -320c-36 -175 -158 -256 -314 -256c-161 0 -264 77 -264 217c0 22 3 46 10 79l58 278c2 9 4 23 4 31c0 30 -16 38 -68 40l13 67h351l-14 -67c-69 -3 -85 -15 -96 -69
l-57 -269c-5 -25 -9 -50 -9 -72c0 -84 42 -132 117 -132c90 0 154 38 185 182zM472 909h171l-178 -158h-88zM682 909h177l-184 -158h-88z" />
    <glyph glyph-name="Umacron" unicode="&#x16a;" horiz-adv-x="775" 
d="M598 275l62 289c2 9 4 23 4 31c0 30 -16 38 -68 40l13 67h249l-14 -67c-68 -3 -85 -15 -96 -69l-66 -320c-36 -175 -158 -256 -314 -256c-161 0 -264 77 -264 217c0 22 3 46 10 79l58 278c2 9 4 23 4 31c0 30 -16 38 -68 40l13 67h351l-14 -67c-69 -3 -85 -15 -96 -69
l-57 -269c-5 -25 -9 -50 -9 -72c0 -84 42 -132 117 -132c90 0 154 38 185 182zM385 758l24 106h318l-24 -106h-318z" />
    <glyph glyph-name="Uogonek" unicode="&#x172;" horiz-adv-x="775" 
d="M598 275l62 289c2 9 4 23 4 31c0 30 -16 38 -68 40l13 67h249l-14 -67c-68 -3 -85 -15 -96 -69l-66 -320c-28 -134 -106 -213 -211 -243c-56 -35 -83 -69 -83 -102c0 -22 11 -39 39 -39c20 0 42 7 72 25l16 -28c-52 -50 -98 -75 -155 -75c-48 0 -86 26 -86 72
c0 59 43 101 100 134h-6c-161 0 -264 77 -264 217c0 22 3 46 10 79l58 278c2 9 4 23 4 31c0 30 -16 38 -68 40l13 67h351l-14 -67c-69 -3 -85 -15 -96 -69l-57 -269c-5 -25 -9 -50 -9 -72c0 -84 42 -132 117 -132c90 0 154 38 185 182z" />
    <glyph glyph-name="Uring" unicode="&#x16e;" horiz-adv-x="775" 
d="M598 275l62 289c2 9 4 23 4 31c0 30 -16 38 -68 40l13 67h249l-14 -67c-68 -3 -85 -15 -96 -69l-66 -320c-36 -175 -158 -256 -314 -256c-161 0 -264 77 -264 217c0 22 3 46 10 79l58 278c2 9 4 23 4 31c0 30 -16 38 -68 40l13 67h351l-14 -67c-69 -3 -85 -15 -96 -69
l-57 -269c-5 -25 -9 -50 -9 -72c0 -84 42 -132 117 -132c90 0 154 38 185 182zM558 796c33 0 51 23 51 49c0 23 -15 39 -42 39c-33 0 -51 -23 -51 -48c0 -24 15 -40 42 -40zM553 739c-62 0 -104 39 -104 93c0 63 57 109 123 109c62 0 104 -39 104 -93
c0 -63 -57 -109 -123 -109z" />
    <glyph glyph-name="Utilde" unicode="&#x168;" horiz-adv-x="775" 
d="M598 275l62 289c2 9 4 23 4 31c0 30 -16 38 -68 40l13 67h249l-14 -67c-68 -3 -85 -15 -96 -69l-66 -320c-36 -175 -158 -256 -314 -256c-161 0 -264 77 -264 217c0 22 3 46 10 79l58 278c2 9 4 23 4 31c0 30 -16 38 -68 40l13 67h351l-14 -67c-69 -3 -85 -15 -96 -69
l-57 -269c-5 -25 -9 -50 -9 -72c0 -84 42 -132 117 -132c90 0 154 38 185 182zM705 900l58 -12c-63 -125 -93 -150 -151 -150c-49 0 -95 63 -132 63c-29 0 -47 -25 -68 -55l-59 11c64 125 93 150 151 150c56 0 94 -63 132 -63c28 0 48 24 69 56z" />
    <glyph glyph-name="Wacute" unicode="&#x1e82;" horiz-adv-x="1012" 
d="M750 254l149 280c12 23 27 47 27 70c0 20 -13 29 -61 31l14 67h229l-14 -67c-29 -5 -52 -9 -68 -37l-344 -602h-73l-56 387l-220 -387h-71l-118 602c-5 25 -23 32 -48 37l14 67h322l-14 -67c-35 -3 -71 -14 -72 -60c0 -9 1 -21 3 -34l54 -294l134 235l-14 116
c-3 23 -17 32 -42 37l14 67h315l-13 -67c-50 -2 -83 -18 -83 -66c0 -10 1 -22 3 -39zM682 909h197l-194 -158h-99z" />
    <glyph glyph-name="Wcircumflex" unicode="&#x174;" horiz-adv-x="1012" 
d="M750 254l149 280c12 23 27 47 27 70c0 20 -13 29 -61 31l14 67h229l-14 -67c-29 -5 -52 -9 -68 -37l-344 -602h-73l-56 387l-220 -387h-71l-118 602c-5 25 -23 32 -48 37l14 67h322l-14 -67c-35 -3 -71 -14 -72 -60c0 -9 1 -21 3 -34l54 -294l134 235l-14 116
c-3 23 -17 32 -42 37l14 67h315l-13 -67c-50 -2 -83 -18 -83 -66c0 -10 1 -22 3 -39zM746 918l92 -169h-89l-88 80l-134 -80h-101l184 169h136z" />
    <glyph glyph-name="Wgrave" unicode="&#x1e80;" horiz-adv-x="1012" 
d="M750 254l149 280c12 23 27 47 27 70c0 20 -13 29 -61 31l14 67h229l-14 -67c-29 -5 -52 -9 -68 -37l-344 -602h-73l-56 387l-220 -387h-71l-118 602c-5 25 -23 32 -48 37l14 67h322l-14 -67c-35 -3 -71 -14 -72 -60c0 -9 1 -21 3 -34l54 -294l134 235l-14 116
c-3 23 -17 32 -42 37l14 67h315l-13 -67c-50 -2 -83 -18 -83 -66c0 -10 1 -22 3 -39zM483 909h181l35 -158h-91z" />
    <glyph glyph-name="Wdieresis" unicode="&#x1e84;" horiz-adv-x="1012" 
d="M750 254l149 280c12 23 27 47 27 70c0 20 -13 29 -61 31l14 67h229l-14 -67c-29 -5 -52 -9 -68 -37l-344 -602h-73l-56 387l-220 -387h-71l-118 602c-5 25 -23 32 -48 37l14 67h322l-14 -67c-35 -3 -71 -14 -72 -60c0 -9 1 -21 3 -34l54 -294l134 235l-14 116
c-3 23 -17 32 -42 37l14 67h315l-13 -67c-50 -2 -83 -18 -83 -66c0 -10 1 -22 3 -39zM548 743c-54 0 -87 39 -87 83c0 49 35 93 93 93c54 0 86 -38 86 -82c0 -50 -35 -94 -92 -94zM767 743c-54 0 -86 39 -86 83c0 49 34 93 92 93c54 0 86 -38 86 -82c0 -50 -34 -94 -92 -94z
" />
    <glyph glyph-name="Ycircumflex" unicode="&#x176;" horiz-adv-x="692" 
d="M419 340l148 196c19 26 36 45 36 65c0 21 -14 32 -59 34l14 67h230l-14 -67c-30 -5 -47 -11 -67 -37l-263 -341l-26 -121c-2 -10 -3 -19 -3 -26c0 -32 21 -41 76 -43l-14 -67h-355l14 67c66 3 89 15 100 69l26 122l-118 340c-9 26 -22 32 -48 37l14 67h324l-14 -67
c-45 0 -76 -11 -76 -52c0 -15 3 -29 10 -48zM598 918l92 -169h-89l-88 80l-134 -80h-101l184 169h136z" />
    <glyph glyph-name="Ygrave" unicode="&#x1ef2;" horiz-adv-x="692" 
d="M419 340l148 196c19 26 36 45 36 65c0 21 -14 32 -59 34l14 67h230l-14 -67c-30 -5 -47 -11 -67 -37l-263 -341l-26 -121c-2 -10 -3 -19 -3 -26c0 -32 21 -41 76 -43l-14 -67h-355l14 67c66 3 89 15 100 69l26 122l-118 340c-9 26 -22 32 -48 37l14 67h324l-14 -67
c-45 0 -76 -11 -76 -52c0 -15 3 -29 10 -48zM345 909h181l35 -158h-91z" />
    <glyph glyph-name="Zacute" unicode="&#x179;" horiz-adv-x="648" 
d="M230 71h114c82 0 103 21 208 161h80l-84 -232h-571l10 47l476 583h-117c-81 0 -103 -51 -163 -137h-69l45 209h555l-11 -48zM468 909h197l-194 -158h-99z" />
    <glyph glyph-name="Zdotaccent" unicode="&#x17b;" horiz-adv-x="648" 
d="M230 71h114c82 0 103 21 208 161h80l-84 -232h-571l10 47l476 583h-117c-81 0 -103 -51 -163 -137h-69l45 209h555l-11 -48zM444 744c-60 0 -96 41 -96 88c0 53 38 99 104 99c59 0 96 -40 96 -87c0 -54 -39 -100 -104 -100z" />
    <glyph glyph-name="abreve" unicode="&#x103;" horiz-adv-x="694" 
d="M249 111c66 0 156 163 193 342c-11 29 -18 47 -51 47c-106 0 -185 -188 -185 -318c0 -43 12 -71 43 -71zM482 505l105 54h71l-41 -141l-66 -268c-5 -19 -8 -33 -8 -41c0 -10 5 -15 14 -15c19 0 43 27 79 73l32 -27c-67 -95 -127 -150 -202 -150c-63 0 -100 45 -100 108
c0 32 12 58 27 112h-7c-49 -104 -115 -220 -225 -220c-79 0 -135 67 -135 176c0 186 135 393 338 393c58 0 88 -23 118 -54zM418 603c-81 0 -127 45 -127 112c0 17 3 37 11 58h66c-1 -5 -1 -10 -1 -14c0 -51 37 -64 71 -64c37 0 80 16 105 78h74
c-27 -106 -98 -170 -199 -170z" />
    <glyph glyph-name="amacron" unicode="&#x101;" horiz-adv-x="694" 
d="M249 111c66 0 156 163 193 342c-11 29 -18 47 -51 47c-106 0 -185 -188 -185 -318c0 -43 12 -71 43 -71zM482 505l105 54h71l-41 -141l-66 -268c-5 -19 -8 -33 -8 -41c0 -10 5 -15 14 -15c19 0 43 27 79 73l32 -27c-67 -95 -127 -150 -202 -150c-63 0 -100 45 -100 108
c0 32 12 58 27 112h-7c-49 -104 -115 -220 -225 -220c-79 0 -135 67 -135 176c0 186 135 393 338 393c58 0 88 -23 118 -54zM270 626l23 101h308l-23 -101h-308z" />
    <glyph glyph-name="aogonek" unicode="&#x105;" horiz-adv-x="694" 
d="M482 505l105 54h71l-41 -141l-65 -263c-5 -19 -8 -33 -8 -41c0 -10 5 -15 14 -15c19 0 42 22 78 68l32 -27c-143 -179 -226 -174 -226 -239c0 -22 11 -39 39 -39c20 0 42 7 72 25l16 -28c-52 -50 -98 -75 -155 -75c-48 0 -86 27 -86 73c0 62 46 107 106 141
c-44 12 -68 48 -68 100c0 32 12 58 27 112h-7c-49 -104 -115 -220 -225 -220c-79 0 -135 67 -135 176c0 186 135 393 338 393c58 0 88 -23 118 -54zM249 111c66 0 156 163 193 342c-11 29 -18 47 -51 47c-106 0 -185 -188 -185 -318c0 -43 12 -71 43 -71z" />
    <glyph glyph-name="aringacute" unicode="&#x1fb;" horiz-adv-x="694" 
d="M436 633c36 0 55 20 55 44c0 21 -16 32 -45 32c-36 0 -55 -20 -55 -43c0 -22 16 -33 45 -33zM431 581c-67 0 -112 32 -112 81c0 58 61 99 132 99c67 0 112 -31 112 -80c0 -58 -61 -100 -132 -100zM506 908h197l-170 -120h-99zM249 111c66 0 156 163 193 342
c-11 29 -18 47 -51 47c-106 0 -185 -188 -185 -318c0 -43 12 -71 43 -71zM482 505l105 54h71l-41 -141l-66 -268c-5 -19 -8 -33 -8 -41c0 -10 5 -15 14 -15c19 0 43 27 79 73l32 -27c-67 -95 -127 -150 -202 -150c-63 0 -100 45 -100 108c0 32 12 58 27 112h-7
c-49 -104 -115 -220 -225 -220c-79 0 -135 67 -135 176c0 186 135 393 338 393c58 0 88 -23 118 -54z" />
    <glyph glyph-name="aeacute" unicode="&#x1fd;" horiz-adv-x="865" 
d="M357 559c67 0 111 -25 145 -75c57 46 129 75 208 75c98 0 150 -58 150 -123c0 -108 -123 -166 -326 -203v-14c0 -78 38 -129 98 -129c59 0 101 25 155 86l28 -27c-63 -109 -166 -159 -257 -159c-113 0 -182 71 -195 173c-47 -89 -109 -173 -202 -173
c-79 0 -135 67 -135 176c0 186 135 393 331 393zM249 111c34 0 76 44 113 113c6 83 44 164 103 226c-16 33 -43 54 -73 54c-106 0 -186 -192 -186 -322c0 -43 12 -71 43 -71zM553 766h197l-195 -160h-98zM685 498c-69 0 -131 -116 -147 -226c126 38 180 92 180 174
c0 26 -8 52 -33 52z" />
    <glyph glyph-name="cacute" unicode="&#x107;" horiz-adv-x="510" 
d="M353 499c-80 0 -147 -159 -147 -280c0 -77 32 -120 85 -120c47 0 90 16 144 77l27 -27c-60 -107 -147 -159 -240 -159c-124 0 -196 87 -196 207c0 181 142 362 343 362c79 0 144 -30 144 -104c0 -39 -21 -71 -64 -82h-58c8 73 3 126 -38 126zM409 766h197l-195 -160h-98z
" />
    <glyph glyph-name="ccaron" unicode="&#x10d;" horiz-adv-x="510" 
d="M353 499c-80 0 -147 -159 -147 -280c0 -77 32 -120 85 -120c47 0 90 16 144 77l27 -27c-60 -107 -147 -159 -240 -159c-124 0 -196 87 -196 207c0 181 142 362 343 362c79 0 144 -30 144 -104c0 -39 -21 -71 -64 -82h-58c8 73 3 126 -38 126zM302 606l-92 169h89l88 -80
l134 80h101l-184 -169h-136z" />
    <glyph glyph-name="ccircumflex" unicode="&#x109;" horiz-adv-x="510" 
d="M353 499c-80 0 -147 -159 -147 -280c0 -77 32 -120 85 -120c47 0 90 16 144 77l27 -27c-60 -107 -147 -159 -240 -159c-124 0 -196 87 -196 207c0 181 142 362 343 362c79 0 144 -30 144 -104c0 -39 -21 -71 -64 -82h-58c8 73 3 126 -38 126zM476 766l92 -169h-89l-88 80
l-134 -80h-101l184 169h136z" />
    <glyph glyph-name="cdotaccent" unicode="&#x10b;" horiz-adv-x="510" 
d="M353 499c-80 0 -147 -159 -147 -280c0 -77 32 -120 85 -120c47 0 90 16 144 77l27 -27c-60 -107 -147 -159 -240 -159c-124 0 -196 87 -196 207c0 181 142 362 343 362c79 0 144 -30 144 -104c0 -39 -21 -71 -64 -82h-58c8 73 3 126 -38 126zM383 599
c-60 0 -96 41 -96 88c0 53 38 99 104 99c59 0 96 -40 96 -87c0 -54 -39 -100 -104 -100z" />
    <glyph glyph-name="dcaron" unicode="&#x10f;" horiz-adv-x="708" 
d="M249 111c67 0 166 161 203 356c-14 27 -38 36 -59 36c-106 0 -187 -191 -187 -321c0 -43 12 -71 43 -71zM495 641l-61 44l10 34l224 42h35l-146 -611c-5 -19 -8 -33 -8 -41c0 -10 5 -15 14 -15c19 0 43 27 80 73l31 -27c-67 -95 -127 -150 -201 -150
c-64 0 -101 45 -101 107c0 33 9 59 23 114h-7c-48 -104 -117 -221 -227 -221c-79 0 -135 67 -135 176c0 186 138 393 338 393c51 0 88 -20 102 -39zM931 766l-133 -205h-76l51 205h158z" />
    <glyph glyph-name="dcroat" unicode="&#x111;" horiz-adv-x="706" 
d="M723 577h-64l-102 -427c-5 -19 -8 -33 -8 -41c0 -10 5 -15 14 -15c19 0 43 27 80 73l31 -27c-67 -95 -127 -150 -201 -150c-64 0 -101 45 -101 107c0 33 9 59 23 114h-7c-48 -104 -117 -221 -227 -221c-79 0 -135 67 -135 176c0 186 131 366 331 366c51 0 88 -20 102 -39
l20 84h-123l13 51h123l13 53h-72l14 47l221 33h35l-32 -133h65zM249 111c67 0 162 154 196 329c-14 27 -38 36 -59 36c-106 0 -180 -164 -180 -294c0 -43 12 -71 43 -71z" />
    <glyph glyph-name="ebreve" unicode="&#x115;" horiz-adv-x="530" 
d="M525 436c0 -108 -123 -166 -326 -203v-14c0 -78 38 -129 98 -129c59 0 101 25 155 86l28 -27c-63 -109 -166 -159 -257 -159c-125 0 -197 88 -197 208c0 181 152 361 349 361c98 0 150 -58 150 -123zM354 603c-81 0 -127 45 -127 112c0 17 3 37 11 58h66
c-1 -5 -1 -10 -1 -14c0 -51 37 -64 71 -64c37 0 80 16 105 78h74c-27 -106 -98 -170 -199 -170zM350 498c-69 0 -131 -116 -147 -226c126 38 180 92 180 174c0 26 -8 52 -33 52z" />
    <glyph glyph-name="ecaron" unicode="&#x11b;" horiz-adv-x="530" 
d="M525 436c0 -108 -123 -166 -326 -203v-14c0 -78 38 -129 98 -129c59 0 101 25 155 86l28 -27c-63 -109 -166 -159 -257 -159c-125 0 -197 88 -197 208c0 181 152 361 349 361c98 0 150 -58 150 -123zM290 606l-92 169h89l88 -80l134 80h101l-184 -169h-136zM350 498
c-69 0 -131 -116 -147 -226c126 38 180 92 180 174c0 26 -8 52 -33 52z" />
    <glyph glyph-name="edotaccent" unicode="&#x117;" horiz-adv-x="530" 
d="M525 436c0 -108 -123 -166 -326 -203v-14c0 -78 38 -129 98 -129c59 0 101 25 155 86l28 -27c-63 -109 -166 -159 -257 -159c-125 0 -197 88 -197 208c0 181 152 361 349 361c98 0 150 -58 150 -123zM371 599c-60 0 -96 41 -96 88c0 53 38 99 104 99c59 0 96 -40 96 -87
c0 -54 -39 -100 -104 -100zM350 498c-69 0 -131 -116 -147 -226c126 38 180 92 180 174c0 26 -8 52 -33 52z" />
    <glyph glyph-name="emacron" unicode="&#x113;" horiz-adv-x="530" 
d="M525 436c0 -108 -123 -166 -326 -203v-14c0 -78 38 -129 98 -129c59 0 101 25 155 86l28 -27c-63 -109 -166 -159 -257 -159c-125 0 -197 88 -197 208c0 181 152 361 349 361c98 0 150 -58 150 -123zM206 626l23 101h308l-23 -101h-308zM350 498
c-69 0 -131 -116 -147 -226c126 38 180 92 180 174c0 26 -8 52 -33 52z" />
    <glyph glyph-name="eogonek" unicode="&#x119;" horiz-adv-x="530" 
d="M525 436c0 -108 -123 -166 -326 -203v-14c0 -78 38 -129 98 -129c59 0 101 25 155 86l28 -27c-39 -67 -92 -111 -148 -136c-67 -38 -99 -76 -99 -112c0 -22 11 -39 39 -39c20 0 42 7 72 25l16 -28c-52 -50 -98 -75 -155 -75c-48 0 -86 26 -86 72c0 59 43 101 100 134
c-123 2 -193 89 -193 208c0 181 152 361 349 361c98 0 150 -58 150 -123zM350 498c-69 0 -131 -116 -147 -226c126 38 180 92 180 174c0 26 -8 52 -33 52z" />
    <glyph glyph-name="gbreve" unicode="&#x11f;" horiz-adv-x="575" 
d="M332 559c39 0 75 -9 105 -25l196 20l-23 -95h-43l-64 19c16 -23 25 -48 25 -74c0 -125 -129 -198 -276 -198c-23 0 -46 2 -66 7c-20 -8 -32 -19 -32 -34c0 -14 10 -23 29 -28l175 -35c97 -19 153 -53 153 -136c0 -115 -134 -189 -301 -189c-130 0 -273 45 -273 135
c0 66 80 94 142 96c-25 24 -39 45 -39 82c0 58 48 94 115 119c-60 24 -98 73 -98 147c0 116 128 189 275 189zM373 603c-81 0 -127 45 -127 112c0 17 3 37 11 58h66c-1 -5 -1 -10 -1 -14c0 -51 37 -64 71 -64c37 0 80 16 105 78h74c-27 -106 -98 -170 -199 -170zM305 -44
l-202 42c-32 -11 -47 -30 -47 -59c0 -54 68 -89 155 -89c82 0 147 27 147 69c0 22 -19 30 -53 37zM265 258c46 0 96 67 96 174c0 40 -11 75 -42 75c-46 0 -96 -68 -96 -175c0 -39 11 -74 42 -74z" />
    <glyph glyph-name="gcircumflex" unicode="&#x11d;" horiz-adv-x="575" 
d="M332 559c39 0 75 -9 105 -25l196 20l-23 -95h-43l-64 19c16 -23 25 -48 25 -74c0 -125 -129 -198 -276 -198c-23 0 -46 2 -66 7c-20 -8 -32 -19 -32 -34c0 -14 10 -23 29 -28l175 -35c97 -19 153 -53 153 -136c0 -115 -134 -189 -301 -189c-130 0 -273 45 -273 135
c0 66 80 94 142 96c-25 24 -39 45 -39 82c0 58 48 94 115 119c-60 24 -98 73 -98 147c0 116 128 189 275 189zM483 766l92 -169h-89l-88 80l-134 -80h-101l184 169h136zM305 -44l-202 42c-32 -11 -47 -30 -47 -59c0 -54 68 -89 155 -89c82 0 147 27 147 69
c0 22 -19 30 -53 37zM265 258c46 0 96 67 96 174c0 40 -11 75 -42 75c-46 0 -96 -68 -96 -175c0 -39 11 -74 42 -74z" />
    <glyph glyph-name="gcommaaccent" unicode="&#x123;" horiz-adv-x="575" 
d="M332 559c39 0 75 -9 105 -25l196 20l-23 -95h-43l-64 19c16 -23 25 -48 25 -74c0 -125 -129 -198 -276 -198c-23 0 -46 2 -66 7c-20 -8 -32 -19 -32 -34c0 -14 10 -23 29 -28l175 -35c97 -19 153 -53 153 -136c0 -115 -134 -189 -301 -189c-130 0 -273 45 -273 135
c0 66 80 94 142 96c-25 24 -39 45 -39 82c0 58 48 94 115 119c-60 24 -98 73 -98 147c0 116 128 189 275 189zM305 -44l-202 42c-32 -11 -47 -30 -47 -59c0 -54 68 -89 155 -89c82 0 147 27 147 69c0 22 -19 30 -53 37zM379 720h61c26 -7 41 -22 41 -50
c0 -42 -33 -76 -94 -76c-55 0 -86 33 -86 81c0 75 51 137 190 137v-45c-67 0 -106 -20 -112 -47zM265 258c46 0 96 67 96 174c0 40 -11 75 -42 75c-46 0 -96 -68 -96 -175c0 -39 11 -74 42 -74z" />
    <glyph glyph-name="gdotaccent" unicode="&#x121;" horiz-adv-x="575" 
d="M332 559c39 0 75 -9 105 -25l196 20l-23 -95h-43l-64 19c16 -23 25 -48 25 -74c0 -125 -129 -198 -276 -198c-23 0 -46 2 -66 7c-20 -8 -32 -19 -32 -34c0 -14 10 -23 29 -28l175 -35c97 -19 153 -53 153 -136c0 -115 -134 -189 -301 -189c-130 0 -273 45 -273 135
c0 66 80 94 142 96c-25 24 -39 45 -39 82c0 58 48 94 115 119c-60 24 -98 73 -98 147c0 116 128 189 275 189zM305 -44l-202 42c-32 -11 -47 -30 -47 -59c0 -54 68 -89 155 -89c82 0 147 27 147 69c0 22 -19 30 -53 37zM390 599c-60 0 -96 41 -96 88c0 53 38 99 104 99
c59 0 96 -40 96 -87c0 -54 -39 -100 -104 -100zM265 258c46 0 96 67 96 174c0 40 -11 75 -42 75c-46 0 -96 -68 -96 -175c0 -39 11 -74 42 -74z" />
    <glyph glyph-name="hbar" unicode="&#x127;" horiz-adv-x="689" 
d="M304 459l-52 -160h7c100 172 193 260 287 260c55 0 86 -35 86 -88c0 -13 -3 -31 -6 -44l-75 -277c-5 -19 -9 -33 -9 -41c0 -10 5 -15 14 -15c19 0 43 27 80 73l31 -27c-67 -95 -127 -150 -201 -150c-64 0 -106 40 -106 94c0 27 4 52 14 86l64 220c3 13 5 25 5 33
c0 11 -4 18 -17 18c-37 0 -154 -141 -197 -306l-35 -135h-182l138 577h-69l13 51h68l13 53h-71l14 47l225 33h35l-33 -133h116l-13 -51h-115z" />
    <glyph glyph-name="hcircumflex" unicode="&#x125;" horiz-adv-x="684" 
d="M299 459l-52 -160h7c100 172 193 260 287 260c55 0 86 -35 86 -88c0 -13 -3 -31 -6 -44l-75 -277c-5 -19 -9 -33 -9 -41c0 -10 5 -15 14 -15c19 0 43 27 80 73l31 -27c-67 -95 -127 -150 -201 -150c-64 0 -106 40 -106 94c0 27 4 52 14 86l64 220c3 13 5 25 5 33
c0 11 -4 18 -17 18c-37 0 -154 -141 -197 -306l-35 -135h-182l154 641l-61 44l10 34l228 42h35zM545 956l92 -169h-89l-88 80l-134 -80h-101l184 169h136z" />
    <glyph glyph-name="ibreve" unicode="&#x12d;" horiz-adv-x="370" 
d="M328 559l-103 -409c-5 -19 -8 -33 -8 -41c0 -10 5 -15 14 -15c19 0 44 27 80 73l31 -27c-66 -95 -126 -150 -201 -150c-63 0 -104 40 -104 94c0 27 5 52 13 86l66 269l-50 47l9 34l218 39h35zM248 603c-81 0 -127 45 -127 112c0 17 3 37 11 58h66c-1 -5 -1 -10 -1 -14
c0 -51 37 -64 71 -64c37 0 80 16 105 78h74c-27 -106 -98 -170 -199 -170z" />
    <glyph glyph-name="imacron" unicode="&#x12b;" horiz-adv-x="370" 
d="M116 626l23 101h278l-23 -101h-278zM328 559l-103 -409c-5 -19 -8 -33 -8 -41c0 -10 5 -15 14 -15c19 0 44 27 80 73l31 -27c-66 -95 -126 -150 -201 -150c-63 0 -104 40 -104 94c0 27 5 52 13 86l66 269l-50 47l9 34l218 39h35z" />
    <glyph glyph-name="iogonek" unicode="&#x12f;" horiz-adv-x="370" 
d="M261 594c-60 0 -96 41 -96 88c0 53 38 99 104 99c59 0 96 -40 96 -87c0 -54 -39 -100 -104 -100zM37 84c0 27 5 52 13 86l66 269l-50 47l9 34l218 39h35l-102 -404c-5 -19 -8 -33 -8 -41c0 -10 5 -15 14 -15c19 0 42 22 78 68l32 -27c-143 -179 -226 -174 -226 -239
c0 -22 11 -39 39 -39c20 0 42 7 72 25l16 -28c-52 -50 -98 -75 -155 -75c-48 0 -86 27 -86 73c0 62 46 107 106 141c-44 12 -71 40 -71 86z" />
    <glyph glyph-name="itilde" unicode="&#x129;" horiz-adv-x="370" 
d="M392 771l58 -11c-63 -125 -93 -150 -142 -150c-48 0 -74 63 -111 63c-29 0 -47 -25 -68 -56l-59 12c64 125 93 150 143 150c54 0 72 -63 110 -63c28 0 48 24 69 55zM328 559l-103 -409c-5 -19 -8 -33 -8 -41c0 -10 5 -15 14 -15c19 0 44 27 80 73l31 -27
c-66 -95 -126 -150 -201 -150c-63 0 -104 40 -104 94c0 27 5 52 13 86l66 269l-50 47l9 34l218 39h35z" />
    <glyph glyph-name="ij" unicode="&#x133;" horiz-adv-x="710" 
d="M328 559l-103 -409c-5 -19 -8 -33 -8 -41c0 -10 5 -15 14 -15c19 0 44 27 80 73l31 -27c-66 -95 -126 -150 -201 -150c-63 0 -104 40 -104 94c0 27 5 52 13 86l66 269l-50 47l9 34l218 39h35zM261 594c-60 0 -96 41 -96 88c0 53 38 99 104 99c59 0 96 -40 96 -87
c0 -54 -39 -100 -104 -100zM639 594c-59 0 -96 41 -96 88c0 53 39 99 104 99c60 0 96 -40 96 -87c0 -54 -38 -100 -104 -100zM394 -4l101 443l-51 47l10 34l218 39h35l-115 -456c-51 -201 -146 -310 -284 -310c-76 0 -127 31 -127 81c0 48 36 74 79 79h28
c1 -64 10 -114 40 -114s40 44 66 157z" />
    <glyph glyph-name="jcircumflex" unicode="&#x135;" horiz-adv-x="340" 
d="M24 -4l101 443l-51 47l10 34l218 39h35l-115 -456c-51 -201 -146 -310 -284 -310c-76 0 -127 31 -127 81c0 48 36 74 79 79h28c1 -64 10 -114 40 -114s40 44 66 157zM348 766l92 -169h-89l-88 80l-134 -80h-101l184 169h136z" />
    <glyph glyph-name="kcommaaccent" unicode="&#x137;" horiz-adv-x="649" 
d="M419 373l70 -186c14 -39 25 -66 47 -66c20 0 33 8 64 47l28 -27c-67 -107 -115 -151 -182 -151c-55 0 -86 35 -110 102l-65 179l153 186c64 77 97 102 140 102c53 0 79 -39 79 -78c0 -48 -28 -78 -74 -93h-22c0 33 -9 58 -37 58c-23 0 -45 -13 -80 -59zM374 761
l-185 -761h-182l155 641l-61 44l10 34l228 42h35zM246 -158h-61c-26 7 -41 22 -41 50c0 42 33 76 94 76c55 0 86 -33 86 -81c0 -75 -51 -137 -190 -137v45c67 0 106 20 112 47z" />
    <glyph glyph-name="kgreenlandic" unicode="&#x138;" horiz-adv-x="659" 
d="M429 373l70 -186c14 -39 25 -66 47 -66c20 0 33 8 64 47l28 -27c-67 -107 -115 -151 -182 -151c-55 0 -86 35 -110 102l-65 179l153 186c64 77 97 102 140 102c53 0 79 -39 79 -78c0 -48 -28 -78 -74 -93h-22c0 33 -9 58 -37 58c-23 0 -45 -13 -80 -59zM335 562
l-140 -562h-182l109 439l-51 47l10 34l219 42h35z" />
    <glyph glyph-name="lacute" unicode="&#x13a;" horiz-adv-x="358" 
d="M157 641l-61 44l10 34l228 42h35l-154 -611c-5 -19 -7 -33 -7 -41c0 -10 5 -15 14 -15c19 0 43 27 79 73l31 -27c-66 -95 -126 -150 -201 -150c-63 0 -104 40 -104 94c0 27 5 52 13 86zM336 951h197l-194 -158h-99z" />
    <glyph glyph-name="lcaron" unicode="&#x13e;" horiz-adv-x="367" 
d="M157 641l-61 44l10 34l228 42h35l-154 -611c-5 -19 -7 -33 -7 -41c0 -10 5 -15 14 -15c19 0 43 27 79 73l31 -27c-66 -95 -126 -150 -201 -150c-63 0 -104 40 -104 94c0 27 5 52 13 86zM595 766l-133 -205h-76l51 205h158z" />
    <glyph glyph-name="lcommaaccent" unicode="&#x13c;" horiz-adv-x="358" 
d="M157 641l-61 44l10 34l228 42h35l-154 -611c-5 -19 -7 -33 -7 -41c0 -10 5 -15 14 -15c19 0 43 27 79 73l31 -27c-66 -95 -126 -150 -201 -150c-63 0 -104 40 -104 94c0 27 5 52 13 86zM103 -158h-61c-26 7 -41 22 -41 50c0 42 33 76 94 76c55 0 86 -33 86 -81
c0 -75 -51 -137 -190 -137v45c67 0 106 20 112 47z" />
    <glyph glyph-name="ldot" unicode="&#x140;" horiz-adv-x="527" 
d="M157 641l-61 44l10 34l228 42h35l-154 -611c-5 -19 -7 -33 -7 -41c0 -10 5 -15 14 -15c19 0 43 27 79 73l31 -27c-66 -95 -126 -150 -201 -150c-63 0 -104 40 -104 94c0 27 5 52 13 86zM437 287c-60 0 -96 41 -96 88c0 53 38 99 104 99c59 0 96 -40 96 -87
c0 -54 -39 -100 -104 -100z" />
    <glyph glyph-name="nacute" unicode="&#x144;" horiz-adv-x="689" 
d="M335 562l-27 -105l-56 -158h7c100 172 193 260 287 260c55 0 86 -35 86 -88c0 -13 -3 -31 -6 -44l-75 -277c-5 -19 -9 -33 -9 -41c0 -10 5 -15 14 -15c19 0 43 27 80 73l31 -27c-67 -95 -127 -150 -201 -150c-64 0 -106 40 -106 94c0 27 4 52 14 86l64 220
c3 13 5 25 5 33c0 11 -4 18 -17 18c-37 0 -154 -141 -197 -306l-35 -135h-181l109 439l-51 47l10 34l218 42h36zM461 766h197l-195 -160h-98z" />
    <glyph glyph-name="ncaron" unicode="&#x148;" horiz-adv-x="689" 
d="M335 562l-27 -105l-56 -158h7c100 172 193 260 287 260c55 0 86 -35 86 -88c0 -13 -3 -31 -6 -44l-75 -277c-5 -19 -9 -33 -9 -41c0 -10 5 -15 14 -15c19 0 43 27 80 73l31 -27c-67 -95 -127 -150 -201 -150c-64 0 -106 40 -106 94c0 27 4 52 14 86l64 220
c3 13 5 25 5 33c0 11 -4 18 -17 18c-37 0 -154 -141 -197 -306l-35 -135h-181l109 439l-51 47l10 34l218 42h36zM355 606l-92 169h89l88 -80l134 80h101l-184 -169h-136z" />
    <glyph glyph-name="ncommaaccent" unicode="&#x146;" horiz-adv-x="689" 
d="M335 562l-27 -105l-56 -158h7c100 172 193 260 287 260c55 0 86 -35 86 -88c0 -13 -3 -31 -6 -44l-75 -277c-5 -19 -9 -33 -9 -41c0 -10 5 -15 14 -15c19 0 43 27 80 73l31 -27c-67 -95 -127 -150 -201 -150c-64 0 -106 40 -106 94c0 27 4 52 14 86l64 220
c3 13 5 25 5 33c0 11 -4 18 -17 18c-37 0 -154 -141 -197 -306l-35 -135h-181l109 439l-51 47l10 34l218 42h36zM280 -158h-61c-26 7 -41 22 -41 50c0 42 33 76 94 76c55 0 86 -33 86 -81c0 -75 -51 -137 -190 -137v45c67 0 106 20 112 47z" />
    <glyph glyph-name="eng" unicode="&#x14b;" horiz-adv-x="662" 
d="M343 -4l95 394c3 13 5 25 5 33c0 11 -4 18 -17 18c-37 0 -154 -141 -197 -306l-35 -135h-181l109 439l-51 47l10 34l218 42h36l-27 -105l-56 -158h7c100 172 193 260 287 260c55 0 86 -35 86 -88c0 -13 -3 -31 -6 -44l-85 -324c-53 -201 -146 -310 -284 -310
c-76 0 -127 31 -127 81c0 48 36 74 79 79h28c1 -64 8 -114 38 -114s41 44 68 157z" />
    <glyph glyph-name="obreve" unicode="&#x14f;" horiz-adv-x="608" 
d="M255 53c93 0 148 214 148 331c0 65 -12 112 -50 112c-93 0 -148 -214 -148 -331c0 -65 12 -112 50 -112zM250 -10c-129 0 -222 87 -222 230c0 187 132 339 330 339c129 0 222 -87 222 -230c0 -187 -132 -339 -330 -339zM371 603c-81 0 -127 45 -127 112c0 17 3 37 11 58
h66c-1 -5 -1 -10 -1 -14c0 -51 37 -64 71 -64c37 0 80 16 105 78h74c-27 -106 -98 -170 -199 -170z" />
    <glyph glyph-name="ohungarumlaut" unicode="&#x151;" horiz-adv-x="608" 
d="M255 53c93 0 148 214 148 331c0 65 -12 112 -50 112c-93 0 -148 -214 -148 -331c0 -65 12 -112 50 -112zM250 -10c-129 0 -222 87 -222 230c0 187 132 339 330 339c129 0 222 -87 222 -230c0 -187 -132 -339 -330 -339zM306 766h171l-179 -160h-88zM516 766h177
l-185 -160h-88z" />
    <glyph glyph-name="omacron" unicode="&#x14d;" horiz-adv-x="608" 
d="M255 53c93 0 148 214 148 331c0 65 -12 112 -50 112c-93 0 -148 -214 -148 -331c0 -65 12 -112 50 -112zM250 -10c-129 0 -222 87 -222 230c0 187 132 339 330 339c129 0 222 -87 222 -230c0 -187 -132 -339 -330 -339zM223 626l23 101h308l-23 -101h-308z" />
    <glyph glyph-name="oslashacute" unicode="&#x1ff;" horiz-adv-x="622" 
d="M559 591l-52 -77c52 -39 85 -103 85 -185c0 -187 -137 -339 -335 -339c-35 0 -67 7 -95 18l-68 -100l-43 28l66 97c-54 39 -87 103 -87 187c0 187 137 339 335 339c35 0 68 -6 97 -19l54 79zM197 165v-14l214 314c-10 19 -27 31 -54 31c-93 0 -160 -214 -160 -331z
M265 53c93 0 160 214 160 331v10l-212 -311c11 -19 27 -30 52 -30zM423 766h197l-195 -160h-98z" />
    <glyph glyph-name="racute" unicode="&#x155;" horiz-adv-x="523" 
d="M232 236h7c131 252 163 323 241 323c50 0 73 -35 73 -81c0 -61 -51 -110 -89 -128h-22c0 19 -7 36 -28 36c-73 0 -155 -140 -217 -386h-182l109 439l-50 47l10 34l216 42h35l-39 -148zM392 766h197l-195 -160h-98z" />
    <glyph glyph-name="rcaron" unicode="&#x159;" horiz-adv-x="523" 
d="M232 236h7c131 252 163 323 241 323c50 0 73 -35 73 -81c0 -61 -51 -110 -89 -128h-22c0 19 -7 36 -28 36c-73 0 -155 -140 -217 -386h-182l109 439l-50 47l10 34l216 42h35l-39 -148zM285 606l-92 169h89l88 -80l134 80h101l-184 -169h-136z" />
    <glyph glyph-name="rcommaaccent" unicode="&#x157;" horiz-adv-x="523" 
d="M232 236h7c131 252 163 323 241 323c50 0 73 -35 73 -81c0 -61 -51 -110 -89 -128h-22c0 19 -7 36 -28 36c-73 0 -155 -140 -217 -386h-182l109 439l-50 47l10 34l216 42h35l-39 -148zM101 -158h-61c-26 7 -41 22 -41 50c0 42 33 76 94 76c55 0 86 -33 86 -81
c0 -75 -51 -137 -190 -137v45c67 0 106 20 112 47z" />
    <glyph glyph-name="sacute" unicode="&#x15b;" horiz-adv-x="482" 
d="M214 45c36 0 57 21 57 52c0 70 -202 133 -202 261c0 120 94 201 229 201c84 0 154 -41 154 -106c0 -28 -24 -51 -56 -60h-34c-9 64 -47 110 -95 110c-40 0 -60 -18 -60 -47c0 -66 213 -142 213 -268c0 -121 -101 -198 -230 -198c-112 0 -194 51 -194 116
c0 40 28 67 63 78h30c14 -88 52 -139 125 -139zM354 766h197l-195 -160h-98z" />
    <glyph glyph-name="scedilla" unicode="&#x15f;" horiz-adv-x="482" 
d="M43 -233l-11 49c72 0 122 12 122 39c0 25 -29 34 -76 36l51 105c-80 14 -133 57 -133 110c0 40 28 67 63 78h30c14 -88 52 -139 125 -139c36 0 57 21 57 52c0 70 -202 133 -202 261c0 120 94 201 229 201c84 0 154 -41 154 -106c0 -28 -24 -51 -56 -60h-34
c-9 64 -47 110 -95 110c-40 0 -60 -18 -60 -47c0 -66 213 -142 213 -268c0 -121 -101 -198 -230 -198c-5 0 -9 1 -13 1l-18 -35c59 -6 86 -31 86 -78c0 -74 -102 -111 -202 -111z" />
    <glyph glyph-name="scircumflex" unicode="&#x15d;" horiz-adv-x="482" 
d="M214 45c36 0 57 21 57 52c0 70 -202 133 -202 261c0 120 94 201 229 201c84 0 154 -41 154 -106c0 -28 -24 -51 -56 -60h-34c-9 64 -47 110 -95 110c-40 0 -60 -18 -60 -47c0 -66 213 -142 213 -268c0 -121 -101 -198 -230 -198c-112 0 -194 51 -194 116
c0 40 28 67 63 78h30c14 -88 52 -139 125 -139zM421 766l92 -169h-89l-88 80l-134 -80h-101l184 169h136z" />
    <glyph glyph-name="scommaaccent" unicode="&#x219;" horiz-adv-x="482" 
d="M214 45c36 0 57 21 57 52c0 70 -202 133 -202 261c0 120 94 201 229 201c84 0 154 -41 154 -106c0 -28 -24 -51 -56 -60h-34c-9 64 -47 110 -95 110c-40 0 -60 -18 -60 -47c0 -66 213 -142 213 -268c0 -121 -101 -198 -230 -198c-112 0 -194 51 -194 116
c0 40 28 67 63 78h30c14 -88 52 -139 125 -139zM173 -158h-61c-26 7 -41 22 -41 50c0 42 33 76 94 76c55 0 86 -33 86 -81c0 -75 -51 -137 -190 -137v45c67 0 106 20 112 47z" />
    <glyph glyph-name="tbar" unicode="&#x167;" horiz-adv-x="461" 
d="M322 482l-25 -102h127l-15 -66h-129l-34 -140c-6 -24 -8 -39 -8 -51c0 -17 7 -29 23 -29c30 0 64 31 124 95l31 -27c-79 -108 -152 -172 -248 -172c-76 0 -113 54 -113 111c0 27 3 46 10 76l33 137h-60l16 66h61l25 102h-73l13 49c78 14 169 73 230 144h60l-31 -125h117
l-17 -68h-117z" />
    <glyph glyph-name="tcaron" unicode="&#x165;" horiz-adv-x="433" 
d="M308 482l-76 -308c-6 -24 -8 -39 -8 -51c0 -17 7 -29 23 -29c30 0 64 31 124 95l31 -27c-79 -108 -152 -172 -248 -172c-76 0 -113 54 -113 111c0 27 3 46 10 76l75 305h-73l13 49c78 14 169 73 230 144h60l-31 -125h117l-17 -68h-117zM599 824l-133 -205h-76l51 205h158
z" />
    <glyph glyph-name="ubreve" unicode="&#x16d;" horiz-adv-x="701" 
d="M407 243h-7c-81 -147 -172 -253 -265 -253c-68 0 -98 39 -98 98c0 18 3 38 8 60l70 291l-50 47l10 34l217 39h35l-100 -395c-3 -13 -4 -24 -4 -30c0 -16 4 -23 17 -23c46 0 161 158 199 308l31 120l183 10l-100 -399c-5 -19 -8 -33 -8 -41c0 -10 5 -15 14 -15
c19 0 44 27 80 73l31 -27c-66 -95 -124 -150 -199 -150c-64 0 -98 45 -98 108c0 32 14 82 34 145zM410 603c-81 0 -127 45 -127 112c0 17 3 37 11 58h66c-1 -5 -1 -10 -1 -14c0 -51 37 -64 71 -64c37 0 80 16 105 78h74c-27 -106 -98 -170 -199 -170z" />
    <glyph glyph-name="uhungarumlaut" unicode="&#x171;" horiz-adv-x="701" 
d="M407 243h-7c-81 -147 -172 -253 -265 -253c-68 0 -98 39 -98 98c0 18 3 38 8 60l70 291l-50 47l10 34l217 39h35l-100 -395c-3 -13 -4 -24 -4 -30c0 -16 4 -23 17 -23c46 0 161 158 199 308l31 120l183 10l-100 -399c-5 -19 -8 -33 -8 -41c0 -10 5 -15 14 -15
c19 0 44 27 80 73l31 -27c-66 -95 -124 -150 -199 -150c-64 0 -98 45 -98 108c0 32 14 82 34 145zM345 766h171l-179 -160h-88zM555 766h177l-185 -160h-88z" />
    <glyph glyph-name="umacron" unicode="&#x16b;" horiz-adv-x="701" 
d="M407 243h-7c-81 -147 -172 -253 -265 -253c-68 0 -98 39 -98 98c0 18 3 38 8 60l70 291l-50 47l10 34l217 39h35l-100 -395c-3 -13 -4 -24 -4 -30c0 -16 4 -23 17 -23c46 0 161 158 199 308l31 120l183 10l-100 -399c-5 -19 -8 -33 -8 -41c0 -10 5 -15 14 -15
c19 0 44 27 80 73l31 -27c-66 -95 -124 -150 -199 -150c-64 0 -98 45 -98 108c0 32 14 82 34 145zM262 626l23 101h308l-23 -101h-308z" />
    <glyph glyph-name="uogonek" unicode="&#x173;" horiz-adv-x="701" 
d="M653 549l-99 -394c-5 -19 -8 -33 -8 -41c0 -10 5 -15 14 -15c19 0 42 22 78 68l32 -27c-143 -179 -226 -174 -226 -239c0 -22 11 -39 39 -39c20 0 42 7 72 25l16 -28c-52 -50 -98 -75 -155 -75c-48 0 -86 27 -86 73c0 62 46 107 106 141c-44 12 -63 52 -63 100
c0 32 14 82 34 145h-7c-81 -147 -172 -253 -265 -253c-68 0 -98 39 -98 98c0 18 3 38 8 60l70 291l-50 47l10 34l217 39h35l-100 -395c-3 -13 -4 -24 -4 -30c0 -16 4 -23 17 -23c46 0 161 158 199 308l31 120z" />
    <glyph glyph-name="uring" unicode="&#x16f;" horiz-adv-x="701" 
d="M407 243h-7c-81 -147 -172 -253 -265 -253c-68 0 -98 39 -98 98c0 18 3 38 8 60l70 291l-50 47l10 34l217 39h35l-100 -395c-3 -13 -4 -24 -4 -30c0 -16 4 -23 17 -23c46 0 161 158 199 308l31 120l183 10l-100 -399c-5 -19 -8 -33 -8 -41c0 -10 5 -15 14 -15
c19 0 44 27 80 73l31 -27c-66 -95 -124 -150 -199 -150c-64 0 -98 45 -98 108c0 32 14 82 34 145zM428 654c33 0 51 23 51 49c0 23 -15 39 -42 39c-33 0 -51 -23 -51 -48c0 -24 15 -40 42 -40zM423 597c-62 0 -104 39 -104 93c0 63 57 109 123 109c62 0 104 -39 104 -93
c0 -63 -57 -109 -123 -109z" />
    <glyph glyph-name="utilde" unicode="&#x169;" horiz-adv-x="701" 
d="M407 243h-7c-81 -147 -172 -253 -265 -253c-68 0 -98 39 -98 98c0 18 3 38 8 60l70 291l-50 47l10 34l217 39h35l-100 -395c-3 -13 -4 -24 -4 -30c0 -16 4 -23 17 -23c46 0 161 158 199 308l31 120l183 10l-100 -399c-5 -19 -8 -33 -8 -41c0 -10 5 -15 14 -15
c19 0 44 27 80 73l31 -27c-66 -95 -124 -150 -199 -150c-64 0 -98 45 -98 108c0 32 14 82 34 145zM578 771l58 -11c-63 -125 -93 -150 -151 -150c-49 0 -95 63 -132 63c-29 0 -47 -25 -68 -56l-59 12c64 125 93 150 151 150c56 0 94 -63 132 -63c28 0 48 24 69 55z" />
    <glyph glyph-name="wacute" unicode="&#x1e83;" horiz-adv-x="837" 
d="M386 445l-61 41l10 34l176 39h35l28 -399l74 87c41 47 58 100 58 144c0 48 -34 78 -86 78l1 19c22 37 63 71 121 71c64 0 91 -48 91 -101c0 -76 -59 -155 -127 -231l-209 -232h-65l-26 255l-212 -255h-63l-52 450l-61 41l10 34l185 39h35l34 -384l117 145zM534 766h197
l-195 -160h-98z" />
    <glyph glyph-name="wcircumflex" unicode="&#x175;" horiz-adv-x="837" 
d="M386 445l-61 41l10 34l176 39h35l28 -399l74 87c41 47 58 100 58 144c0 48 -34 78 -86 78l1 19c22 37 63 71 121 71c64 0 91 -48 91 -101c0 -76 -59 -155 -127 -231l-209 -232h-65l-26 255l-212 -255h-63l-52 450l-61 41l10 34l185 39h35l34 -384l117 145zM601 766
l92 -169h-89l-88 80l-134 -80h-101l184 169h136z" />
    <glyph glyph-name="wgrave" unicode="&#x1e81;" horiz-adv-x="837" 
d="M386 445l-61 41l10 34l176 39h35l28 -399l74 87c41 47 58 100 58 144c0 48 -34 78 -86 78l1 19c22 37 63 71 121 71c64 0 91 -48 91 -101c0 -76 -59 -155 -127 -231l-209 -232h-65l-26 255l-212 -255h-63l-52 450l-61 41l10 34l185 39h35l34 -384l117 145zM334 766h181
l35 -160h-91z" />
    <glyph glyph-name="wdieresis" unicode="&#x1e85;" horiz-adv-x="837" 
d="M386 445l-61 41l10 34l176 39h35l28 -399l74 87c41 47 58 100 58 144c0 48 -34 78 -86 78l1 19c22 37 63 71 121 71c64 0 91 -48 91 -101c0 -76 -59 -155 -127 -231l-209 -232h-65l-26 255l-212 -255h-63l-52 450l-61 41l10 34l185 39h35l34 -384l117 145zM400 603
c-54 0 -87 39 -87 83c0 49 35 93 93 93c54 0 86 -38 86 -82c0 -50 -35 -94 -92 -94zM619 603c-54 0 -86 39 -86 83c0 49 34 93 92 93c54 0 86 -38 86 -82c0 -50 -34 -94 -92 -94z" />
    <glyph glyph-name="ycircumflex" unicode="&#x177;" horiz-adv-x="569" 
d="M363 58c-153 -195 -250 -264 -353 -264c-63 0 -117 29 -117 91c0 35 23 67 63 80h32c0 -61 19 -98 78 -98c39 0 80 22 130 70l-117 508l-61 41l10 34l185 39h35l85 -457l3 3c82 111 102 213 102 272c0 62 -34 92 -87 92l1 19c23 37 63 71 121 71c64 0 92 -52 92 -104
c0 -122 -92 -258 -202 -397zM457 766l92 -169h-89l-88 80l-134 -80h-101l184 169h136z" />
    <glyph glyph-name="ygrave" unicode="&#x1ef3;" horiz-adv-x="569" 
d="M363 58c-153 -195 -250 -264 -353 -264c-63 0 -117 29 -117 91c0 35 23 67 63 80h32c0 -61 19 -98 78 -98c39 0 80 22 130 70l-117 508l-61 41l10 34l185 39h35l85 -457l3 3c82 111 102 213 102 272c0 62 -34 92 -87 92l1 19c23 37 63 71 121 71c64 0 92 -52 92 -104
c0 -122 -92 -258 -202 -397zM189 766h181l35 -160h-91z" />
    <glyph glyph-name="zacute" unicode="&#x17a;" horiz-adv-x="543" 
d="M361 402h-186c-32 0 -42 -7 -60 -34l-27 -41l-34 9l89 247h35c4 -26 8 -37 22 -37h366v-33l-366 -329l84 -25c16 -5 43 -12 72 -12c51 0 76 4 126 78l34 -11c-59 -156 -116 -229 -210 -229c-51 0 -90 15 -141 44l-88 50l-49 -83c-36 0 -55 13 -55 37c0 17 7 35 29 54z
M387 766h197l-195 -160h-98z" />
    <glyph glyph-name="zdotaccent" unicode="&#x17c;" horiz-adv-x="543" 
d="M361 402h-186c-32 0 -42 -7 -60 -34l-27 -41l-34 9l89 247h35c4 -26 8 -37 22 -37h366v-33l-366 -329l84 -25c16 -5 43 -12 72 -12c51 0 76 4 126 78l34 -11c-59 -156 -116 -229 -210 -229c-51 0 -90 15 -141 44l-88 50l-49 -83c-36 0 -55 13 -55 37c0 17 7 35 29 54z
M361 599c-60 0 -96 41 -96 88c0 53 38 99 104 99c59 0 96 -40 96 -87c0 -54 -39 -100 -104 -100z" />
    <glyph glyph-name="A.sc" horiz-adv-x="687" 
d="M405 138l-9 44h-221l-29 -44c-7 -11 -15 -27 -15 -43c0 -17 9 -29 53 -30l-14 -65h-201l14 65c24 5 41 9 56 32l285 438l-17 77h177l113 -515c5 -21 18 -28 45 -32l-14 -65h-301l14 65c52 3 69 13 69 36c0 12 -2 24 -5 37zM346 444l-129 -198h167z" />
    <glyph glyph-name="B.sc" horiz-adv-x="652" 
d="M337 280h-38l-32 -150c-4 -19 -5 -25 -5 -30c0 -29 19 -38 45 -38h17c49 0 109 36 109 130c0 59 -31 88 -96 88zM370 540h-14l-43 -194h26c83 0 127 42 127 118c0 59 -37 76 -96 76zM120 608h326c137 0 204 -48 204 -133c0 -104 -86 -150 -196 -160
c102 -4 165 -50 165 -127c0 -129 -123 -188 -284 -188h-348l14 65c62 3 71 14 81 59l78 362c2 10 4 18 4 25c0 23 -14 30 -58 32z" />
    <glyph glyph-name="C.sc" horiz-adv-x="641" 
d="M329 -10c-189 0 -280 115 -280 247c0 226 170 381 391 381c97 0 162 -30 203 -71l-31 -140h-93c-5 83 -12 145 -80 145c-123 0 -194 -188 -194 -342c0 -86 24 -148 96 -148s106 53 161 158h93l-37 -172c-61 -37 -143 -58 -229 -58z" />
    <glyph glyph-name="D.sc" horiz-adv-x="721" 
d="M385 540h-29l-87 -404c-3 -15 -5 -27 -5 -37c0 -24 16 -31 42 -31h15c149 0 191 213 191 312c0 108 -41 160 -127 160zM120 608h279c185 0 308 -85 308 -249c0 -213 -163 -359 -399 -359h-321l14 65c62 3 71 14 81 59l78 362c2 10 4 18 4 25c0 23 -14 30 -58 32z" />
    <glyph glyph-name="E.sc" horiz-adv-x="611" 
d="M-13 0l14 65c62 3 71 14 81 59l78 362c2 10 4 18 4 25c0 23 -14 30 -58 32l14 65h517l-37 -172h-71c-12 70 -27 106 -98 106h-75l-42 -194h51c38 0 57 13 78 65h62l-43 -199h-62c0 51 -11 66 -50 66h-51l-31 -146c-2 -12 -4 -21 -4 -30c0 -32 22 -38 58 -38h11
c59 0 98 34 165 119h79l-67 -185h-523z" />
    <glyph glyph-name="F.sc" horiz-adv-x="573" 
d="M120 608h515l-37 -171h-76c-11 70 -26 105 -98 105h-67l-44 -200h44c40 0 59 13 78 65h63l-42 -198h-64c0 53 -10 66 -50 66h-43l-31 -144c-1 -8 -3 -16 -3 -29c0 -34 23 -40 91 -41l-11 -61h-358l14 65c62 3 71 14 81 59l78 362c2 10 4 18 4 25c0 23 -14 30 -58 32z" />
    <glyph glyph-name="G.sc" horiz-adv-x="694" 
d="M49 236c0 227 171 382 400 382c89 0 161 -30 201 -71l-31 -140h-93c-5 83 -19 145 -86 145c-125 0 -195 -188 -195 -341c0 -86 22 -149 95 -149c28 0 41 3 57 9l28 108c1 8 3 17 3 24c0 21 -16 26 -58 28l15 69h303l-14 -69c-60 -2 -69 -12 -79 -55l-28 -116
c-61 -44 -151 -70 -240 -70c-188 0 -278 116 -278 246z" />
    <glyph glyph-name="H.sc" horiz-adv-x="782" 
d="M480 124l33 156h-212l-34 -158c-2 -10 -4 -18 -4 -25c0 -23 14 -30 58 -32l-14 -65h-320l14 65c62 3 71 14 81 59l78 362c2 10 4 18 4 25c0 23 -14 30 -58 32l14 65h320l-14 -65c-62 -3 -71 -14 -81 -59l-30 -136h213l30 138c2 10 4 18 4 25c0 23 -14 30 -58 32l14 65
h320l-14 -65c-62 -3 -71 -14 -81 -59l-78 -362c-2 -10 -4 -18 -4 -25c0 -23 14 -30 58 -32l-14 -65h-320l14 65c62 3 71 14 81 59z" />
    <glyph glyph-name="I.sc" horiz-adv-x="384" 
d="M82 124l78 362c2 10 4 18 4 25c0 23 -14 30 -58 32l14 65h320l-14 -65c-62 -3 -71 -14 -81 -59l-78 -362c-2 -10 -4 -18 -4 -25c0 -23 14 -30 58 -32l-14 -65h-320l14 65c62 3 71 14 81 59z" />
    <glyph glyph-name="J.sc" horiz-adv-x="576" 
d="M291 171l68 315c2 10 4 18 4 25c0 23 -14 30 -58 32l14 65h320l-14 -65c-62 -3 -71 -14 -81 -59l-62 -281c-33 -147 -123 -212 -274 -212c-135 0 -204 56 -204 132c0 47 30 83 64 99h128c-16 -42 -23 -65 -23 -103c0 -24 9 -62 45 -62c40 0 59 49 73 114z" />
    <glyph glyph-name="K.sc" horiz-adv-x="719" 
d="M491 362l100 -236c20 -48 37 -60 77 -61l-14 -65h-197c-24 16 -45 59 -62 104l-76 205l201 165c19 16 37 28 37 48c0 14 -10 20 -47 21l14 65h241l-14 -65c-41 -1 -53 -5 -92 -38zM82 124l78 362c2 10 4 18 4 25c0 23 -14 30 -58 32l14 65h320l-14 -65
c-62 -3 -71 -14 -81 -59l-78 -362c-2 -10 -4 -18 -4 -25c0 -23 14 -30 58 -32l-14 -65h-320l14 65c62 3 71 14 81 59z" />
    <glyph glyph-name="L.sc" horiz-adv-x="609" 
d="M-13 0l14 65c62 3 71 14 81 59l78 362c2 10 4 18 4 25c0 23 -14 30 -58 32l14 65h320l-14 -65c-62 -3 -71 -14 -81 -59l-73 -340c-4 -17 -6 -31 -6 -42c0 -26 17 -34 50 -34h20c52 0 73 20 173 149h83l-81 -217h-524z" />
    <glyph glyph-name="M.sc" horiz-adv-x="890" 
d="M601 142l21 267l-244 -409h-59l-54 410l-100 -254c-7 -18 -13 -41 -13 -56c0 -26 22 -32 75 -35l-14 -65h-244l14 65c49 3 70 14 85 53l142 358c7 48 -2 64 -59 67l14 65h245c0 -22 0 -39 3 -62l34 -297l180 301c14 23 20 38 27 58h249l-14 -65c-61 -3 -77 -17 -88 -63
l-25 -362c-3 -43 16 -50 65 -53l-14 -65h-337l14 65c58 4 93 13 97 77z" />
    <glyph glyph-name="N.sc" horiz-adv-x="706" 
d="M538 261l47 225c2 9 3 18 3 25c0 23 -11 30 -56 32l13 65h217l-13 -65c-62 -3 -72 -14 -82 -59l-104 -484h-76l-257 431l-66 -309c-2 -9 -3 -18 -3 -25c0 -23 11 -30 56 -32l-13 -65h-217l13 65c62 3 72 14 82 59l82 377c-18 34 -31 38 -58 42l13 65h224z" />
    <glyph glyph-name="O.sc" horiz-adv-x="694" 
d="M247 188c0 -75 9 -131 66 -131c107 0 169 223 169 363c0 75 -9 131 -66 131c-107 0 -169 -223 -169 -363zM680 360c0 -184 -142 -370 -366 -370c-159 0 -265 101 -265 258c0 184 142 370 366 370c159 0 265 -101 265 -258z" />
    <glyph glyph-name="P.sc" horiz-adv-x="623" 
d="M-13 0l14 65c62 3 71 14 81 59l78 362c2 10 4 18 4 25c0 23 -14 30 -58 32l14 65h303c156 0 224 -60 224 -151c0 -156 -125 -229 -296 -229h-63l-21 -97c-1 -8 -3 -16 -3 -29c0 -34 24 -40 92 -41l-11 -61h-358zM356 540l-55 -251h20c72 0 145 43 145 156
c0 65 -28 95 -89 95h-21z" />
    <glyph glyph-name="Q.sc" horiz-adv-x="694" 
d="M680 360c0 -154 -99 -309 -262 -356l51 -44c38 -30 63 -46 109 -46l-6 -34c-31 -22 -67 -33 -118 -33c-65 0 -125 23 -165 100l-25 47c-131 18 -215 114 -215 254c0 184 142 370 366 370c159 0 265 -101 265 -258zM247 188c0 -75 9 -131 66 -131c107 0 169 223 169 363
c0 75 -9 131 -66 131c-107 0 -169 -223 -169 -363z" />
    <glyph glyph-name="R.sc" horiz-adv-x="702" 
d="M383 540h-29l-51 -231h24c96 0 161 33 161 136c0 63 -36 95 -105 95zM120 608h326c150 0 226 -52 226 -161c0 -90 -82 -153 -165 -170l63 -153c20 -49 34 -59 80 -59l-14 -65h-207c-21 20 -38 56 -49 93l-45 152h-46l-27 -123c-2 -10 -4 -18 -4 -25c0 -23 14 -30 58 -32
l-14 -65h-315l14 65c62 3 71 14 81 59l78 362c2 10 4 18 4 25c0 23 -14 30 -58 32z" />
    <glyph glyph-name="S.sc" horiz-adv-x="540" 
d="M238 -10c-103 0 -187 41 -220 85l24 132h91c3 -94 43 -156 119 -156c53 0 86 26 86 73c0 42 -22 62 -97 95c-109 48 -158 108 -158 195c0 128 106 204 251 204c100 0 162 -32 200 -66l-27 -128h-78c-9 68 -25 133 -110 133c-49 0 -80 -31 -80 -69c0 -45 31 -62 99 -94
c107 -50 166 -95 166 -193c0 -145 -129 -211 -266 -211z" />
    <glyph glyph-name="T.sc" horiz-adv-x="677" 
d="M507 545l-92 -423c-2 -10 -4 -18 -4 -25c0 -23 19 -32 71 -32l-14 -65h-343l14 65c62 0 81 14 91 59l91 421h-8c-69 0 -102 -52 -161 -147h-78l58 210h590l-33 -210h-71c-13 91 -36 147 -104 147h-7z" />
    <glyph glyph-name="U.sc" horiz-adv-x="702" 
d="M537 246l51 240c2 9 3 18 3 25c0 23 -11 30 -56 32l13 65h217l-13 -65c-62 -3 -72 -14 -82 -59l-57 -266c-33 -154 -141 -228 -283 -228c-144 0 -236 86 -236 202c0 19 3 47 10 79l47 215c2 10 4 18 4 25c0 23 -14 30 -58 32l14 65h320l-14 -65c-62 -3 -71 -14 -81 -59
l-49 -219c-5 -22 -8 -46 -8 -65c0 -71 40 -109 104 -109c68 0 126 30 154 155z" />
    <glyph glyph-name="V.sc" horiz-adv-x="668" 
d="M388 221l171 249c10 15 17 32 17 47c0 16 -10 23 -51 26l14 65h205l-14 -65c-26 -5 -43 -9 -59 -32l-354 -513h-51l-136 513c-6 23 -20 27 -42 32l14 65h306l-13 -65c-60 -4 -72 -21 -72 -49c0 -11 2 -19 5 -32z" />
    <glyph glyph-name="W.sc" horiz-adv-x="912" 
d="M661 227l135 224c12 19 25 43 25 66c0 16 -9 24 -50 26l14 65h203l-14 -65c-26 -5 -45 -8 -59 -32l-317 -513h-71l-34 324l-206 -324h-66l-92 513c-4 21 -19 27 -41 32l14 65h285l-14 -65c-27 -3 -56 -15 -57 -52c0 -9 1 -20 3 -31l37 -234l120 184l-10 101
c-2 18 -13 27 -35 32l14 65h279l-14 -65c-42 -2 -68 -19 -68 -59c0 -9 0 -23 1 -40z" />
    <glyph glyph-name="X.sc" horiz-adv-x="667" 
d="M624 516l-183 -171l135 -253c7 -11 22 -22 46 -27l-14 -65h-287l14 65c30 0 41 11 41 31c0 7 -1 16 -10 34l-57 113l-115 -113c-15 -15 -26 -26 -26 -42c0 -13 6 -23 40 -23l-14 -65h-225l14 65c36 0 63 15 75 27l215 212l-116 212c-6 10 -16 25 -40 27l14 65h293
l-14 -65c-32 0 -51 -11 -51 -31c0 -8 2 -17 12 -34l40 -72l73 72c14 13 27 27 27 43c0 15 -7 22 -37 22l14 65h221l-14 -65c-32 0 -58 -16 -71 -27z" />
    <glyph glyph-name="Y.sc" horiz-adv-x="633" 
d="M502 608h207l-14 -65c-26 -5 -42 -10 -59 -32l-228 -295l-21 -96c-2 -7 -3 -14 -3 -20c0 -25 16 -33 63 -35l-14 -65h-321l14 65c58 3 74 14 84 59l21 93l-101 294c-7 22 -20 27 -42 32l14 65h299l-14 -65c-38 0 -62 -14 -62 -47c0 -14 2 -27 8 -44l52 -155l118 156
c19 25 33 41 33 60c0 18 -11 29 -48 30z" />
    <glyph glyph-name="Z.sc" horiz-adv-x="594" 
d="M226 62h82c71 0 90 17 188 148h77l-77 -210h-516l10 46l411 500h-89c-72 0 -91 -56 -143 -125h-68l41 187h502l-11 -47z" />
    <glyph glyph-name="Aacute.sc" horiz-adv-x="687" 
d="M405 138l-9 44h-221l-29 -44c-7 -11 -15 -27 -15 -43c0 -17 9 -29 53 -30l-14 -65h-201l14 65c24 5 41 9 56 32l285 438l-17 77h177l113 -515c5 -21 18 -28 45 -32l-14 -65h-301l14 65c52 3 69 13 69 36c0 12 -2 24 -5 37zM454 816h197l-195 -160h-98zM346 444l-129 -198
h167z" />
    <glyph glyph-name="Abreve.sc" horiz-adv-x="687" 
d="M405 138l-9 44h-221l-29 -44c-7 -11 -15 -27 -15 -43c0 -17 9 -29 53 -30l-14 -65h-201l14 65c24 5 41 9 56 32l285 438l-17 77h177l113 -515c5 -21 18 -28 45 -32l-14 -65h-301l14 65c52 3 69 13 69 36c0 12 -2 24 -5 37zM411 653c-81 0 -127 45 -127 112
c0 17 3 37 11 58h66c-1 -5 -1 -10 -1 -14c0 -51 37 -64 71 -64c37 0 80 16 105 78h74c-27 -106 -98 -170 -199 -170zM346 444l-129 -198h167z" />
    <glyph glyph-name="Acircumflex.sc" horiz-adv-x="687" 
d="M405 138l-9 44h-221l-29 -44c-7 -11 -15 -27 -15 -43c0 -17 9 -29 53 -30l-14 -65h-201l14 65c24 5 41 9 56 32l285 438l-17 77h177l113 -515c5 -21 18 -28 45 -32l-14 -65h-301l14 65c52 3 69 13 69 36c0 12 -2 24 -5 37zM521 816l92 -169h-89l-88 80l-134 -80h-101
l184 169h136zM346 444l-129 -198h167z" />
    <glyph glyph-name="Adieresis.sc" horiz-adv-x="687" 
d="M405 138l-9 44h-221l-29 -44c-7 -11 -15 -27 -15 -43c0 -17 9 -29 53 -30l-14 -65h-201l14 65c24 5 41 9 56 32l285 438l-17 77h177l113 -515c5 -21 18 -28 45 -32l-14 -65h-301l14 65c52 3 69 13 69 36c0 12 -2 24 -5 37zM320 653c-54 0 -87 39 -87 83c0 49 35 93 93 93
c54 0 86 -38 86 -82c0 -50 -35 -94 -92 -94zM539 653c-54 0 -86 39 -86 83c0 49 34 93 92 93c54 0 86 -38 86 -82c0 -50 -34 -94 -92 -94zM346 444l-129 -198h167z" />
    <glyph glyph-name="Agrave.sc" horiz-adv-x="687" 
d="M405 138l-9 44h-221l-29 -44c-7 -11 -15 -27 -15 -43c0 -17 9 -29 53 -30l-14 -65h-201l14 65c24 5 41 9 56 32l285 438l-17 77h177l113 -515c5 -21 18 -28 45 -32l-14 -65h-301l14 65c52 3 69 13 69 36c0 12 -2 24 -5 37zM254 816h181l35 -160h-91zM346 444l-129 -198
h167z" />
    <glyph glyph-name="Amacron.sc" horiz-adv-x="687" 
d="M405 138l-9 44h-221l-29 -44c-7 -11 -15 -27 -15 -43c0 -17 9 -29 53 -30l-14 -65h-201l14 65c24 5 41 9 56 32l285 438l-17 77h177l113 -515c5 -21 18 -28 45 -32l-14 -65h-301l14 65c52 3 69 13 69 36c0 12 -2 24 -5 37zM264 676l23 101h308l-23 -101h-308zM346 444
l-129 -198h167z" />
    <glyph glyph-name="Aogonek.sc" horiz-adv-x="687" 
d="M405 138l-9 44h-221l-29 -44c-7 -11 -15 -27 -15 -43c0 -17 9 -29 53 -30l-14 -65h-201l14 65c24 5 41 9 56 32l285 438l-17 77h177l113 -515c5 -21 18 -28 45 -32l-14 -65h-281c-54 -30 -77 -67 -77 -99c0 -22 11 -39 39 -39c20 0 42 7 72 25l16 -28
c-52 -50 -98 -75 -155 -75c-48 0 -86 26 -86 72c0 84 75 131 164 174c65 31 90 48 90 71c0 12 -2 24 -5 37zM346 444l-129 -198h167z" />
    <glyph glyph-name="Aring.sc" horiz-adv-x="687" 
d="M405 138l-9 44h-221l-29 -44c-7 -11 -15 -27 -15 -43c0 -17 9 -29 53 -30l-14 -65h-201l14 65c24 5 41 9 56 32l285 438l-17 77h177l113 -515c5 -21 18 -28 45 -32l-14 -65h-301l14 65c52 3 69 13 69 36c0 12 -2 24 -5 37zM424 647c-62 0 -104 39 -104 93
c0 63 57 109 123 109c62 0 104 -39 104 -93c0 -63 -57 -109 -123 -109zM346 444l-129 -198h167zM429 704c33 0 51 23 51 49c0 23 -15 39 -42 39c-33 0 -51 -23 -51 -48c0 -24 15 -40 42 -40z" />
    <glyph glyph-name="Aringacute.sc" horiz-adv-x="687" 
d="M405 138l-9 44h-221l-29 -44c-7 -11 -15 -27 -15 -43c0 -17 9 -29 53 -30l-14 -65h-201l14 65c24 5 41 9 56 32l285 438l-17 77h177l113 -515c5 -21 18 -28 45 -32l-14 -65h-301l14 65c52 3 69 13 69 36c0 12 -2 24 -5 37zM416 642c-67 0 -112 32 -112 81
c0 58 61 99 132 99c67 0 112 -31 112 -80c0 -58 -61 -100 -132 -100zM491 969h197l-170 -120h-99zM346 444l-129 -198h167zM421 694c36 0 55 20 55 44c0 21 -16 32 -45 32c-36 0 -55 -20 -55 -43c0 -22 16 -33 45 -33z" />
    <glyph glyph-name="Atilde.sc" horiz-adv-x="687" 
d="M405 138l-9 44h-221l-29 -44c-7 -11 -15 -27 -15 -43c0 -17 9 -29 53 -30l-14 -65h-201l14 65c24 5 41 9 56 32l285 438l-17 77h177l113 -515c5 -21 18 -28 45 -32l-14 -65h-301l14 65c52 3 69 13 69 36c0 12 -2 24 -5 37zM580 821l58 -11c-63 -125 -93 -150 -151 -150
c-49 0 -95 63 -132 63c-29 0 -47 -25 -68 -56l-59 12c64 125 93 150 151 150c56 0 94 -63 132 -63c28 0 48 24 69 55zM346 444l-129 -198h167z" />
    <glyph glyph-name="AE.sc" horiz-adv-x="938" 
d="M39 97l358 420c-6 23 -19 26 -56 26l13 65h610l-38 -172h-70c-12 70 -27 106 -98 106h-75l-42 -194h50c39 0 58 13 79 65h62l-43 -199h-62c0 51 -11 66 -50 66h-50l-32 -146c-2 -12 -4 -21 -4 -30c0 -32 22 -38 57 -38h11c60 0 99 34 166 119h79l-67 -185h-523l13 65
c62 3 72 14 82 59l18 85h-206l-53 -60c-19 -22 -27 -38 -27 -54c0 -17 9 -29 52 -30l-13 -65h-211l14 65c24 5 38 10 56 32zM494 518l-216 -244h163z" />
    <glyph glyph-name="AEacute.sc" horiz-adv-x="938" 
d="M39 97l358 420c-6 23 -19 26 -56 26l13 65h610l-38 -172h-70c-12 70 -27 106 -98 106h-75l-42 -194h50c39 0 58 13 79 65h62l-43 -199h-62c0 51 -11 66 -50 66h-50l-32 -146c-2 -12 -4 -21 -4 -30c0 -32 22 -38 57 -38h11c60 0 99 34 166 119h79l-67 -185h-523l13 65
c62 3 72 14 82 59l18 85h-206l-53 -60c-19 -22 -27 -38 -27 -54c0 -17 9 -29 52 -30l-13 -65h-211l14 65c24 5 38 10 56 32zM685 816h197l-195 -160h-98zM494 518l-216 -244h163z" />
    <glyph glyph-name="Cacute.sc" horiz-adv-x="641" 
d="M329 -10c-189 0 -280 115 -280 247c0 226 170 381 391 381c97 0 162 -30 203 -71l-31 -140h-93c-5 83 -12 145 -80 145c-123 0 -194 -188 -194 -342c0 -86 24 -148 96 -148s106 53 161 158h93l-37 -172c-61 -37 -143 -58 -229 -58zM501 816h197l-195 -160h-98z" />
    <glyph glyph-name="Ccaron.sc" horiz-adv-x="641" 
d="M329 -10c-189 0 -280 115 -280 247c0 226 170 381 391 381c97 0 162 -30 203 -71l-31 -140h-93c-5 83 -12 145 -80 145c-123 0 -194 -188 -194 -342c0 -86 24 -148 96 -148s106 53 161 158h93l-37 -172c-61 -37 -143 -58 -229 -58zM394 656l-92 169h89l88 -80l134 80h101
l-184 -169h-136z" />
    <glyph glyph-name="Ccedilla.sc" horiz-adv-x="641" 
d="M203 -233l-11 49c72 0 122 12 122 39c0 25 -29 34 -76 36l50 101c-162 15 -239 123 -239 245c0 226 170 381 391 381c97 0 162 -30 203 -71l-31 -140h-93c-5 83 -12 145 -80 145c-123 0 -194 -188 -194 -342c0 -86 24 -148 96 -148s106 53 161 158h93l-37 -172
c-59 -36 -138 -57 -222 -58l-17 -34c59 -6 86 -31 86 -78c0 -74 -102 -111 -202 -111z" />
    <glyph glyph-name="Ccircumflex.sc" horiz-adv-x="641" 
d="M329 -10c-189 0 -280 115 -280 247c0 226 170 381 391 381c97 0 162 -30 203 -71l-31 -140h-93c-5 83 -12 145 -80 145c-123 0 -194 -188 -194 -342c0 -86 24 -148 96 -148s106 53 161 158h93l-37 -172c-61 -37 -143 -58 -229 -58zM569 816l92 -169h-89l-88 80l-134 -80
h-101l184 169h136z" />
    <glyph glyph-name="Cdotaccent.sc" horiz-adv-x="641" 
d="M329 -10c-189 0 -280 115 -280 247c0 226 170 381 391 381c97 0 162 -30 203 -71l-31 -140h-93c-5 83 -12 145 -80 145c-123 0 -194 -188 -194 -342c0 -86 24 -148 96 -148s106 53 161 158h93l-37 -172c-61 -37 -143 -58 -229 -58zM475 649c-60 0 -96 41 -96 88
c0 53 38 99 104 99c59 0 96 -40 96 -87c0 -54 -39 -100 -104 -100z" />
    <glyph glyph-name="Dcaron.sc" horiz-adv-x="721" 
d="M385 540h-29l-87 -404c-3 -15 -5 -27 -5 -37c0 -24 16 -31 42 -31h15c149 0 191 213 191 312c0 108 -41 160 -127 160zM120 608h279c185 0 308 -85 308 -249c0 -213 -163 -359 -399 -359h-321l14 65c62 3 71 14 81 59l78 362c2 10 4 18 4 25c0 23 -14 30 -58 32zM355 656
l-92 169h89l88 -80l134 80h101l-184 -169h-136z" />
    <glyph glyph-name="Dcroat.sc" horiz-adv-x="721" 
d="M120 608h279c185 0 308 -85 308 -249c0 -213 -163 -359 -399 -359h-321l14 65c62 3 71 14 81 59l33 154h-67l15 71h67l30 137c2 10 4 18 4 25c0 23 -14 30 -58 32zM385 540h-29l-41 -191h105l-15 -71h-106l-30 -142c-3 -15 -5 -27 -5 -37c0 -24 16 -31 42 -31h15
c149 0 191 213 191 312c0 108 -41 160 -127 160z" />
    <glyph glyph-name="Eacute.sc" horiz-adv-x="611" 
d="M-13 0l14 65c62 3 71 14 81 59l78 362c2 10 4 18 4 25c0 23 -14 30 -58 32l14 65h517l-37 -172h-71c-12 70 -27 106 -98 106h-75l-42 -194h51c38 0 57 13 78 65h62l-43 -199h-62c0 51 -11 66 -50 66h-51l-31 -146c-2 -12 -4 -21 -4 -30c0 -32 22 -38 58 -38h11
c59 0 98 34 165 119h79l-67 -185h-523zM423 816h197l-195 -160h-98z" />
    <glyph glyph-name="Ebreve.sc" horiz-adv-x="611" 
d="M-13 0l14 65c62 3 71 14 81 59l78 362c2 10 4 18 4 25c0 23 -14 30 -58 32l14 65h517l-37 -172h-71c-12 70 -27 106 -98 106h-75l-42 -194h51c38 0 57 13 78 65h62l-43 -199h-62c0 51 -11 66 -50 66h-51l-31 -146c-2 -12 -4 -21 -4 -30c0 -32 22 -38 58 -38h11
c59 0 98 34 165 119h79l-67 -185h-523zM380 653c-81 0 -127 45 -127 112c0 17 3 37 11 58h66c-1 -5 -1 -10 -1 -14c0 -51 37 -64 71 -64c37 0 80 16 105 78h74c-27 -106 -98 -170 -199 -170z" />
    <glyph glyph-name="Ecaron.sc" horiz-adv-x="611" 
d="M-13 0l14 65c62 3 71 14 81 59l78 362c2 10 4 18 4 25c0 23 -14 30 -58 32l14 65h517l-37 -172h-71c-12 70 -27 106 -98 106h-75l-42 -194h51c38 0 57 13 78 65h62l-43 -199h-62c0 51 -11 66 -50 66h-51l-31 -146c-2 -12 -4 -21 -4 -30c0 -32 22 -38 58 -38h11
c59 0 98 34 165 119h79l-67 -185h-523zM316 656l-92 169h89l88 -80l134 80h101l-184 -169h-136z" />
    <glyph glyph-name="Ecircumflex.sc" horiz-adv-x="611" 
d="M-13 0l14 65c62 3 71 14 81 59l78 362c2 10 4 18 4 25c0 23 -14 30 -58 32l14 65h517l-37 -172h-71c-12 70 -27 106 -98 106h-75l-42 -194h51c38 0 57 13 78 65h62l-43 -199h-62c0 51 -11 66 -50 66h-51l-31 -146c-2 -12 -4 -21 -4 -30c0 -32 22 -38 58 -38h11
c59 0 98 34 165 119h79l-67 -185h-523zM490 816l92 -169h-89l-88 80l-134 -80h-101l184 169h136z" />
    <glyph glyph-name="Edieresis.sc" horiz-adv-x="611" 
d="M-13 0l14 65c62 3 71 14 81 59l78 362c2 10 4 18 4 25c0 23 -14 30 -58 32l14 65h517l-37 -172h-71c-12 70 -27 106 -98 106h-75l-42 -194h51c38 0 57 13 78 65h62l-43 -199h-62c0 51 -11 66 -50 66h-51l-31 -146c-2 -12 -4 -21 -4 -30c0 -32 22 -38 58 -38h11
c59 0 98 34 165 119h79l-67 -185h-523zM289 653c-54 0 -87 39 -87 83c0 49 35 93 93 93c54 0 86 -38 86 -82c0 -50 -35 -94 -92 -94zM508 653c-54 0 -86 39 -86 83c0 49 34 93 92 93c54 0 86 -38 86 -82c0 -50 -34 -94 -92 -94z" />
    <glyph glyph-name="Edotaccent.sc" horiz-adv-x="611" 
d="M-13 0l14 65c62 3 71 14 81 59l78 362c2 10 4 18 4 25c0 23 -14 30 -58 32l14 65h517l-37 -172h-71c-12 70 -27 106 -98 106h-75l-42 -194h51c38 0 57 13 78 65h62l-43 -199h-62c0 51 -11 66 -50 66h-51l-31 -146c-2 -12 -4 -21 -4 -30c0 -32 22 -38 58 -38h11
c59 0 98 34 165 119h79l-67 -185h-523zM397 649c-60 0 -96 41 -96 88c0 53 38 99 104 99c59 0 96 -40 96 -87c0 -54 -39 -100 -104 -100z" />
    <glyph glyph-name="Egrave.sc" horiz-adv-x="611" 
d="M-13 0l14 65c62 3 71 14 81 59l78 362c2 10 4 18 4 25c0 23 -14 30 -58 32l14 65h517l-37 -172h-71c-12 70 -27 106 -98 106h-75l-42 -194h51c38 0 57 13 78 65h62l-43 -199h-62c0 51 -11 66 -50 66h-51l-31 -146c-2 -12 -4 -21 -4 -30c0 -32 22 -38 58 -38h11
c59 0 98 34 165 119h79l-67 -185h-523zM223 816h181l35 -160h-91z" />
    <glyph glyph-name="Emacron.sc" horiz-adv-x="611" 
d="M-13 0l14 65c62 3 71 14 81 59l78 362c2 10 4 18 4 25c0 23 -14 30 -58 32l14 65h517l-37 -172h-71c-12 70 -27 106 -98 106h-75l-42 -194h51c38 0 57 13 78 65h62l-43 -199h-62c0 51 -11 66 -50 66h-51l-31 -146c-2 -12 -4 -21 -4 -30c0 -32 22 -38 58 -38h11
c59 0 98 34 165 119h79l-67 -185h-523zM233 676l23 101h308l-23 -101h-308z" />
    <glyph glyph-name="Eogonek.sc" horiz-adv-x="611" 
d="M-13 0l14 65c62 3 71 14 81 59l78 362c2 10 4 18 4 25c0 23 -14 30 -58 32l14 65h517l-37 -172h-71c-12 70 -27 106 -98 106h-75l-42 -194h51c38 0 57 13 78 65h62l-43 -199h-62c0 51 -11 66 -50 66h-51l-31 -146c-2 -12 -4 -21 -4 -30c0 -32 22 -38 58 -38h11
c59 0 98 34 165 119h79l-67 -185h-82c-52 -34 -77 -67 -77 -99c0 -22 11 -39 39 -39c20 0 42 7 72 25l16 -28c-52 -50 -98 -75 -155 -75c-48 0 -86 26 -86 72c0 65 53 109 119 144h-369z" />
    <glyph glyph-name="Eth.sc" horiz-adv-x="721" 
d="M120 608h279c185 0 308 -85 308 -249c0 -213 -163 -359 -399 -359h-321l14 65c62 3 71 14 81 59l33 154h-67l15 71h67l30 137c2 10 4 18 4 25c0 23 -14 30 -58 32zM385 540h-29l-41 -191h105l-15 -71h-106l-30 -142c-3 -15 -5 -27 -5 -37c0 -24 16 -31 42 -31h15
c149 0 191 213 191 312c0 108 -41 160 -127 160z" />
    <glyph glyph-name="Gbreve.sc" horiz-adv-x="694" 
d="M49 236c0 227 171 382 400 382c89 0 161 -30 201 -71l-31 -140h-93c-5 83 -19 145 -86 145c-125 0 -195 -188 -195 -341c0 -86 22 -149 95 -149c28 0 41 3 57 9l28 108c1 8 3 17 3 24c0 21 -16 26 -58 28l15 69h303l-14 -69c-60 -2 -69 -12 -79 -55l-28 -116
c-61 -44 -151 -70 -240 -70c-188 0 -278 116 -278 246zM451 653c-81 0 -127 45 -127 112c0 17 3 37 11 58h66c-1 -5 -1 -10 -1 -14c0 -51 37 -64 71 -64c37 0 80 16 105 78h74c-27 -106 -98 -170 -199 -170z" />
    <glyph glyph-name="Gcircumflex.sc" horiz-adv-x="694" 
d="M49 236c0 227 171 382 400 382c89 0 161 -30 201 -71l-31 -140h-93c-5 83 -19 145 -86 145c-125 0 -195 -188 -195 -341c0 -86 22 -149 95 -149c28 0 41 3 57 9l28 108c1 8 3 17 3 24c0 21 -16 26 -58 28l15 69h303l-14 -69c-60 -2 -69 -12 -79 -55l-28 -116
c-61 -44 -151 -70 -240 -70c-188 0 -278 116 -278 246zM562 816l92 -169h-89l-88 80l-134 -80h-101l184 169h136z" />
    <glyph glyph-name="Gcommaaccent.sc" horiz-adv-x="694" 
d="M49 236c0 227 171 382 400 382c89 0 161 -30 201 -71l-31 -140h-93c-5 83 -19 145 -86 145c-125 0 -195 -188 -195 -341c0 -86 22 -149 95 -149c28 0 41 3 57 9l28 108c1 8 3 17 3 24c0 21 -16 26 -58 28l15 69h303l-14 -69c-60 -2 -69 -12 -79 -55l-28 -116
c-61 -44 -151 -70 -240 -70c-188 0 -278 116 -278 246zM302 -158h-61c-26 7 -41 22 -41 50c0 42 33 76 94 76c55 0 86 -33 86 -81c0 -75 -51 -137 -190 -137v45c67 0 106 20 112 47z" />
    <glyph glyph-name="Gdotaccent.sc" horiz-adv-x="694" 
d="M49 236c0 227 171 382 400 382c89 0 161 -30 201 -71l-31 -140h-93c-5 83 -19 145 -86 145c-125 0 -195 -188 -195 -341c0 -86 22 -149 95 -149c28 0 41 3 57 9l28 108c1 8 3 17 3 24c0 21 -16 26 -58 28l15 69h303l-14 -69c-60 -2 -69 -12 -79 -55l-28 -116
c-61 -44 -151 -70 -240 -70c-188 0 -278 116 -278 246zM468 649c-60 0 -96 41 -96 88c0 53 38 99 104 99c59 0 96 -40 96 -87c0 -54 -39 -100 -104 -100z" />
    <glyph glyph-name="Hbar.sc" horiz-adv-x="782" 
d="M480 124l25 115h-213l-25 -117c-2 -10 -4 -18 -4 -25c0 -23 14 -30 58 -32l-14 -65h-320l14 65c62 3 71 14 81 59l55 256h-65l15 71h65l8 35c2 10 4 18 4 25c0 23 -14 30 -58 32l14 65h320l-14 -65c-62 -3 -71 -14 -81 -59l-7 -33h212l8 35c2 10 4 18 4 25
c0 23 -14 30 -58 32l14 65h320l-14 -65c-62 -3 -71 -14 -81 -59l-7 -33h70l-15 -71h-71l-55 -258c-2 -10 -4 -18 -4 -25c0 -23 14 -30 58 -32l-14 -65h-320l14 65c62 3 71 14 81 59zM322 380l-16 -73h213l16 73h-213z" />
    <glyph glyph-name="Hcircumflex.sc" horiz-adv-x="782" 
d="M480 124l33 156h-212l-34 -158c-2 -10 -4 -18 -4 -25c0 -23 14 -30 58 -32l-14 -65h-320l14 65c62 3 71 14 81 59l78 362c2 10 4 18 4 25c0 23 -14 30 -58 32l14 65h320l-14 -65c-62 -3 -71 -14 -81 -59l-30 -136h213l30 138c2 10 4 18 4 25c0 23 -14 30 -58 32l14 65
h320l-14 -65c-62 -3 -71 -14 -81 -59l-78 -362c-2 -10 -4 -18 -4 -25c0 -23 14 -30 58 -32l-14 -65h-320l14 65c62 3 71 14 81 59zM594 816l92 -169h-89l-88 80l-134 -80h-101l184 169h136z" />
    <glyph glyph-name="Iacute.sc" horiz-adv-x="384" 
d="M82 124l78 362c2 10 4 18 4 25c0 23 -14 30 -58 32l14 65h320l-14 -65c-62 -3 -71 -14 -81 -59l-78 -362c-2 -10 -4 -18 -4 -25c0 -23 14 -30 58 -32l-14 -65h-320l14 65c62 3 71 14 81 59zM328 816h197l-195 -160h-98z" />
    <glyph glyph-name="Ibreve.sc" horiz-adv-x="384" 
d="M82 124l78 362c2 10 4 18 4 25c0 23 -14 30 -58 32l14 65h320l-14 -65c-62 -3 -71 -14 -81 -59l-78 -362c-2 -10 -4 -18 -4 -25c0 -23 14 -30 58 -32l-14 -65h-320l14 65c62 3 71 14 81 59zM285 653c-81 0 -127 45 -127 112c0 17 3 37 11 58h66c-1 -5 -1 -10 -1 -14
c0 -51 37 -64 71 -64c37 0 80 16 105 78h74c-27 -106 -98 -170 -199 -170z" />
    <glyph glyph-name="Icircumflex.sc" horiz-adv-x="384" 
d="M82 124l78 362c2 10 4 18 4 25c0 23 -14 30 -58 32l14 65h320l-14 -65c-62 -3 -71 -14 -81 -59l-78 -362c-2 -10 -4 -18 -4 -25c0 -23 14 -30 58 -32l-14 -65h-320l14 65c62 3 71 14 81 59zM395 816l92 -169h-89l-88 80l-134 -80h-101l184 169h136z" />
    <glyph glyph-name="Idieresis.sc" horiz-adv-x="384" 
d="M82 124l78 362c2 10 4 18 4 25c0 23 -14 30 -58 32l14 65h320l-14 -65c-62 -3 -71 -14 -81 -59l-78 -362c-2 -10 -4 -18 -4 -25c0 -23 14 -30 58 -32l-14 -65h-320l14 65c62 3 71 14 81 59zM194 653c-54 0 -87 39 -87 83c0 49 35 93 93 93c54 0 86 -38 86 -82
c0 -50 -35 -94 -92 -94zM413 653c-54 0 -86 39 -86 83c0 49 34 93 92 93c54 0 86 -38 86 -82c0 -50 -34 -94 -92 -94z" />
    <glyph glyph-name="Idotaccent.sc" horiz-adv-x="384" 
d="M82 124l78 362c2 10 4 18 4 25c0 23 -14 30 -58 32l14 65h320l-14 -65c-62 -3 -71 -14 -81 -59l-78 -362c-2 -10 -4 -18 -4 -25c0 -23 14 -30 58 -32l-14 -65h-320l14 65c62 3 71 14 81 59zM302 649c-60 0 -96 41 -96 88c0 53 38 99 104 99c59 0 96 -40 96 -87
c0 -54 -39 -100 -104 -100z" />
    <glyph glyph-name="Igrave.sc" horiz-adv-x="384" 
d="M82 124l78 362c2 10 4 18 4 25c0 23 -14 30 -58 32l14 65h320l-14 -65c-62 -3 -71 -14 -81 -59l-78 -362c-2 -10 -4 -18 -4 -25c0 -23 14 -30 58 -32l-14 -65h-320l14 65c62 3 71 14 81 59zM128 816h181l35 -160h-91z" />
    <glyph glyph-name="Imacron.sc" horiz-adv-x="384" 
d="M82 124l78 362c2 10 4 18 4 25c0 23 -14 30 -58 32l14 65h320l-14 -65c-62 -3 -71 -14 -81 -59l-78 -362c-2 -10 -4 -18 -4 -25c0 -23 14 -30 58 -32l-14 -65h-320l14 65c62 3 71 14 81 59zM138 676l23 101h308l-23 -101h-308z" />
    <glyph glyph-name="Iogonek.sc" horiz-adv-x="384" 
d="M82 124l78 362c2 10 4 18 4 25c0 23 -14 30 -58 32l14 65h320l-14 -65c-62 -3 -71 -14 -81 -59l-78 -362c-2 -10 -4 -18 -4 -25c0 -23 14 -30 58 -32l-14 -65h-106c-52 -34 -77 -67 -77 -99c0 -22 11 -39 39 -39c20 0 42 7 72 25l16 -28c-52 -50 -98 -75 -155 -75
c-48 0 -86 26 -86 72c0 65 53 109 119 144h-142l14 65c62 3 71 14 81 59z" />
    <glyph glyph-name="Itilde.sc" horiz-adv-x="384" 
d="M82 124l78 362c2 10 4 18 4 25c0 23 -14 30 -58 32l14 65h320l-14 -65c-62 -3 -71 -14 -81 -59l-78 -362c-2 -10 -4 -18 -4 -25c0 -23 14 -30 58 -32l-14 -65h-320l14 65c62 3 71 14 81 59zM454 821l58 -11c-63 -125 -93 -150 -151 -150c-49 0 -95 63 -132 63
c-29 0 -47 -25 -68 -56l-59 12c64 125 93 150 151 150c56 0 94 -63 132 -63c28 0 48 24 69 55z" />
    <glyph glyph-name="IJ.sc" horiz-adv-x="926" 
d="M82 124l78 362c2 10 4 18 4 25c0 23 -14 30 -58 32l14 65h320l-14 -65c-62 -3 -71 -14 -81 -59l-78 -362c-2 -10 -4 -18 -4 -25c0 -23 14 -30 58 -32l-14 -65h-320l14 65c62 3 71 14 81 59zM641 171l68 315c2 10 4 18 4 25c0 23 -14 30 -58 32l14 65h320l-14 -65
c-62 -3 -71 -14 -81 -59l-62 -281c-33 -147 -123 -212 -274 -212c-135 0 -204 56 -204 132c0 47 30 83 64 99h128c-16 -42 -23 -65 -23 -103c0 -24 9 -62 45 -62c40 0 59 49 73 114z" />
    <glyph glyph-name="Jcircumflex.sc" horiz-adv-x="576" 
d="M291 171l68 315c2 10 4 18 4 25c0 23 -14 30 -58 32l14 65h320l-14 -65c-62 -3 -71 -14 -81 -59l-62 -281c-33 -147 -123 -212 -274 -212c-135 0 -204 56 -204 132c0 47 30 83 64 99h128c-16 -42 -23 -65 -23 -103c0 -24 9 -62 45 -62c40 0 59 49 73 114zM598 816
l92 -169h-89l-88 80l-134 -80h-101l184 169h136z" />
    <glyph glyph-name="Kcommaaccent.sc" horiz-adv-x="719" 
d="M491 362l100 -236c20 -48 37 -60 77 -61l-14 -65h-197c-24 16 -45 59 -62 104l-76 205l201 165c19 16 37 28 37 48c0 14 -10 20 -47 21l14 65h241l-14 -65c-41 -1 -53 -5 -92 -38zM82 124l78 362c2 10 4 18 4 25c0 23 -14 30 -58 32l14 65h320l-14 -65
c-62 -3 -71 -14 -81 -59l-78 -362c-2 -10 -4 -18 -4 -25c0 -23 14 -30 58 -32l-14 -65h-320l14 65c62 3 71 14 81 59zM321 -158h-61c-26 7 -41 22 -41 50c0 42 33 76 94 76c55 0 86 -33 86 -81c0 -75 -51 -137 -190 -137v45c67 0 106 20 112 47z" />
    <glyph glyph-name="Lacute.sc" horiz-adv-x="609" 
d="M-13 0l14 65c62 3 71 14 81 59l78 362c2 10 4 18 4 25c0 23 -14 30 -58 32l14 65h320l-14 -65c-62 -3 -71 -14 -81 -59l-73 -340c-4 -17 -6 -31 -6 -42c0 -26 17 -34 50 -34h20c52 0 73 20 173 149h83l-81 -217h-524zM332 816h197l-195 -160h-98z" />
    <glyph glyph-name="Lcaron.sc" horiz-adv-x="609" 
d="M-13 0l14 65c62 3 71 14 81 59l78 362c2 10 4 18 4 25c0 23 -14 30 -58 32l14 65h320l-14 -65c-62 -3 -71 -14 -81 -59l-73 -340c-4 -17 -6 -31 -6 -42c0 -26 17 -34 50 -34h20c52 0 73 20 173 149h83l-81 -217h-524zM655 608l-133 -205h-76l51 205h158z" />
    <glyph glyph-name="Lcommaaccent.sc" horiz-adv-x="609" 
d="M-13 0l14 65c62 3 71 14 81 59l78 362c2 10 4 18 4 25c0 23 -14 30 -58 32l14 65h320l-14 -65c-62 -3 -71 -14 -81 -59l-73 -340c-4 -17 -6 -31 -6 -42c0 -26 17 -34 50 -34h20c52 0 73 20 173 149h83l-81 -217h-524zM259 -158h-61c-26 7 -41 22 -41 50c0 42 33 76 94 76
c55 0 86 -33 86 -81c0 -75 -51 -137 -190 -137v45c67 0 106 20 112 47z" />
    <glyph glyph-name="Ldot.sc" horiz-adv-x="609" 
d="M-13 0l14 65c62 3 71 14 81 59l78 362c2 10 4 18 4 25c0 23 -14 30 -58 32l14 65h320l-14 -65c-62 -3 -71 -14 -81 -59l-73 -340c-4 -17 -6 -31 -6 -42c0 -26 17 -34 50 -34h20c52 0 73 20 173 149h83l-81 -217h-524zM504 275c-60 0 -96 41 -96 88c0 53 38 99 104 99
c59 0 96 -40 96 -87c0 -54 -39 -100 -104 -100z" />
    <glyph glyph-name="Lslash.sc" horiz-adv-x="609" 
d="M-13 0l14 65c62 3 71 14 81 59l22 104l-72 -25l16 70l71 25l41 188c2 10 4 18 4 25c0 23 -14 30 -58 32l14 65h320l-14 -65c-62 -3 -71 -14 -81 -59l-27 -126l116 42l-16 -70l-115 -41l-31 -145c-4 -17 -6 -31 -6 -42c0 -26 17 -34 50 -34h20c52 0 73 20 173 149h83
l-81 -217h-524z" />
    <glyph glyph-name="Nacute.sc" horiz-adv-x="706" 
d="M538 261l47 225c2 9 3 18 3 25c0 23 -11 30 -56 32l13 65h217l-13 -65c-62 -3 -72 -14 -82 -59l-104 -484h-76l-257 431l-66 -309c-2 -9 -3 -18 -3 -25c0 -23 11 -30 56 -32l-13 -65h-217l13 65c62 3 72 14 82 59l82 377c-18 34 -31 38 -58 42l13 65h224zM489 816h197
l-195 -160h-98z" />
    <glyph glyph-name="Ncaron.sc" horiz-adv-x="706" 
d="M538 261l47 225c2 9 3 18 3 25c0 23 -11 30 -56 32l13 65h217l-13 -65c-62 -3 -72 -14 -82 -59l-104 -484h-76l-257 431l-66 -309c-2 -9 -3 -18 -3 -25c0 -23 11 -30 56 -32l-13 -65h-217l13 65c62 3 72 14 82 59l82 377c-18 34 -31 38 -58 42l13 65h224zM382 656
l-92 169h89l88 -80l134 80h101l-184 -169h-136z" />
    <glyph glyph-name="Ncommaaccent.sc" horiz-adv-x="706" 
d="M538 261l47 225c2 9 3 18 3 25c0 23 -11 30 -56 32l13 65h217l-13 -65c-62 -3 -72 -14 -82 -59l-104 -484h-76l-257 431l-66 -309c-2 -9 -3 -18 -3 -25c0 -23 11 -30 56 -32l-13 -65h-217l13 65c62 3 72 14 82 59l82 377c-18 34 -31 38 -58 42l13 65h224zM296 -158h-61
c-26 7 -41 22 -41 50c0 42 33 76 94 76c55 0 86 -33 86 -81c0 -75 -51 -137 -190 -137v45c67 0 106 20 112 47z" />
    <glyph glyph-name="Ntilde.sc" horiz-adv-x="706" 
d="M538 261l47 225c2 9 3 18 3 25c0 23 -11 30 -56 32l13 65h217l-13 -65c-62 -3 -72 -14 -82 -59l-104 -484h-76l-257 431l-66 -309c-2 -9 -3 -18 -3 -25c0 -23 11 -30 56 -32l-13 -65h-217l13 65c62 3 72 14 82 59l82 377c-18 34 -31 38 -58 42l13 65h224zM615 821l58 -11
c-63 -125 -93 -150 -151 -150c-49 0 -95 63 -132 63c-29 0 -47 -25 -68 -56l-59 12c64 125 93 150 151 150c56 0 94 -63 132 -63c28 0 48 24 69 55z" />
    <glyph glyph-name="Eng.sc" horiz-adv-x="706" 
d="M667 484l-84 -393c-38 -181 -125 -270 -251 -270c-72 0 -119 29 -119 75c0 44 33 69 74 73h28c-1 -59 5 -108 32 -108c26 0 46 20 76 150l15 68l-208 354l-66 -311c-1 -6 -3 -18 -3 -25c0 -23 11 -30 56 -32l-13 -65h-217l13 65c62 3 72 14 82 59l82 377
c-18 34 -31 38 -58 42l13 65h223l196 -347l46 225c2 6 4 18 4 25c0 23 -13 30 -57 32l13 65h218l-13 -65c-61 -3 -73 -14 -82 -59z" />
    <glyph glyph-name="Oacute.sc" horiz-adv-x="694" 
d="M247 188c0 -75 9 -131 66 -131c107 0 169 223 169 363c0 75 -9 131 -66 131c-107 0 -169 -223 -169 -363zM680 360c0 -184 -142 -370 -366 -370c-159 0 -265 101 -265 258c0 184 142 370 366 370c159 0 265 -101 265 -258zM481 816h197l-195 -160h-98z" />
    <glyph glyph-name="Obreve.sc" horiz-adv-x="694" 
d="M247 188c0 -75 9 -131 66 -131c107 0 169 223 169 363c0 75 -9 131 -66 131c-107 0 -169 -223 -169 -363zM680 360c0 -184 -142 -370 -366 -370c-159 0 -265 101 -265 258c0 184 142 370 366 370c159 0 265 -101 265 -258zM438 653c-81 0 -127 45 -127 112
c0 17 3 37 11 58h66c-1 -5 -1 -10 -1 -14c0 -51 37 -64 71 -64c37 0 80 16 105 78h74c-27 -106 -98 -170 -199 -170z" />
    <glyph glyph-name="Ocircumflex.sc" horiz-adv-x="694" 
d="M247 188c0 -75 9 -131 66 -131c107 0 169 223 169 363c0 75 -9 131 -66 131c-107 0 -169 -223 -169 -363zM680 360c0 -184 -142 -370 -366 -370c-159 0 -265 101 -265 258c0 184 142 370 366 370c159 0 265 -101 265 -258zM548 816l92 -169h-89l-88 80l-134 -80h-101
l184 169h136z" />
    <glyph glyph-name="Odieresis.sc" horiz-adv-x="694" 
d="M247 188c0 -75 9 -131 66 -131c107 0 169 223 169 363c0 75 -9 131 -66 131c-107 0 -169 -223 -169 -363zM680 360c0 -184 -142 -370 -366 -370c-159 0 -265 101 -265 258c0 184 142 370 366 370c159 0 265 -101 265 -258zM347 653c-54 0 -87 39 -87 83c0 49 35 93 93 93
c54 0 86 -38 86 -82c0 -50 -35 -94 -92 -94zM566 653c-54 0 -86 39 -86 83c0 49 34 93 92 93c54 0 86 -38 86 -82c0 -50 -34 -94 -92 -94z" />
    <glyph glyph-name="Ograve.sc" horiz-adv-x="694" 
d="M247 188c0 -75 9 -131 66 -131c107 0 169 223 169 363c0 75 -9 131 -66 131c-107 0 -169 -223 -169 -363zM680 360c0 -184 -142 -370 -366 -370c-159 0 -265 101 -265 258c0 184 142 370 366 370c159 0 265 -101 265 -258zM281 816h181l35 -160h-91z" />
    <glyph glyph-name="Ohungarumlaut.sc" horiz-adv-x="694" 
d="M247 188c0 -75 9 -131 66 -131c107 0 169 223 169 363c0 75 -9 131 -66 131c-107 0 -169 -223 -169 -363zM680 360c0 -184 -142 -370 -366 -370c-159 0 -265 101 -265 258c0 184 142 370 366 370c159 0 265 -101 265 -258zM373 816h171l-179 -160h-88zM583 816h177
l-185 -160h-88z" />
    <glyph glyph-name="Omacron.sc" horiz-adv-x="694" 
d="M247 188c0 -75 9 -131 66 -131c107 0 169 223 169 363c0 75 -9 131 -66 131c-107 0 -169 -223 -169 -363zM680 360c0 -184 -142 -370 -366 -370c-159 0 -265 101 -265 258c0 184 142 370 366 370c159 0 265 -101 265 -258zM291 676l23 101h308l-23 -101h-308z" />
    <glyph glyph-name="Oslash.sc" horiz-adv-x="694" 
d="M415 618c43 0 83 -8 118 -22l53 78l54 -30l-54 -79c59 -45 94 -116 94 -205c0 -184 -142 -370 -366 -370c-40 0 -76 6 -108 18l-63 -93l-54 30l62 91c-65 44 -102 118 -102 212c0 184 142 370 366 370zM416 551c-107 0 -174 -223 -174 -363v-19l232 341
c-10 26 -28 41 -58 41zM313 57c107 0 174 222 174 362l-227 -332c11 -19 27 -30 53 -30z" />
    <glyph glyph-name="Oslashacute.sc" horiz-adv-x="694" 
d="M415 618c43 0 83 -8 118 -22l53 78l54 -30l-54 -79c59 -45 94 -116 94 -205c0 -184 -142 -370 -366 -370c-40 0 -76 6 -108 18l-63 -93l-54 30l62 91c-65 44 -102 118 -102 212c0 184 142 370 366 370zM416 551c-107 0 -174 -223 -174 -363v-19l232 341
c-10 26 -28 41 -58 41zM313 57c107 0 174 222 174 362l-227 -332c11 -19 27 -30 53 -30zM481 816h197l-195 -160h-98z" />
    <glyph glyph-name="Otilde.sc" horiz-adv-x="694" 
d="M247 188c0 -75 9 -131 66 -131c107 0 169 223 169 363c0 75 -9 131 -66 131c-107 0 -169 -223 -169 -363zM680 360c0 -184 -142 -370 -366 -370c-159 0 -265 101 -265 258c0 184 142 370 366 370c159 0 265 -101 265 -258zM607 821l58 -11c-63 -125 -93 -150 -151 -150
c-49 0 -95 63 -132 63c-29 0 -47 -25 -68 -56l-59 12c64 125 93 150 151 150c56 0 94 -63 132 -63c28 0 48 24 69 55z" />
    <glyph glyph-name="OE.sc" horiz-adv-x="948" 
d="M460 608h514l-37 -172h-71c-11 70 -27 106 -97 106h-75l-42 -194h50c39 0 58 13 78 65h62l-42 -199h-62c0 51 -11 66 -50 66h-50l-32 -146c-3 -12 -5 -21 -5 -30c0 -32 22 -38 58 -38h11c60 0 99 34 165 119h79l-66 -185h-491c-185 0 -308 85 -308 249
c0 213 163 359 411 359zM509 542h-53c-170 0 -213 -216 -213 -314c0 -108 42 -160 127 -160h37z" />
    <glyph glyph-name="Racute.sc" horiz-adv-x="702" 
d="M383 540h-29l-51 -231h24c96 0 161 33 161 136c0 63 -36 95 -105 95zM120 608h326c150 0 226 -52 226 -161c0 -90 -82 -153 -165 -170l63 -153c20 -49 34 -59 80 -59l-14 -65h-207c-21 20 -38 56 -49 93l-45 152h-46l-27 -123c-2 -10 -4 -18 -4 -25c0 -23 14 -30 58 -32
l-14 -65h-315l14 65c62 3 71 14 81 59l78 362c2 10 4 18 4 25c0 23 -14 30 -58 32zM444 816h197l-195 -160h-98z" />
    <glyph glyph-name="Rcaron.sc" horiz-adv-x="702" 
d="M383 540h-29l-51 -231h24c96 0 161 33 161 136c0 63 -36 95 -105 95zM120 608h326c150 0 226 -52 226 -161c0 -90 -82 -153 -165 -170l63 -153c20 -49 34 -59 80 -59l-14 -65h-207c-21 20 -38 56 -49 93l-45 152h-46l-27 -123c-2 -10 -4 -18 -4 -25c0 -23 14 -30 58 -32
l-14 -65h-315l14 65c62 3 71 14 81 59l78 362c2 10 4 18 4 25c0 23 -14 30 -58 32zM337 656l-92 169h89l88 -80l134 80h101l-184 -169h-136z" />
    <glyph glyph-name="Rcommaaccent.sc" horiz-adv-x="702" 
d="M383 540h-29l-51 -231h24c96 0 161 33 161 136c0 63 -36 95 -105 95zM120 608h326c150 0 226 -52 226 -161c0 -90 -82 -153 -165 -170l63 -153c20 -49 34 -59 80 -59l-14 -65h-207c-21 20 -38 56 -49 93l-45 152h-46l-27 -123c-2 -10 -4 -18 -4 -25c0 -23 14 -30 58 -32
l-14 -65h-315l14 65c62 3 71 14 81 59l78 362c2 10 4 18 4 25c0 23 -14 30 -58 32zM303 -158h-61c-26 7 -41 22 -41 50c0 42 33 76 94 76c55 0 86 -33 86 -81c0 -75 -51 -137 -190 -137v45c67 0 106 20 112 47z" />
    <glyph glyph-name="Sacute.sc" horiz-adv-x="540" 
d="M238 -10c-103 0 -187 41 -220 85l24 132h91c3 -94 43 -156 119 -156c53 0 86 26 86 73c0 42 -22 62 -97 95c-109 48 -158 108 -158 195c0 128 106 204 251 204c100 0 162 -32 200 -66l-27 -128h-78c-9 68 -25 133 -110 133c-49 0 -80 -31 -80 -69c0 -45 31 -62 99 -94
c107 -50 166 -95 166 -193c0 -145 -129 -211 -266 -211zM405 816h197l-195 -160h-98z" />
    <glyph glyph-name="Scaron.sc" horiz-adv-x="540" 
d="M238 -10c-103 0 -187 41 -220 85l24 132h91c3 -94 43 -156 119 -156c53 0 86 26 86 73c0 42 -22 62 -97 95c-109 48 -158 108 -158 195c0 128 106 204 251 204c100 0 162 -32 200 -66l-27 -128h-78c-9 68 -25 133 -110 133c-49 0 -80 -31 -80 -69c0 -45 31 -62 99 -94
c107 -50 166 -95 166 -193c0 -145 -129 -211 -266 -211zM298 656l-92 169h89l88 -80l134 80h101l-184 -169h-136z" />
    <glyph glyph-name="Scedilla.sc" horiz-adv-x="540" 
d="M106 -233l-11 49c72 0 122 12 122 39c0 25 -29 34 -76 36l50 102c-81 9 -145 45 -173 82l24 132h91c3 -94 43 -156 119 -156c53 0 86 26 86 73c0 42 -22 62 -97 95c-109 48 -158 108 -158 195c0 128 106 204 251 204c100 0 162 -32 200 -66l-27 -128h-78
c-9 68 -25 133 -110 133c-49 0 -80 -31 -80 -69c0 -45 31 -62 99 -94c107 -50 166 -95 166 -193c0 -145 -128 -210 -265 -211l-17 -34c59 -6 86 -31 86 -78c0 -74 -102 -111 -202 -111z" />
    <glyph glyph-name="Scircumflex.sc" horiz-adv-x="540" 
d="M238 -10c-103 0 -187 41 -220 85l24 132h91c3 -94 43 -156 119 -156c53 0 86 26 86 73c0 42 -22 62 -97 95c-109 48 -158 108 -158 195c0 128 106 204 251 204c100 0 162 -32 200 -66l-27 -128h-78c-9 68 -25 133 -110 133c-49 0 -80 -31 -80 -69c0 -45 31 -62 99 -94
c107 -50 166 -95 166 -193c0 -145 -129 -211 -266 -211zM472 816l92 -169h-89l-88 80l-134 -80h-101l184 169h136z" />
    <glyph glyph-name="Scommaaccent.sc" horiz-adv-x="540" 
d="M238 -10c-103 0 -187 41 -220 85l24 132h91c3 -94 43 -156 119 -156c53 0 86 26 86 73c0 42 -22 62 -97 95c-109 48 -158 108 -158 195c0 128 106 204 251 204c100 0 162 -32 200 -66l-27 -128h-78c-9 68 -25 133 -110 133c-49 0 -80 -31 -80 -69c0 -45 31 -62 99 -94
c107 -50 166 -95 166 -193c0 -145 -129 -211 -266 -211zM212 -158h-61c-26 7 -41 22 -41 50c0 42 33 76 94 76c55 0 86 -33 86 -81c0 -75 -51 -137 -190 -137v45c67 0 106 20 112 47z" />
    <glyph glyph-name="Tbar.sc" horiz-adv-x="677" 
d="M507 545l-45 -206h91l-15 -71h-91l-32 -146c-2 -10 -4 -18 -4 -25c0 -23 19 -32 71 -32l-14 -65h-343l14 65c62 0 81 14 91 59l31 144h-90l15 71h90l45 206h-8c-69 0 -102 -52 -161 -147h-78l58 210h590l-33 -210h-71c-13 91 -36 147 -104 147h-7z" />
    <glyph glyph-name="Tcaron.sc" horiz-adv-x="677" 
d="M507 545l-92 -423c-2 -10 -4 -18 -4 -25c0 -23 19 -32 71 -32l-14 -65h-343l14 65c62 0 81 14 91 59l91 421h-8c-69 0 -102 -52 -161 -147h-78l58 210h590l-33 -210h-71c-13 91 -36 147 -104 147h-7zM368 656l-92 169h89l88 -80l134 80h101l-184 -169h-136z" />
    <glyph glyph-name="Thorn.sc" horiz-adv-x="635" 
d="M344 484l-1 -3h59c156 0 223 -61 223 -153c0 -148 -117 -198 -289 -198h-68c-1 -8 -3 -16 -3 -28c0 -34 23 -40 91 -41l-11 -61h-358l13 65c62 3 72 14 82 59l78 362c2 6 3 18 3 25c0 23 -12 30 -56 32l12 65h319l-12 -65c-62 -3 -74 -14 -82 -59zM330 414l-49 -223h19
c72 0 139 26 139 126c0 65 -28 97 -99 97h-10z" />
    <glyph glyph-name="Uacute.sc" horiz-adv-x="702" 
d="M537 246l51 240c2 9 3 18 3 25c0 23 -11 30 -56 32l13 65h217l-13 -65c-62 -3 -72 -14 -82 -59l-57 -266c-33 -154 -141 -228 -283 -228c-144 0 -236 86 -236 202c0 19 3 47 10 79l47 215c2 10 4 18 4 25c0 23 -14 30 -58 32l14 65h320l-14 -65c-62 -3 -71 -14 -81 -59
l-49 -219c-5 -22 -8 -46 -8 -65c0 -71 40 -109 104 -109c68 0 126 30 154 155zM525 816h197l-195 -160h-98z" />
    <glyph glyph-name="Ubreve.sc" horiz-adv-x="702" 
d="M537 246l51 240c2 9 3 18 3 25c0 23 -11 30 -56 32l13 65h217l-13 -65c-62 -3 -72 -14 -82 -59l-57 -266c-33 -154 -141 -228 -283 -228c-144 0 -236 86 -236 202c0 19 3 47 10 79l47 215c2 10 4 18 4 25c0 23 -14 30 -58 32l14 65h320l-14 -65c-62 -3 -71 -14 -81 -59
l-49 -219c-5 -22 -8 -46 -8 -65c0 -71 40 -109 104 -109c68 0 126 30 154 155zM481 653c-81 0 -127 45 -127 112c0 17 3 37 11 58h66c-1 -5 -1 -10 -1 -14c0 -51 37 -64 71 -64c37 0 80 16 105 78h74c-27 -106 -98 -170 -199 -170z" />
    <glyph glyph-name="Ucircumflex.sc" horiz-adv-x="702" 
d="M537 246l51 240c2 9 3 18 3 25c0 23 -11 30 -56 32l13 65h217l-13 -65c-62 -3 -72 -14 -82 -59l-57 -266c-33 -154 -141 -228 -283 -228c-144 0 -236 86 -236 202c0 19 3 47 10 79l47 215c2 10 4 18 4 25c0 23 -14 30 -58 32l14 65h320l-14 -65c-62 -3 -71 -14 -81 -59
l-49 -219c-5 -22 -8 -46 -8 -65c0 -71 40 -109 104 -109c68 0 126 30 154 155zM592 816l92 -169h-89l-88 80l-134 -80h-101l184 169h136z" />
    <glyph glyph-name="Udieresis.sc" horiz-adv-x="702" 
d="M537 246l51 240c2 9 3 18 3 25c0 23 -11 30 -56 32l13 65h217l-13 -65c-62 -3 -72 -14 -82 -59l-57 -266c-33 -154 -141 -228 -283 -228c-144 0 -236 86 -236 202c0 19 3 47 10 79l47 215c2 10 4 18 4 25c0 23 -14 30 -58 32l14 65h320l-14 -65c-62 -3 -71 -14 -81 -59
l-49 -219c-5 -22 -8 -46 -8 -65c0 -71 40 -109 104 -109c68 0 126 30 154 155zM391 653c-54 0 -87 39 -87 83c0 49 35 93 93 93c54 0 86 -38 86 -82c0 -50 -35 -94 -92 -94zM610 653c-54 0 -86 39 -86 83c0 49 34 93 92 93c54 0 86 -38 86 -82c0 -50 -34 -94 -92 -94z" />
    <glyph glyph-name="Ugrave.sc" horiz-adv-x="702" 
d="M537 246l51 240c2 9 3 18 3 25c0 23 -11 30 -56 32l13 65h217l-13 -65c-62 -3 -72 -14 -82 -59l-57 -266c-33 -154 -141 -228 -283 -228c-144 0 -236 86 -236 202c0 19 3 47 10 79l47 215c2 10 4 18 4 25c0 23 -14 30 -58 32l14 65h320l-14 -65c-62 -3 -71 -14 -81 -59
l-49 -219c-5 -22 -8 -46 -8 -65c0 -71 40 -109 104 -109c68 0 126 30 154 155zM325 816h181l35 -160h-91z" />
    <glyph glyph-name="Uhungarumlaut.sc" horiz-adv-x="702" 
d="M537 246l51 240c2 9 3 18 3 25c0 23 -11 30 -56 32l13 65h217l-13 -65c-62 -3 -72 -14 -82 -59l-57 -266c-33 -154 -141 -228 -283 -228c-144 0 -236 86 -236 202c0 19 3 47 10 79l47 215c2 10 4 18 4 25c0 23 -14 30 -58 32l14 65h320l-14 -65c-62 -3 -71 -14 -81 -59
l-49 -219c-5 -22 -8 -46 -8 -65c0 -71 40 -109 104 -109c68 0 126 30 154 155zM417 816h171l-179 -160h-88zM627 816h177l-185 -160h-88z" />
    <glyph glyph-name="Umacron.sc" horiz-adv-x="702" 
d="M537 246l51 240c2 9 3 18 3 25c0 23 -11 30 -56 32l13 65h217l-13 -65c-62 -3 -72 -14 -82 -59l-57 -266c-33 -154 -141 -228 -283 -228c-144 0 -236 86 -236 202c0 19 3 47 10 79l47 215c2 10 4 18 4 25c0 23 -14 30 -58 32l14 65h320l-14 -65c-62 -3 -71 -14 -81 -59
l-49 -219c-5 -22 -8 -46 -8 -65c0 -71 40 -109 104 -109c68 0 126 30 154 155zM334 676l23 101h308l-23 -101h-308z" />
    <glyph glyph-name="Uogonek.sc" horiz-adv-x="702" 
d="M537 246l51 240c2 9 3 18 3 25c0 23 -11 30 -56 32l13 65h217l-13 -65c-62 -3 -72 -14 -82 -59l-57 -266c-24 -111 -87 -181 -173 -211c-60 -36 -89 -72 -89 -106c0 -22 11 -39 39 -39c20 0 42 7 72 25l16 -28c-52 -50 -98 -75 -155 -75c-48 0 -86 26 -86 72
c0 59 43 101 100 134h-7c-144 0 -236 86 -236 202c0 19 3 47 10 79l47 215c2 10 4 18 4 25c0 23 -14 30 -58 32l14 65h320l-14 -65c-62 -3 -71 -14 -81 -59l-49 -219c-5 -22 -8 -46 -8 -65c0 -71 40 -109 104 -109c68 0 126 30 154 155z" />
    <glyph glyph-name="Uring.sc" horiz-adv-x="702" 
d="M537 246l51 240c2 9 3 18 3 25c0 23 -11 30 -56 32l13 65h217l-13 -65c-62 -3 -72 -14 -82 -59l-57 -266c-33 -154 -141 -228 -283 -228c-144 0 -236 86 -236 202c0 19 3 47 10 79l47 215c2 10 4 18 4 25c0 23 -14 30 -58 32l14 65h320l-14 -65c-62 -3 -71 -14 -81 -59
l-49 -219c-5 -22 -8 -46 -8 -65c0 -71 40 -109 104 -109c68 0 126 30 154 155zM500 704c33 0 51 23 51 49c0 23 -15 39 -42 39c-33 0 -51 -23 -51 -48c0 -24 15 -40 42 -40zM495 647c-62 0 -104 39 -104 93c0 63 57 109 123 109c62 0 104 -39 104 -93
c0 -63 -57 -109 -123 -109z" />
    <glyph glyph-name="Utilde.sc" horiz-adv-x="702" 
d="M537 246l51 240c2 9 3 18 3 25c0 23 -11 30 -56 32l13 65h217l-13 -65c-62 -3 -72 -14 -82 -59l-57 -266c-33 -154 -141 -228 -283 -228c-144 0 -236 86 -236 202c0 19 3 47 10 79l47 215c2 10 4 18 4 25c0 23 -14 30 -58 32l14 65h320l-14 -65c-62 -3 -71 -14 -81 -59
l-49 -219c-5 -22 -8 -46 -8 -65c0 -71 40 -109 104 -109c68 0 126 30 154 155zM650 821l58 -11c-63 -125 -93 -150 -151 -150c-49 0 -95 63 -132 63c-29 0 -47 -25 -68 -56l-59 12c64 125 93 150 151 150c56 0 94 -63 132 -63c28 0 48 24 69 55z" />
    <glyph glyph-name="Wacute.sc" horiz-adv-x="912" 
d="M661 227l135 224c12 19 25 43 25 66c0 16 -9 24 -50 26l14 65h203l-14 -65c-26 -5 -45 -8 -59 -32l-317 -513h-71l-34 324l-206 -324h-66l-92 513c-4 21 -19 27 -41 32l14 65h285l-14 -65c-27 -3 -56 -15 -57 -52c0 -9 1 -20 3 -31l37 -234l120 184l-10 101
c-2 18 -13 27 -35 32l14 65h279l-14 -65c-42 -2 -68 -19 -68 -59c0 -9 0 -23 1 -40zM616 816h197l-195 -160h-98z" />
    <glyph glyph-name="Wcircumflex.sc" horiz-adv-x="912" 
d="M661 227l135 224c12 19 25 43 25 66c0 16 -9 24 -50 26l14 65h203l-14 -65c-26 -5 -45 -8 -59 -32l-317 -513h-71l-34 324l-206 -324h-66l-92 513c-4 21 -19 27 -41 32l14 65h285l-14 -65c-27 -3 -56 -15 -57 -52c0 -9 1 -20 3 -31l37 -234l120 184l-10 101
c-2 18 -13 27 -35 32l14 65h279l-14 -65c-42 -2 -68 -19 -68 -59c0 -9 0 -23 1 -40zM683 816l92 -169h-89l-88 80l-134 -80h-101l184 169h136z" />
    <glyph glyph-name="Wgrave.sc" horiz-adv-x="912" 
d="M661 227l135 224c12 19 25 43 25 66c0 16 -9 24 -50 26l14 65h203l-14 -65c-26 -5 -45 -8 -59 -32l-317 -513h-71l-34 324l-206 -324h-66l-92 513c-4 21 -19 27 -41 32l14 65h285l-14 -65c-27 -3 -56 -15 -57 -52c0 -9 1 -20 3 -31l37 -234l120 184l-10 101
c-2 18 -13 27 -35 32l14 65h279l-14 -65c-42 -2 -68 -19 -68 -59c0 -9 0 -23 1 -40zM416 816h181l35 -160h-91z" />
    <glyph glyph-name="Wdieresis.sc" horiz-adv-x="912" 
d="M661 227l135 224c12 19 25 43 25 66c0 16 -9 24 -50 26l14 65h203l-14 -65c-26 -5 -45 -8 -59 -32l-317 -513h-71l-34 324l-206 -324h-66l-92 513c-4 21 -19 27 -41 32l14 65h285l-14 -65c-27 -3 -56 -15 -57 -52c0 -9 1 -20 3 -31l37 -234l120 184l-10 101
c-2 18 -13 27 -35 32l14 65h279l-14 -65c-42 -2 -68 -19 -68 -59c0 -9 0 -23 1 -40zM481 653c-54 0 -87 39 -87 83c0 49 35 93 93 93c54 0 86 -38 86 -82c0 -50 -35 -94 -92 -94zM700 653c-54 0 -86 39 -86 83c0 49 34 93 92 93c54 0 86 -38 86 -82c0 -50 -34 -94 -92 -94z
" />
    <glyph glyph-name="Yacute.sc" horiz-adv-x="633" 
d="M502 608h207l-14 -65c-26 -5 -42 -10 -59 -32l-228 -295l-21 -96c-2 -7 -3 -14 -3 -20c0 -25 16 -33 63 -35l-14 -65h-321l14 65c58 3 74 14 84 59l21 93l-101 294c-7 22 -20 27 -42 32l14 65h299l-14 -65c-38 0 -62 -14 -62 -47c0 -14 2 -27 8 -44l52 -155l118 156
c19 25 33 41 33 60c0 18 -11 29 -48 30zM500 816h197l-195 -160h-98z" />
    <glyph glyph-name="Ycircumflex.sc" horiz-adv-x="633" 
d="M502 608h207l-14 -65c-26 -5 -42 -10 -59 -32l-228 -295l-21 -96c-2 -7 -3 -14 -3 -20c0 -25 16 -33 63 -35l-14 -65h-321l14 65c58 3 74 14 84 59l21 93l-101 294c-7 22 -20 27 -42 32l14 65h299l-14 -65c-38 0 -62 -14 -62 -47c0 -14 2 -27 8 -44l52 -155l118 156
c19 25 33 41 33 60c0 18 -11 29 -48 30zM567 816l92 -169h-89l-88 80l-134 -80h-101l184 169h136z" />
    <glyph glyph-name="Ydieresis.sc" horiz-adv-x="633" 
d="M502 608h207l-14 -65c-26 -5 -42 -10 -59 -32l-228 -295l-21 -96c-2 -7 -3 -14 -3 -20c0 -25 16 -33 63 -35l-14 -65h-321l14 65c58 3 74 14 84 59l21 93l-101 294c-7 22 -20 27 -42 32l14 65h299l-14 -65c-38 0 -62 -14 -62 -47c0 -14 2 -27 8 -44l52 -155l118 156
c19 25 33 41 33 60c0 18 -11 29 -48 30zM366 653c-54 0 -87 39 -87 83c0 49 35 93 93 93c54 0 86 -38 86 -82c0 -50 -35 -94 -92 -94zM585 653c-54 0 -86 39 -86 83c0 49 34 93 92 93c54 0 86 -38 86 -82c0 -50 -34 -94 -92 -94z" />
    <glyph glyph-name="Ygrave.sc" horiz-adv-x="633" 
d="M502 608h207l-14 -65c-26 -5 -42 -10 -59 -32l-228 -295l-21 -96c-2 -7 -3 -14 -3 -20c0 -25 16 -33 63 -35l-14 -65h-321l14 65c58 3 74 14 84 59l21 93l-101 294c-7 22 -20 27 -42 32l14 65h299l-14 -65c-38 0 -62 -14 -62 -47c0 -14 2 -27 8 -44l52 -155l118 156
c19 25 33 41 33 60c0 18 -11 29 -48 30zM300 816h181l35 -160h-91z" />
    <glyph glyph-name="Zacute.sc" horiz-adv-x="594" 
d="M226 62h82c71 0 90 17 188 148h77l-77 -210h-516l10 46l411 500h-89c-72 0 -91 -56 -143 -125h-68l41 187h502l-11 -47zM447 816h197l-195 -160h-98z" />
    <glyph glyph-name="Zcaron.sc" horiz-adv-x="594" 
d="M226 62h82c71 0 90 17 188 148h77l-77 -210h-516l10 46l411 500h-89c-72 0 -91 -56 -143 -125h-68l41 187h502l-11 -47zM340 656l-92 169h89l88 -80l134 80h101l-184 -169h-136z" />
    <glyph glyph-name="Zdotaccent.sc" horiz-adv-x="594" 
d="M226 62h82c71 0 90 17 188 148h77l-77 -210h-516l10 46l411 500h-89c-72 0 -91 -56 -143 -125h-68l41 187h502l-11 -47zM421 649c-60 0 -96 41 -96 88c0 53 38 99 104 99c59 0 96 -40 96 -87c0 -54 -39 -100 -104 -100z" />
    <glyph glyph-name="ampersand.sc" horiz-adv-x="698" 
d="M396 618c117 0 184 -51 184 -127c0 -83 -83 -128 -173 -153l96 -151c14 23 23 47 23 73c0 16 -9 22 -34 22l14 65h191l-14 -65c-62 0 -80 -13 -103 -62c-13 -27 -29 -53 -49 -76l21 -32c22 -34 49 -47 89 -47l-14 -65h-189c-16 12 -30 25 -42 37
c-57 -30 -120 -47 -185 -47c-108 0 -194 57 -194 163c0 98 72 156 187 184c-15 28 -29 65 -29 106c0 100 85 175 221 175zM338 116l-110 179c-28 -23 -36 -60 -36 -96c0 -62 42 -120 127 -120c12 0 26 1 39 5c-7 11 -14 21 -20 32zM328 497c0 -37 23 -72 47 -109l5 -9
c35 20 58 55 58 115c0 42 -19 69 -56 69c-36 0 -54 -24 -54 -66z" />
    <glyph glyph-name="caron.Slovak" horiz-adv-x="500" 
d="M363 766l-133 -205h-76l51 205h158z" />
    <glyph glyph-name="cedilla.alt" horiz-adv-x="500" 
d="M189 -44h35c73 0 100 -31 100 -78c0 -74 -102 -111 -202 -111l-11 49c72 0 122 12 122 39c0 25 -29 34 -76 36z" />
    <glyph glyph-name="grave.cap" horiz-adv-x="500" 
d="M142 909h181l35 -158h-91z" />
    <glyph glyph-name="acute.cap" horiz-adv-x="500" 
d="M199 909h197l-194 -158h-99z" />
    <glyph glyph-name="circumflex.cap" horiz-adv-x="500" 
d="M364 918l92 -169h-89l-88 80l-134 -80h-101l184 169h136z" />
    <glyph glyph-name="tilde.cap" horiz-adv-x="500" 
d="M397 900l58 -12c-63 -125 -93 -150 -151 -150c-49 0 -95 63 -132 63c-29 0 -47 -25 -68 -55l-59 11c64 125 93 150 151 150c56 0 94 -63 132 -63c28 0 48 24 69 56z" />
    <glyph glyph-name="macron.cap" horiz-adv-x="500" 
d="M79 758l24 106h318l-24 -106h-318z" />
    <glyph glyph-name="breve.cap" horiz-adv-x="500" 
d="M214 746c-81 0 -127 45 -127 112c0 17 3 37 11 58h66c-1 -5 -1 -10 -1 -14c0 -51 37 -64 71 -64c37 0 80 16 105 78h74c-27 -106 -98 -170 -199 -170z" />
    <glyph glyph-name="dotaccent.cap" horiz-adv-x="500" 
d="M246 744c-60 0 -96 41 -96 88c0 53 38 99 104 99c59 0 96 -40 96 -87c0 -54 -39 -100 -104 -100z" />
    <glyph glyph-name="dieresis.cap" horiz-adv-x="500" 
d="M138 743c-54 0 -87 39 -87 83c0 49 35 93 93 93c54 0 86 -38 86 -82c0 -50 -35 -94 -92 -94zM357 743c-54 0 -86 39 -86 83c0 49 34 93 92 93c54 0 86 -38 86 -82c0 -50 -34 -94 -92 -94z" />
    <glyph glyph-name="ring.cap" horiz-adv-x="500" 
d="M245 796c33 0 51 23 51 49c0 23 -15 39 -42 39c-33 0 -51 -23 -51 -48c0 -24 15 -40 42 -40zM240 739c-62 0 -104 39 -104 93c0 63 57 109 123 109c62 0 104 -39 104 -93c0 -63 -57 -109 -123 -109z" />
    <glyph glyph-name="hungarumlaut.cap" horiz-adv-x="500" 
d="M104 909h171l-178 -158h-88zM314 909h177l-184 -158h-88z" />
    </font>
</defs>
</svg>
