<?xml version="1.0" standalone="no"?>
<!DOCTYPE svg PUBLIC "-//W3C//DTD SVG 1.1//EN" "http://www.w3.org/Graphics/SVG/1.1/DTD/svg11.dtd" >
<svg xmlns="http://www.w3.org/2000/svg" xmlns:xlink="http://www.w3.org/1999/xlink" version="1.1">
<metadata>
Created by FontForge 20160407 at Thu Jul  7 22:50:00 2016
 By Jimmy Wärting
Copyright (c) 2009 by Kris Sowersby. All rights reserved.
</metadata>
<defs>
<font id="TiemposText-Bold" horiz-adv-x="600" >
  <font-face 
    font-family="Tiempos Text Bold"
    font-weight="700"
    font-stretch="normal"
    units-per-em="1000"
    panose-1="2 2 8 3 6 3 3 6 4 3"
    ascent="761"
    descent="-239"
    x-height="550"
    cap-height="702"
    bbox="-160 -250 1382 1061"
    underline-thickness="30"
    underline-position="-110"
    stemh="70"
    stemv="204"
    unicode-range="U+0020-FB04"
  />
<missing-glyph horiz-adv-x="960" 
 />
    <glyph glyph-name="fi" unicode="fi" horiz-adv-x="716" 
d="M342 0h-305v67c45 6 61 11 61 57v351h-76v62l76 18v6c0 154 141 209 272 209c119 0 183 -34 183 -96c0 -31 -16 -51 -35 -64h-113v38c0 35 -12 63 -49 63c-39 0 -72 -40 -72 -108v-53h268l39 14h40v-440c0 -46 16 -51 61 -57v-67h-305v67c45 6 56 11 56 57v351h-157v-351
c0 -46 11 -51 56 -57v-67z" />
    <glyph glyph-name="fl" unicode="fl" horiz-adv-x="716" 
d="M98 124v351h-76v62l76 18v6c0 158 125 209 226 209c58 0 118 -15 159 -36l115 27h33v-637c0 -46 16 -51 61 -57v-67h-305v67c45 6 56 11 56 57v514c-19 38 -48 72 -92 72c-46 0 -67 -26 -67 -78v-82h96v-75h-94v-351c0 -46 11 -51 56 -57v-67h-305v67c45 6 61 11 61 57z
" />
    <glyph glyph-name="ff" unicode="ff" horiz-adv-x="762" 
d="M334 756c71 0 126 -22 160 -54c44 47 112 68 186 68c107 0 158 -34 158 -96c0 -31 -16 -51 -35 -64h-90v38c0 35 -5 63 -37 63c-33 0 -47 -26 -47 -71v-90h116v-75h-114v-353c0 -44 23 -47 79 -55v-67h-323v67c45 6 56 11 56 57v351h-157v-351c0 -46 11 -51 56 -57v-67
h-305v67c45 6 61 11 61 57v351h-76v62l76 18v6c0 127 119 195 236 195zM443 561c0 19 2 38 5 54c-19 37 -55 75 -97 75c-46 0 -67 -26 -67 -78v-62h159v11z" />
    <glyph glyph-name="ffi" unicode="ffi" horiz-adv-x="1061" 
d="M334 756c74 0 130 -24 164 -58c53 51 137 72 217 72c119 0 183 -34 183 -96c0 -31 -16 -51 -35 -64h-113v38c0 35 -12 63 -49 63c-39 0 -72 -40 -72 -108v-53h268l39 14h40v-440c0 -46 16 -51 61 -57v-67h-305v67c45 6 56 11 56 57v351h-157v-351c0 -46 11 -51 56 -57
v-67h-300v67c45 6 56 11 56 57v351h-157v-351c0 -46 11 -51 56 -57v-67h-305v67c45 6 61 11 61 57v351h-76v62l76 18v6c0 127 119 195 236 195zM284 612v-62h159v11c0 19 2 37 6 53c-19 37 -55 76 -98 76c-46 0 -67 -26 -67 -78z" />
    <glyph glyph-name="ffl" unicode="ffl" horiz-adv-x="1061" 
d="M98 555v6c0 127 119 195 236 195c71 0 125 -22 159 -53c46 49 115 67 176 67c58 0 118 -15 159 -36l115 27h33v-637c0 -46 16 -51 61 -57v-67h-305v67c45 6 56 11 56 57v514c-19 38 -48 72 -92 72c-46 0 -67 -26 -67 -78v-82h96v-75h-94v-351c0 -46 11 -51 56 -57v-67
h-300v67c45 6 56 11 56 57v351h-157v-351c0 -46 11 -51 56 -57v-67h-305v67c45 6 61 11 61 57v351h-76v62zM443 561c0 20 2 38 5 55c-19 36 -55 74 -97 74c-46 0 -67 -26 -67 -78v-62h159v11z" />
    <glyph glyph-name="f_b" unicode="fb" horiz-adv-x="1035" 
d="M442 58l1 580c-19 38 -48 72 -92 72c-46 0 -67 -26 -67 -78v-82h96v-75h-94v-351c0 -46 11 -51 56 -57v-67h-305v67c45 6 61 11 61 57v351h-76v62l76 18v6c0 158 125 209 226 209c58 0 118 -15 159 -36l115 27h33v-298c30 57 82 97 159 97c128 0 212 -92 212 -256
c0 -196 -132 -314 -302 -314c-94 0 -194 18 -258 68zM701 59c71 0 109 80 109 191c0 125 -50 194 -122 194c-20 0 -40 -4 -57 -13v-274c0 -60 16 -98 70 -98z" />
    <glyph glyph-name="f_f_b" unicode="ffb" horiz-adv-x="1380" 
d="M788 58v580c-19 38 -48 72 -92 72c-46 0 -67 -26 -67 -78v-82h96v-75h-94v-351c0 -46 11 -51 56 -57v-67h-300v67c45 6 56 11 56 57v351h-157v-351c0 -46 11 -51 56 -57v-67h-305v67c45 6 61 11 61 57v351h-76v62l76 18v6c0 127 119 195 236 195c71 0 125 -22 159 -53
c46 49 115 67 176 67c58 0 118 -15 159 -36l115 27h33v-298c30 57 82 97 159 97c128 0 212 -92 212 -256c0 -196 -132 -314 -302 -314c-94 0 -193 18 -257 68zM1046 59c71 0 109 80 109 191c0 125 -50 194 -122 194c-20 0 -40 -4 -57 -13v-274c0 -60 16 -98 70 -98zM443 561
c0 20 2 38 5 55c-19 36 -55 74 -97 74c-46 0 -67 -26 -67 -78v-62h159v11z" />
    <glyph glyph-name="f_h" unicode="fh" horiz-adv-x="1057" 
d="M443 124v514c-19 38 -48 72 -92 72c-46 0 -67 -26 -67 -78v-82h96v-75h-94v-351c0 -46 11 -51 56 -57v-67h-305v67c45 6 61 11 61 57v351h-76v62l76 18v6c0 158 125 209 226 209c58 0 118 -15 159 -36l115 27h33v-306c42 47 106 105 193 105c98 0 153 -53 153 -164v-272
c0 -46 15 -51 60 -57v-67h-304v67c45 6 56 11 56 57v254c0 41 -15 63 -62 63c-38 0 -69 -8 -96 -17v-300c0 -46 11 -51 56 -57v-67h-300v67c46 6 56 11 56 57z" />
    <glyph glyph-name="f_f_h" unicode="ffh" horiz-adv-x="1402" 
d="M788 124v514c-19 38 -48 72 -92 72c-46 0 -67 -26 -67 -78v-82h96v-75h-94v-351c0 -46 11 -51 56 -57v-67h-300v67c45 6 56 11 56 57v351h-157v-351c0 -46 11 -51 56 -57v-67h-305v67c45 6 61 11 61 57v351h-76v62l76 18v6c0 127 119 195 236 195c71 0 125 -22 159 -53
c46 49 115 67 176 67c58 0 118 -15 159 -36l115 27h33v-306c42 47 106 105 193 105c98 0 153 -53 153 -164v-272c0 -46 15 -51 60 -57v-67h-304v67c45 6 56 11 56 57v254c0 41 -15 63 -62 63c-38 0 -69 -8 -96 -17v-300c0 -46 11 -51 56 -57v-67h-300v67c46 6 56 11 56 57z
M443 561c0 20 2 38 5 55c-19 36 -55 74 -97 74c-46 0 -67 -26 -67 -78v-62h159v11z" />
    <glyph glyph-name="f_idieresis" unicode="f&#xef;" horiz-adv-x="716" 
d="M558 691c0 48 41 88 88 88c51 0 91 -40 91 -88s-40 -88 -91 -88c-47 0 -88 40 -88 88zM98 555v12c0 158 116 209 242 209c107 0 170 -34 170 -96c0 -31 -17 -57 -36 -70h-109v40c0 35 -5 69 -37 69c-33 0 -44 -26 -44 -71v-98h268l39 14h40v-440c0 -46 16 -51 61 -57v-67
h-305v67c45 6 56 11 56 57v351h-157v-351c0 -46 11 -51 56 -57v-67h-305v67c45 6 61 11 61 57v351h-76v62z" />
    <glyph glyph-name="f_f_idieresis" unicode="ff&#xef;" horiz-adv-x="1061" 
d="M334 756c68 0 122 -20 156 -50c45 51 118 70 195 70c107 0 170 -34 170 -96c0 -31 -17 -57 -36 -70h-109v40c0 35 -5 69 -37 69c-33 0 -44 -26 -44 -71v-98h268l39 14h40v-440c0 -46 16 -51 61 -57v-67h-305v67c45 6 56 11 56 57v351h-157v-351c0 -46 11 -51 56 -57v-67
h-300v67c45 6 56 11 56 57v351h-157v-351c0 -46 11 -51 56 -57v-67h-305v67c45 6 61 11 61 57v351h-76v62l76 18v6c0 127 119 195 236 195zM903 691c0 48 41 88 88 88c51 0 91 -40 91 -88s-40 -88 -91 -88c-47 0 -88 40 -88 88zM443 550v17c0 18 1 35 4 51
c-20 36 -55 72 -96 72c-46 0 -67 -26 -67 -78v-62h159z" />
    <glyph glyph-name="f_j" unicode="fj" horiz-adv-x="692" 
d="M442 475h-156v-351c0 -46 11 -51 56 -57v-67h-305v67c45 6 61 11 61 57v351h-76v62l76 18v6c0 154 141 209 272 209c119 0 183 -34 183 -96c0 -31 -16 -51 -35 -64h-113v38c0 35 -12 63 -49 63c-39 0 -72 -40 -72 -108v-53h268l39 14h40v-430c0 -115 -29 -170 -72 -219
c-51 -57 -99 -94 -155 -122l-36 34l41 69c32 54 33 117 33 195v384z" />
    <glyph glyph-name="f_f_j" unicode="ffj" horiz-adv-x="1037" 
d="M787 475h-156v-351c0 -46 11 -51 56 -57v-67h-300v67c45 6 56 11 56 57v351h-157v-351c0 -46 11 -51 56 -57v-67h-305v67c45 6 61 11 61 57v351h-76v62l76 18v6c0 127 119 195 236 195c74 0 130 -24 164 -58c53 51 137 72 217 72c119 0 183 -34 183 -96
c0 -31 -16 -51 -35 -64h-113v38c0 35 -12 63 -49 63c-39 0 -72 -40 -72 -108v-53h268l39 14h40v-430c0 -115 -29 -170 -72 -219c-51 -57 -99 -94 -155 -122l-36 34l41 69c32 54 33 117 33 195v384zM443 561c0 19 2 37 6 53c-19 37 -55 76 -98 76c-46 0 -67 -26 -67 -78v-62
h159v11z" />
    <glyph glyph-name="f_k" unicode="fk" horiz-adv-x="1023" 
d="M638 292l127 122c14 15 27 26 27 38c0 22 -17 26 -63 32v66h264v-66c-39 -10 -68 -16 -93 -41l-89 -88l202 -303v-52h-192zM443 124v514c-19 38 -48 72 -92 72c-46 0 -67 -26 -67 -78v-82h96v-75h-94v-351c0 -46 11 -51 56 -57v-67h-305v67c45 6 61 11 61 57v351h-76v62
l76 18v6c0 158 125 209 226 209c58 0 118 -15 159 -36l115 27h33v-637c0 -46 16 -51 61 -57v-67h-305v67c46 6 56 11 56 57z" />
    <glyph glyph-name="f_f_k" unicode="ffk" horiz-adv-x="1368" 
d="M788 124v514c-19 38 -48 72 -92 72c-46 0 -67 -26 -67 -78v-82h96v-75h-94v-351c0 -46 11 -51 56 -57v-67h-300v67c45 6 56 11 56 57v351h-157v-351c0 -46 11 -51 56 -57v-67h-305v67c45 6 61 11 61 57v351h-76v62l76 18v6c0 127 119 195 236 195c71 0 125 -22 159 -53
c46 49 115 67 176 67c58 0 118 -15 159 -36l115 27h33v-637c0 -46 16 -51 61 -57v-67h-305v67c46 6 56 11 56 57zM983 292l127 122c14 15 27 26 27 38c0 22 -17 26 -63 32v66h264v-66c-39 -10 -68 -16 -93 -41l-89 -88l202 -303v-52h-192zM443 561c0 20 2 38 5 55
c-19 36 -55 74 -97 74c-46 0 -67 -26 -67 -78v-62h159v11z" />
    <glyph glyph-name=".notdef" horiz-adv-x="960" 
 />
    <glyph glyph-name="space" unicode=" " horiz-adv-x="190" 
 />
    <glyph glyph-name="exclam" unicode="!" horiz-adv-x="336" 
d="M66 94c0 59 46 106 101 106c57 0 102 -47 102 -106c0 -56 -45 -103 -102 -103c-55 0 -101 47 -101 103zM271 702l-59 -461h-88l-59 461h206z" />
    <glyph glyph-name="quotedbl" unicode="&#x22;" horiz-adv-x="467" 
d="M141 447h-36l-43 148c-9 31 -22 71 -22 94c0 42 28 81 83 81s83 -39 83 -81c0 -23 -13 -63 -22 -94zM362 447h-36l-43 148c-9 31 -22 71 -22 94c0 42 28 81 83 81s83 -39 83 -81c0 -23 -13 -63 -22 -94z" />
    <glyph glyph-name="numbersign" unicode="#" horiz-adv-x="589" 
d="M513 209h-129l-70 -219l-72 26l62 193h-110l-70 -219l-72 26l62 193h-64v71h86l46 142h-106v71h129l70 219l72 -26l-62 -193h110l70 219l72 -26l-62 -193h64v-71h-87l-45 -142h106v-71zM262 422l-45 -142h109l46 142h-110z" />
    <glyph glyph-name="dollar" unicode="$" horiz-adv-x="602" 
d="M185 -113l20 110c-67 11 -123 33 -158 60l-11 167h97c10 -79 40 -128 85 -152l34 188l-15 5c-129 39 -194 103 -194 217c0 145 108 230 259 230c10 0 21 0 31 -1l19 103h55l-20 -109c58 -9 105 -29 140 -53v-153h-82c-9 58 -29 105 -71 130l-33 -183l36 -11
c117 -37 189 -97 189 -218c0 -157 -123 -227 -277 -227c-11 0 -21 1 -31 1l-18 -104h-55zM314 242l-10 3l-34 -189c11 -1 23 -2 35 -2c61 0 106 33 106 93c0 43 -22 73 -97 95zM191 562c0 -53 30 -78 89 -96l9 -3l33 183c-10 2 -21 3 -33 3c-65 0 -98 -42 -98 -87z" />
    <glyph glyph-name="percent" unicode="%" horiz-adv-x="930" 
d="M164 523c0 -82 21 -140 60 -140c38 0 59 58 59 140c0 83 -21 141 -59 141c-39 0 -60 -58 -60 -141zM202 -19l448 741h78l-450 -741h-76zM35 523c0 126 89 189 189 189c99 0 188 -63 188 -189c0 -125 -89 -188 -188 -188c-100 0 -189 63 -189 188zM766 179
c0 82 -21 140 -60 140c-38 0 -59 -58 -59 -140c0 -83 21 -141 59 -141c39 0 60 58 60 141zM895 179c0 -126 -89 -189 -189 -189c-99 0 -188 63 -188 189c0 125 89 188 188 188c100 0 189 -63 189 -188z" />
    <glyph glyph-name="ampersand" unicode="&#x26;" horiz-adv-x="752" 
d="M13 184c0 105 70 157 169 191c-26 34 -60 80 -60 148c0 115 88 189 228 189c128 0 212 -57 212 -151c0 -84 -77 -133 -167 -162l152 -181c10 22 15 46 15 71c0 32 -11 44 -46 44v67h216v-67c-71 0 -89 -15 -103 -72c-8 -33 -22 -64 -40 -93l40 -47c32 -38 55 -52 101 -52
v-69h-218c-21 13 -39 28 -56 42c-57 -33 -123 -52 -191 -52c-145 0 -252 72 -252 194zM346 80c21 0 42 4 63 11c-10 11 -20 23 -28 34l-169 212c-20 -25 -27 -60 -27 -95c0 -97 63 -162 161 -162zM287 585c0 -55 37 -101 72 -143l4 -5c35 28 50 72 50 130
c0 46 -23 81 -63 81c-41 0 -63 -28 -63 -63z" />
    <glyph glyph-name="quoteright" unicode="&#x2019;" horiz-adv-x="320" 
d="M170 588h-43c-43 9 -67 41 -67 91c0 49 34 91 96 91c66 0 109 -43 109 -127c0 -114 -68 -181 -209 -185v59c69 6 104 22 114 71z" />
    <glyph glyph-name="parenleft" unicode="(" horiz-adv-x="388" 
d="M60 314c0 166 81 342 212 456h96c-128 -137 -160 -304 -160 -456s32 -318 160 -455h-96c-131 114 -212 289 -212 455z" />
    <glyph glyph-name="parenright" unicode=")" horiz-adv-x="388" 
d="M328 314c0 -166 -81 -341 -212 -455h-96c128 137 160 303 160 455s-32 319 -160 456h96c131 -114 212 -290 212 -456z" />
    <glyph glyph-name="asterisk" unicode="*" horiz-adv-x="500" 
d="M402 406l-129 115l35 -169h-116l34 168l-128 -114l-58 101l163 54l-163 54l58 101l129 -115l-35 169h116l-35 -168l129 114l58 -101l-163 -54l163 -54z" />
    <glyph glyph-name="plus" unicode="+" horiz-adv-x="604" 
d="M255 594h93v-183h183v-93h-183v-184h-93v184h-183v93h183v183z" />
    <glyph glyph-name="comma" unicode="," horiz-adv-x="305" 
d="M170 11h-43c-43 9 -67 41 -67 91c0 49 34 91 96 91c66 0 113 -43 113 -127c0 -121 -72 -201 -213 -205v62c69 6 114 34 114 88z" />
    <glyph glyph-name="hyphen" unicode="-" horiz-adv-x="360" 
d="M310 247h-260v116h260v-116z" />
    <glyph glyph-name="period" unicode="." horiz-adv-x="305" 
d="M45 97c0 63 48 108 107 108c60 0 108 -45 108 -108s-48 -107 -108 -107c-59 0 -107 44 -107 107z" />
    <glyph glyph-name="slash" unicode="/" horiz-adv-x="442" 
d="M404 770l-272 -891h-107l272 891h107z" />
    <glyph glyph-name="zero" unicode="0" horiz-adv-x="680" 
d="M340 712c178 0 302 -129 302 -361s-124 -361 -302 -361s-302 129 -302 361s124 361 302 361zM340 638c-73 0 -99 -98 -99 -287s26 -288 99 -288c75 0 99 99 99 288s-24 287 -99 287z" />
    <glyph glyph-name="one" unicode="1" horiz-adv-x="486" 
d="M295 711h57v-570c0 -61 23 -66 119 -72v-69h-422v69c108 7 118 11 118 72v369h-118v63l36 7c97 15 152 59 210 131z" />
    <glyph glyph-name="two" unicode="2" horiz-adv-x="572" 
d="M179 148h171c65 0 87 6 138 94h49l-22 -242h-515v57l199 190c82 77 110 138 110 211c0 77 -44 112 -113 112c-65 0 -103 -33 -137 -65l-37 41c52 93 136 166 265 166c134 0 219 -69 219 -192c0 -143 -146 -254 -327 -372z" />
    <glyph glyph-name="three" unicode="3" horiz-adv-x="582" 
d="M334 394c124 -6 209 -70 209 -187c0 -145 -142 -217 -283 -217c-156 0 -240 68 -240 147c0 41 24 68 47 79h110v-36c0 -83 35 -127 100 -127c54 0 86 36 86 103c0 93 -55 157 -152 157h-21l-14 43c111 45 145 90 145 138c0 47 -29 82 -89 82c-63 0 -105 -34 -140 -68
l-40 36c49 93 134 168 265 168c109 0 185 -61 185 -158c0 -89 -80 -143 -168 -160z" />
    <glyph glyph-name="four" unicode="4" horiz-adv-x="653" 
d="M107 260h222v292zM329 137v44h-322v64l344 457h153v-442h127v-79h-127v-44c0 -52 12 -65 80 -68v-69h-336v69c68 3 81 16 81 68z" />
    <glyph glyph-name="five" unicode="5" horiz-adv-x="565" 
d="M487 702v-170h-320l-11 -67c221 -2 373 -73 373 -247c0 -149 -112 -227 -261 -227c-157 0 -242 65 -242 146c0 39 24 69 47 80h111v-28c0 -91 33 -133 102 -133c62 0 92 40 92 91c0 95 -94 156 -308 156l66 399h351z" />
    <glyph glyph-name="six" unicode="6" horiz-adv-x="633" 
d="M521 657c-200 -26 -267 -122 -291 -263c37 37 95 73 172 73c109 0 201 -78 201 -217c0 -177 -133 -260 -272 -260c-173 0 -296 117 -296 306c0 228 155 417 466 417zM284 368c-23 0 -40 -4 -58 -10c-2 -22 -3 -42 -3 -62c0 -114 30 -236 117 -236c59 0 97 53 97 143
s-50 165 -153 165z" />
    <glyph glyph-name="seven" unicode="7" horiz-adv-x="540" 
d="M408 530h-237c-46 0 -69 -24 -92 -90h-60l44 262h486v-46l-291 -656h-138z" />
    <glyph glyph-name="eight" unicode="8" horiz-adv-x="616" 
d="M550 549c0 -80 -61 -124 -137 -138l14 -6c101 -44 152 -98 152 -195c0 -139 -109 -220 -270 -220c-168 0 -274 63 -274 174c0 84 61 129 143 145l-8 5c-68 30 -113 92 -113 178c0 139 101 220 251 220c149 0 242 -62 242 -163zM347 237l-131 52c-24 -19 -40 -56 -40 -102
c0 -76 51 -129 133 -129c67 0 117 32 117 89c0 44 -30 70 -79 90zM284 467l82 -35c26 20 49 59 49 108c0 61 -41 104 -107 104c-65 0 -101 -36 -101 -86c0 -44 27 -70 77 -91z" />
    <glyph glyph-name="nine" unicode="9" horiz-adv-x="633" 
d="M112 45c200 26 267 122 291 263c-37 -37 -95 -73 -172 -73c-109 0 -201 78 -201 217c0 177 133 260 272 260c173 0 296 -117 296 -306c0 -228 -155 -417 -466 -417zM349 334c23 0 40 4 58 10c2 22 3 42 3 62c0 114 -30 236 -117 236c-59 0 -97 -53 -97 -143
s50 -165 153 -165z" />
    <glyph glyph-name="colon" unicode=":" horiz-adv-x="305" 
d="M45 97c0 63 48 108 107 108c60 0 108 -45 108 -108s-48 -107 -108 -107c-59 0 -107 44 -107 107zM45 396c0 63 48 108 107 108c60 0 108 -45 108 -108s-48 -107 -108 -107c-59 0 -107 44 -107 107z" />
    <glyph glyph-name="semicolon" unicode=";" horiz-adv-x="305" 
d="M45 396c0 63 48 108 107 108c60 0 108 -45 108 -108s-48 -107 -108 -107c-59 0 -107 44 -107 107zM170 11h-43c-43 9 -67 41 -67 91c0 49 34 91 96 91c66 0 113 -43 113 -127c0 -121 -72 -201 -213 -205v62c69 6 114 34 114 88z" />
    <glyph glyph-name="less" unicode="&#x3c;" horiz-adv-x="463" 
d="M54 357v10l337 209v-108l-182 -105l182 -108v-108z" />
    <glyph glyph-name="equal" unicode="=" horiz-adv-x="615" 
d="M78 236v88h460v-88h-460zM78 406v87h460v-87h-460z" />
    <glyph glyph-name="greater" unicode="&#x3e;" horiz-adv-x="463" 
d="M409 367v-10l-337 -210v108l181 108l-181 105v108z" />
    <glyph glyph-name="question" unicode="?" horiz-adv-x="480" 
d="M304 579c0 44 -25 63 -61 63c-50 0 -68 -37 -68 -82v-53h-110c-28 14 -39 39 -39 66c0 81 81 138 218 138c140 0 220 -55 220 -167c0 -81 -41 -130 -117 -173c-69 -38 -81 -68 -81 -106v-26h-54c-33 19 -62 56 -62 103c0 43 17 83 61 117c48 38 93 68 93 120zM136 94
c0 59 45 106 101 106c57 0 102 -47 102 -106c0 -56 -45 -103 -102 -103c-56 0 -101 47 -101 103z" />
    <glyph glyph-name="at" unicode="@" horiz-adv-x="907" 
d="M606 77c-99 0 -122 71 -107 152h-5c-36 -75 -92 -152 -169 -152c-59 0 -105 49 -105 129c0 135 109 286 257 286c43 0 73 -21 87 -40l80 30h56l-35 -94l-51 -179c-11 -39 -4 -74 26 -74c68 0 136 78 136 234c0 144 -111 272 -290 272c-217 0 -352 -163 -352 -390
c0 -219 157 -322 343 -322c115 0 186 24 270 69l18 -33c-70 -60 -166 -102 -302 -102c-224 0 -413 142 -413 383c0 255 181 447 436 447c235 0 371 -155 371 -324c0 -213 -141 -292 -251 -292zM392 172c46 0 111 109 137 236c-8 21 -16 34 -36 34c-74 0 -131 -127 -131 -220
c0 -31 9 -50 30 -50z" />
    <glyph glyph-name="A" unicode="A" horiz-adv-x="758" 
d="M463 153l-24 60h-244l-23 -60c-5 -15 -9 -29 -9 -40c0 -31 10 -41 70 -44v-69h-226v69c27 5 46 10 57 37l205 517l-35 80h205l254 -597c11 -25 29 -32 58 -37v-69h-347v69c58 3 70 13 70 44c0 11 -4 25 -11 40zM315 522l-93 -240h189z" />
    <glyph glyph-name="B" unicode="B" horiz-adv-x="720" 
d="M31 0v69c67 3 79 15 79 68v428c0 53 -12 65 -79 68v69h383c153 0 243 -59 243 -176c0 -101 -90 -152 -187 -163c126 -7 222 -64 222 -172c0 -131 -97 -191 -277 -191h-384zM350 325h-42v-190c0 -54 21 -68 73 -68h6c64 0 107 47 107 126c0 77 -36 132 -144 132zM331 630
h-23v-234h29c81 0 127 38 127 122c0 80 -50 112 -133 112z" />
    <glyph glyph-name="C" unicode="C" horiz-adv-x="706" 
d="M416 68c84 0 121 59 156 181h97l-16 -193c-60 -41 -148 -66 -252 -66c-235 0 -367 145 -367 347c0 231 165 375 369 375c98 0 187 -28 240 -74v-163h-96c-25 99 -61 164 -146 164c-117 0 -153 -135 -153 -273c0 -176 56 -298 168 -298z" />
    <glyph glyph-name="D" unicode="D" horiz-adv-x="803" 
d="M329 630h-21v-488c0 -59 20 -70 68 -70h9c111 0 172 87 172 279c0 172 -80 279 -228 279zM31 633v69h325c262 0 413 -123 413 -340c0 -227 -143 -362 -377 -362h-361v69c67 3 79 15 79 68v428c0 53 -12 65 -79 68z" />
    <glyph glyph-name="E" unicode="E" horiz-adv-x="680" 
d="M520 247h-66c-10 60 -28 78 -72 78h-74v-188c0 -54 27 -67 80 -67h25c70 0 102 37 166 138h76l-31 -208h-593v69c67 3 79 15 79 68v428c0 53 -12 65 -79 68v69h588v-192h-78c-31 81 -56 122 -136 122h-97v-234h74c44 0 62 18 72 78h66v-229z" />
    <glyph glyph-name="F" unicode="F" horiz-adv-x="629" 
d="M424 0h-393v69c67 3 79 15 79 68v428c0 53 -12 65 -79 68v69h575v-193h-78c-31 82 -57 123 -137 123h-83v-242h56c45 0 62 18 72 78h67v-229h-67c-10 61 -27 79 -72 79h-56v-186c0 -52 32 -64 116 -68v-64z" />
    <glyph glyph-name="G" unicode="G" horiz-adv-x="766" 
d="M34 337c0 231 172 375 373 375c97 0 186 -28 240 -74v-163h-96c-27 99 -64 164 -146 164c-116 0 -160 -135 -160 -273c0 -173 45 -297 176 -297c27 0 40 2 62 10v128c0 52 -13 64 -77 66v71h335v-71c-67 -2 -77 -14 -77 -66v-144c-63 -46 -163 -72 -270 -72
c-237 0 -360 146 -360 346z" />
    <glyph glyph-name="H" unicode="H" horiz-adv-x="864" 
d="M556 137v188h-248v-188c0 -53 13 -65 79 -68v-69h-356v69c67 3 79 15 79 68v428c0 53 -12 65 -79 68v69h356v-69c-66 -3 -79 -15 -79 -68v-167h248v167c0 53 -13 65 -79 68v69h356v-69c-67 -3 -79 -15 -79 -68v-428c0 -53 12 -65 79 -68v-69h-356v69c66 3 79 15 79 68z
" />
    <glyph glyph-name="I" unicode="I" horiz-adv-x="418" 
d="M387 0h-356v69c67 3 79 15 79 68v428c0 53 -12 65 -79 68v69h356v-69c-67 -3 -79 -15 -79 -68v-428c0 -53 12 -65 79 -68v-69z" />
    <glyph glyph-name="J" unicode="J" horiz-adv-x="612" 
d="M514 565v-339c0 -164 -98 -236 -268 -236c-151 0 -238 54 -238 151c0 46 22 72 50 91h135v-51c0 -68 9 -122 59 -122c55 0 62 53 62 134v372c0 53 -11 65 -77 68v69h357v-69c-67 -3 -80 -15 -80 -68z" />
    <glyph glyph-name="K" unicode="K" horiz-adv-x="790" 
d="M504 426l181 -286c36 -57 59 -72 101 -72v-68h-226c-31 20 -54 49 -88 105l-154 252l209 200c18 17 29 28 29 45c0 16 -11 31 -61 31v69h264v-69c-42 -1 -55 -11 -82 -37zM110 137v428c0 53 -12 65 -79 68v69h356v-69c-66 -3 -77 -15 -77 -68v-428c0 -53 11 -65 77 -68
v-69h-356v69c67 3 79 15 79 68z" />
    <glyph glyph-name="L" unicode="L" horiz-adv-x="662" 
d="M310 565v-426c0 -54 21 -67 75 -67h25c63 0 78 26 160 169h82l-38 -241h-583v69c67 3 79 15 79 68v428c0 52 -12 64 -79 67v70h356v-70c-66 -3 -77 -15 -77 -67z" />
    <glyph glyph-name="M" unicode="M" horiz-adv-x="1005" 
d="M710 158l-47 326l-172 -484h-79l-182 485l-44 -327c-1 -8 -2 -21 -2 -25c0 -48 25 -60 95 -64v-69h-271v69c57 3 76 15 83 61l63 430c0 53 -18 70 -84 73v69h287c2 -23 7 -38 16 -64l135 -363l127 363c9 26 15 41 17 64h282v-69c-66 -3 -83 -20 -83 -73l62 -430
c7 -49 28 -58 84 -61v-69h-380v69c71 4 95 16 95 64c0 4 -1 17 -2 25z" />
    <glyph glyph-name="N" unicode="N" horiz-adv-x="778" 
d="M110 137v447c-29 40 -44 45 -79 49v69h272l289 -380v243c0 53 -23 65 -88 68v69h256v-69c-66 -3 -78 -15 -78 -68v-565h-81l-401 503v-366c0 -53 22 -65 88 -68v-69h-257v69c67 3 79 15 79 68z" />
    <glyph glyph-name="O" unicode="O" horiz-adv-x="766" 
d="M395 64c92 0 127 121 127 271c0 182 -48 303 -151 303c-92 0 -127 -121 -127 -271c0 -182 48 -303 151 -303zM392 712c220 0 340 -161 340 -347c0 -230 -153 -375 -358 -375c-220 0 -340 161 -340 347c0 230 153 375 358 375z" />
    <glyph glyph-name="P" unicode="P" horiz-adv-x="687" 
d="M387 268h-77v-131c0 -53 30 -64 114 -68v-69h-393v69c67 3 79 15 79 68v428c0 53 -12 65 -79 68v69h356c194 0 281 -95 281 -216c0 -138 -88 -218 -281 -218zM310 630v-296h28c85 0 134 53 134 152c0 90 -56 144 -141 144h-21z" />
    <glyph glyph-name="Q" unicode="Q" horiz-adv-x="766" 
d="M392 712c220 0 340 -161 340 -347c0 -191 -105 -323 -257 -363l65 -50c50 -39 82 -61 136 -61v-35c-27 -22 -64 -34 -118 -34c-73 0 -139 27 -202 111l-47 62c-179 28 -275 175 -275 342c0 230 153 375 358 375zM395 64c92 0 127 121 127 271c0 182 -48 303 -151 303
c-92 0 -127 -121 -127 -271c0 -182 48 -303 151 -303z" />
    <glyph glyph-name="R" unicode="R" horiz-adv-x="762" 
d="M329 630h-22v-273h20c106 0 153 45 153 141c0 88 -56 132 -151 132zM31 702h370c188 0 276 -78 276 -205c0 -87 -61 -151 -140 -174l114 -182c36 -58 57 -71 107 -72v-69h-229c-29 25 -55 59 -83 110l-97 179h-42v-152c0 -53 10 -65 76 -68v-69h-352v69c67 3 79 15 79 68
v428c0 53 -12 65 -79 65v72z" />
    <glyph glyph-name="S" unicode="S" horiz-adv-x="614" 
d="M295 -10c-102 0 -192 30 -242 67l-11 167h101c28 -113 75 -165 168 -165c61 0 106 28 106 88c0 50 -31 74 -140 103c-157 42 -228 102 -228 232c0 145 108 230 259 230c98 0 175 -24 225 -60v-153h-86c-28 82 -59 145 -152 145c-65 0 -98 -37 -98 -82
c0 -60 37 -81 141 -107c149 -38 234 -96 234 -238c0 -157 -123 -227 -277 -227z" />
    <glyph glyph-name="T" unicode="T" horiz-adv-x="714" 
d="M30 702h654l15 -237h-79c-45 112 -66 170 -145 170h-20v-498c0 -53 18 -65 84 -68v-69h-366v69c67 3 86 15 86 68v498h-21c-79 0 -100 -58 -145 -170h-78z" />
    <glyph glyph-name="U" unicode="U" horiz-adv-x="775" 
d="M298 565v-297c0 -104 29 -172 131 -172c88 0 153 37 153 181v288c0 53 -22 65 -88 68v69h261v-69c-66 -3 -79 -15 -79 -68v-318c0 -175 -123 -257 -276 -257c-193 0 -302 86 -302 258v317c0 53 -12 65 -78 68v69h354v-69c-65 -3 -76 -15 -76 -68z" />
    <glyph glyph-name="V" unicode="V" horiz-adv-x="735" 
d="M438 259l116 290c6 15 10 29 10 40c0 29 -11 41 -70 44v69h234v-69c-28 -5 -46 -10 -58 -37l-256 -600h-58l-292 600c-13 27 -29 32 -57 37v69h357v-69c-59 -3 -71 -14 -71 -44c0 -11 4 -26 10 -40z" />
    <glyph glyph-name="W" unicode="W" horiz-adv-x="1031" 
d="M756 278l93 253c10 29 15 47 15 58c0 29 -10 41 -69 44v69h229v-69c-27 -5 -48 -9 -59 -37l-225 -600h-75l-138 385l-145 -385h-73l-245 600c-11 25 -30 32 -57 37v69h338v-69c-43 -4 -59 -16 -59 -44c0 -11 4 -27 13 -50l104 -268l84 221l-35 104c-9 23 -23 32 -50 37
v69h328v-69c-60 -3 -69 -15 -69 -44c0 -11 2 -26 14 -62z" />
    <glyph glyph-name="X" unicode="X" horiz-adv-x="754" 
d="M639 599l-169 -201l215 -295c13 -17 33 -30 62 -34v-69h-341v69c35 0 47 9 47 33c0 11 -7 23 -22 43l-98 133l-110 -133c-16 -19 -20 -32 -20 -43c0 -24 14 -33 55 -33v-69h-251v69c41 0 66 17 79 34l195 242l-186 254c-12 16 -27 32 -56 34v69h348v-69
c-39 0 -55 -9 -55 -32c0 -13 7 -24 23 -44l68 -91l74 91c14 16 21 32 21 44c0 23 -15 32 -52 32v69h248v-69c-37 0 -60 -16 -75 -34z" />
    <glyph glyph-name="Y" unicode="Y" horiz-adv-x="711" 
d="M413 343l104 190c15 27 24 46 24 61c0 27 -21 37 -67 39v69h230v-69c-28 -5 -44 -11 -58 -37l-189 -340v-119c0 -53 18 -65 85 -68v-69h-366v69c66 3 85 15 85 68v120l-197 339c-15 26 -29 32 -57 37v69h346v-69c-52 -2 -65 -12 -65 -39c0 -18 9 -35 23 -61z" />
    <glyph glyph-name="Z" unicode="Z" horiz-adv-x="649" 
d="M257 72h128c71 0 93 20 169 162h76l-35 -234h-573v48l359 581h-121c-81 0 -92 -53 -133 -137h-71v210h557v-49z" />
    <glyph glyph-name="bracketleft" unicode="[" horiz-adv-x="357" 
d="M209 658v-687c0 -52 33 -55 113 -60v-52h-237v911h237v-52c-80 -5 -113 -8 -113 -60z" />
    <glyph glyph-name="backslash" unicode="\" horiz-adv-x="442" 
d="M310 -121l-272 891h107l272 -891h-107z" />
    <glyph glyph-name="bracketright" unicode="]" horiz-adv-x="357" 
d="M148 -29v687c0 52 -33 55 -113 60v52h237v-911h-237v52c80 5 113 8 113 60z" />
    <glyph glyph-name="asciicircum" unicode="^" horiz-adv-x="490" 
d="M185 770h120l145 -290h-117l-88 188l-88 -188h-117z" />
    <glyph glyph-name="underscore" unicode="_" horiz-adv-x="440" 
d="M420 -169h-400v103h400v-103z" />
    <glyph glyph-name="quoteleft" unicode="&#x2018;" horiz-adv-x="320" 
d="M160 640h43c43 -9 67 -41 67 -91c0 -49 -34 -91 -96 -91c-66 0 -109 43 -109 127c0 114 68 181 209 185v-59c-69 -6 -104 -22 -114 -71z" />
    <glyph glyph-name="a" unicode="a" horiz-adv-x="591" 
d="M279 102c20 0 31 4 45 13v165l-59 -24c-35 -14 -49 -35 -49 -75c0 -48 23 -79 63 -79zM510 342c0 -4 -1 -190 -1 -195c0 -30 4 -52 30 -52c8 0 28 2 42 6l9 -51c-34 -32 -90 -60 -146 -60c-59 0 -98 37 -117 91c-31 -43 -78 -87 -158 -87c-84 0 -141 53 -141 141
s64 121 135 145l161 56v62c0 77 -16 101 -56 101c-35 0 -51 -26 -51 -62c0 -23 2 -45 9 -69l-120 -18c-29 10 -43 37 -43 70c0 97 93 140 222 140c143 0 225 -45 225 -218z" />
    <glyph glyph-name="b" unicode="b" horiz-adv-x="663" 
d="M70 626l-55 59v37l210 39h34v-298c30 57 82 97 159 97c128 0 212 -92 212 -256c0 -196 -132 -314 -302 -314c-94 0 -194 18 -258 68v568zM329 59c71 0 109 80 109 191c0 125 -50 194 -122 194c-20 0 -40 -4 -57 -13v-274c0 -60 16 -98 70 -98z" />
    <glyph glyph-name="c" unicode="c" horiz-adv-x="542" 
d="M203 332c0 -119 49 -201 147 -201c55 0 103 27 137 72l34 -23c-35 -132 -119 -190 -238 -190c-145 0 -251 102 -251 264c0 176 113 306 286 306c103 0 196 -49 196 -146c0 -41 -18 -68 -43 -78h-97v52c0 59 -14 101 -68 101s-103 -54 -103 -157z" />
    <glyph glyph-name="d" unicode="d" horiz-adv-x="676" 
d="M404 -10v98c-31 -58 -81 -98 -166 -98c-120 0 -205 92 -205 256c0 197 121 307 282 307c38 0 71 -9 89 -24v97l-55 59v37l211 39h32v-616c0 -34 8 -53 38 -54h24v-69l-212 -32h-38zM334 487c-71 0 -109 -77 -109 -187c0 -122 46 -195 123 -195c20 0 39 5 56 12v271
c0 66 -17 99 -70 99z" />
    <glyph glyph-name="e" unicode="e" horiz-adv-x="561" 
d="M306 560c145 0 220 -104 220 -229v-39h-327c0 -98 64 -159 152 -159c64 0 110 24 144 68l33 -22c-26 -114 -108 -189 -236 -189c-149 0 -260 101 -260 267c0 183 124 303 274 303zM289 491c-57 0 -81 -64 -88 -139h164c-1 82 -24 139 -76 139z" />
    <glyph glyph-name="f" unicode="f" horiz-adv-x="417" 
d="M286 475v-353c0 -44 23 -47 79 -55v-67h-327v67c45 6 60 11 60 57v351h-76v62l76 18v6c0 158 111 209 237 209c107 0 158 -34 158 -96c0 -31 -16 -51 -35 -64h-90v38c0 35 -5 63 -37 63c-33 0 -47 -26 -47 -71v-90h116v-75h-114z" />
    <glyph glyph-name="g" unicode="g" horiz-adv-x="597" 
d="M286 197c-36 0 -74 4 -108 15c-17 -20 -26 -32 -26 -47c0 -14 8 -21 24 -21h241c119 0 176 -59 176 -149c0 -129 -123 -202 -310 -202c-162 0 -262 38 -262 117c0 49 50 75 89 82c-41 16 -73 48 -73 104c0 54 36 90 107 129c-55 26 -96 72 -96 144c0 120 104 191 247 191
c41 0 74 -6 101 -13l185 7v-92h-44l-78 17v-6c45 -20 70 -52 70 -102c0 -111 -104 -174 -243 -174zM397 -33h-258c-5 -6 -7 -17 -7 -30c0 -56 59 -83 154 -83c89 0 163 17 163 75c0 27 -21 38 -52 38zM293 254c40 0 54 41 54 108c0 80 -21 140 -67 140
c-41 0 -54 -42 -54 -108c0 -77 21 -140 67 -140z" />
    <glyph glyph-name="h" unicode="h" horiz-adv-x="697" 
d="M271 761v-306c42 47 106 105 193 105c98 0 153 -53 153 -164v-272c0 -46 15 -51 60 -57v-67h-304v67c45 6 56 11 56 57v254c0 41 -15 63 -62 63c-38 0 -69 -8 -96 -17v-300c0 -46 11 -51 56 -57v-67h-305v67c46 6 61 11 61 57v502l-56 59v37l212 39h32z" />
    <glyph glyph-name="i" unicode="i" horiz-adv-x="366" 
d="M281 561v-437c0 -46 16 -51 61 -57v-67h-310v67c45 6 61 11 61 57v295l-56 60v31l211 51h33zM185 593c-64 0 -103 44 -103 95s39 95 103 95s102 -44 102 -95s-38 -95 -102 -95z" />
    <glyph glyph-name="j" unicode="j" horiz-adv-x="323" 
d="M262 561v-429c0 -115 -29 -170 -72 -219c-51 -57 -99 -94 -155 -122l-36 34l41 69c32 54 33 117 33 195v330l-55 60v31l211 51h33zM166 593c-64 0 -103 44 -103 95s39 95 103 95c63 0 102 -44 102 -95s-39 -95 -102 -95z" />
    <glyph glyph-name="k" unicode="k" horiz-adv-x="663" 
d="M278 292l127 122c14 15 27 26 27 38c0 22 -17 26 -63 32v66h264v-66c-39 -10 -68 -16 -93 -41l-89 -88l202 -303v-52h-192zM271 761v-637c0 -46 16 -51 61 -57v-67h-310v67c46 6 61 11 61 57v502l-56 59v37l212 39h32z" />
    <glyph glyph-name="l" unicode="l" horiz-adv-x="355" 
d="M270 761v-637c0 -46 15 -51 60 -57v-67h-308v67c46 6 60 11 60 57v502l-55 59v37l210 39h33z" />
    <glyph glyph-name="m" unicode="m" horiz-adv-x="1035" 
d="M1015 0h-300v67c45 6 52 11 52 57v254c0 45 -16 63 -65 63c-34 0 -55 -8 -84 -17v-300c0 -46 8 -51 53 -57v-67h-294v67c45 6 53 11 53 57v254c0 45 -17 63 -65 63c-34 0 -55 -8 -84 -17v-300c0 -46 8 -51 53 -57v-67h-302v67c45 6 61 11 61 57v291l-56 59v36l211 55h33
v-110c41 47 95 105 184 105c66 0 126 -34 146 -110c42 46 106 110 199 110c90 0 145 -48 145 -162v-274c0 -46 15 -51 60 -57v-67z" />
    <glyph glyph-name="n" unicode="n" horiz-adv-x="706" 
d="M438 124v254c0 41 -14 63 -61 63c-38 0 -69 -8 -96 -17v-300c0 -46 11 -51 56 -57v-67h-305v67c45 6 61 11 61 57v291l-56 59v36l211 55h33v-110c41 47 106 105 193 105c98 0 152 -53 152 -164v-272c0 -46 15 -51 60 -57v-67h-303v67c45 6 55 11 55 57z" />
    <glyph glyph-name="o" unicode="o" horiz-adv-x="637" 
d="M328 61c54 0 83 77 83 184c0 140 -37 245 -102 245c-55 0 -84 -78 -84 -185c0 -140 37 -244 103 -244zM310 -10c-168 0 -278 120 -278 276c0 180 125 294 294 294s279 -120 279 -275c0 -181 -126 -295 -295 -295z" />
    <glyph glyph-name="p" unicode="p" horiz-adv-x="679" 
d="M275 12v-85c0 -46 15 -51 60 -57v-67h-309v67c45 6 61 11 61 57v488l-56 59v36l211 55h33v-102c31 57 83 97 160 97c126 0 211 -92 211 -256c0 -196 -122 -314 -285 -314c-35 0 -69 9 -86 22zM346 59c70 0 109 80 109 191c0 125 -50 194 -122 194c-21 0 -40 -4 -58 -13
v-268c0 -66 17 -104 71 -104z" />
    <glyph glyph-name="q" unicode="q" horiz-adv-x="658" 
d="M315 560c74 0 126 -21 167 -64l47 63h69l-6 -123v-509c0 -46 16 -51 61 -57v-67h-309v67c45 6 60 11 60 57v161c-31 -58 -81 -98 -166 -98c-120 0 -205 92 -205 256c0 197 121 314 282 314zM334 494c-71 0 -109 -84 -109 -194c0 -122 46 -195 123 -195c20 0 39 5 56 12
v278c0 66 -17 99 -70 99z" />
    <glyph glyph-name="r" unicode="r" horiz-adv-x="486" 
d="M281 565v-175c40 134 82 170 152 170c22 0 33 -5 45 -12v-158h-24c-63 0 -128 -4 -173 -36v-232c0 -44 23 -47 80 -55v-67h-329v67c45 6 61 11 61 57v291l-56 59v36l210 55h34z" />
    <glyph glyph-name="s" unicode="s" horiz-adv-x="516" 
d="M254 -10c-90 0 -160 26 -207 58l-6 121h86c18 -76 58 -113 133 -113c50 0 85 19 85 57c0 39 -24 53 -113 73c-129 29 -191 82 -191 185c0 122 85 189 218 189c71 0 137 -18 181 -47v-110h-83c-15 56 -45 91 -106 91c-46 0 -70 -24 -70 -57c0 -34 16 -52 109 -69
c110 -21 191 -70 191 -183c0 -125 -84 -195 -227 -195z" />
    <glyph glyph-name="t" unicode="t" horiz-adv-x="422" 
d="M264 677v-127h133v-75h-133v-308c0 -47 19 -69 62 -69c24 0 50 7 74 19l20 -51c-49 -50 -111 -76 -185 -76c-107 0 -161 50 -161 159v326h-66v55c68 22 145 84 197 147h59z" />
    <glyph glyph-name="u" unicode="u" horiz-adv-x="687" 
d="M413 -10v98c-36 -46 -98 -98 -188 -98c-88 0 -149 53 -149 170v231c0 29 -6 52 -38 59l-15 5v57l207 48h35v-382c0 -50 22 -76 61 -76c36 0 60 7 87 16v273c0 29 -6 52 -38 59l-14 5v57l205 48h36v-415c0 -34 7 -53 37 -54h24v-69l-212 -32h-38z" />
    <glyph glyph-name="v" unicode="v" horiz-adv-x="621" 
d="M616 550v-66c-34 -12 -47 -18 -56 -40l-215 -448h-57l-227 448c-11 21 -21 28 -56 40v66h336v-66c-52 -7 -67 -12 -67 -36c0 -8 2 -17 9 -32l85 -196l89 196c6 16 8 24 8 32c0 24 -15 29 -67 36v66h218z" />
    <glyph glyph-name="w" unicode="w" horiz-adv-x="900" 
d="M674 242l69 173c5 13 7 25 7 33c0 24 -16 31 -46 36v66h191v-66c-34 -12 -47 -18 -56 -40l-186 -448h-61l-130 315l-140 -315h-60l-201 448c-10 22 -21 28 -56 40v66h307v-66c-29 -5 -38 -16 -38 -33c0 -11 4 -22 10 -37l70 -178l70 162l-18 46c-9 23 -19 34 -44 40v66
h286v-66c-35 -5 -46 -12 -46 -34c0 -11 4 -24 8 -35z" />
    <glyph glyph-name="x" unicode="x" horiz-adv-x="623" 
d="M72 107l138 171l-134 166c-12 15 -19 26 -50 40v66h319v-66c-28 -4 -47 -8 -47 -28c0 -13 7 -22 18 -36l50 -63l52 63c12 13 17 24 17 35c0 20 -16 24 -43 29v66h203v-66c-29 -15 -51 -27 -64 -43l-118 -144l146 -190c13 -17 30 -36 59 -40v-67h-330v67c36 4 54 10 54 32
c0 11 -7 21 -16 32l-71 89l-67 -88c-8 -10 -14 -22 -14 -33c0 -21 17 -27 52 -32v-67h-221v67c31 5 52 22 67 40z" />
    <glyph glyph-name="y" unicode="y" horiz-adv-x="622" 
d="M275 -2l-214 446c-10 21 -21 28 -56 40v66h336v-66c-52 -7 -68 -12 -68 -36c0 -8 2 -17 11 -39l84 -204l86 205c9 22 11 30 11 38c0 24 -14 29 -66 36v66h218v-66c-35 -12 -46 -18 -56 -40l-231 -517c-42 -93 -87 -135 -157 -135c-39 0 -71 16 -86 39v95h60
c70 0 96 4 123 62z" />
    <glyph glyph-name="z" unicode="z" horiz-adv-x="575" 
d="M26 0v47l280 435h-84c-56 0 -70 -34 -112 -139h-69v207h488v-50l-272 -431h77c66 0 85 30 138 139h70l-23 -208h-493z" />
    <glyph glyph-name="braceleft" unicode="{" horiz-adv-x="393" 
d="M50 297v36c48 10 83 36 83 100v209c0 79 67 128 225 128v-41c-47 -6 -95 -31 -95 -98v-204c0 -68 -24 -92 -91 -112c67 -20 91 -44 91 -112v-204c0 -67 48 -92 95 -98v-42c-158 0 -225 49 -225 128v210c0 64 -35 90 -83 100z" />
    <glyph glyph-name="bar" unicode="|" horiz-adv-x="302" 
d="M202 770v-911h-102v911h102z" />
    <glyph glyph-name="braceright" unicode="}" horiz-adv-x="393" 
d="M343 333v-36c-48 -10 -83 -36 -83 -100v-210c0 -79 -67 -128 -225 -128v42c47 6 95 31 95 98v204c0 68 24 92 91 112c-67 20 -91 44 -91 112v204c0 67 -48 92 -95 98v41c158 0 225 -49 225 -128v-209c0 -64 35 -90 83 -100z" />
    <glyph glyph-name="asciitilde" unicode="~" horiz-adv-x="582" 
d="M470 447l62 -19c-38 -140 -100 -184 -172 -184c-55 0 -115 63 -159 63c-33 0 -64 -22 -89 -62l-62 19c38 140 100 184 172 184c55 0 115 -63 159 -63c33 0 64 22 89 62z" />
    <glyph glyph-name="exclamdown" unicode="&#xa1;" horiz-adv-x="336" 
d="M66 449c0 56 46 103 101 103c57 0 102 -47 102 -103c0 -59 -45 -106 -102 -106c-55 0 -101 47 -101 106zM212 302l59 -461h-206l59 461h88z" />
    <glyph glyph-name="cent" unicode="&#xa2;" horiz-adv-x="603" 
d="M216 -117l21 116c-118 27 -198 120 -198 263c0 185 133 306 301 308l20 107h58l-20 -110c92 -12 159 -55 159 -138c0 -40 -21 -59 -49 -70h-77v44c0 55 -14 83 -46 96l-66 -365c17 -5 34 -8 54 -8c71 0 114 34 150 80l45 -23c-36 -129 -125 -193 -255 -193
c-7 0 -13 0 -20 1l-19 -108h-58zM206 327c0 -74 22 -130 61 -164l62 344c-69 -1 -123 -61 -123 -180z" />
    <glyph glyph-name="sterling" unicode="&#xa3;" horiz-adv-x="722" 
d="M105 334v58h102l2 40c6 181 90 280 247 280c110 0 201 -33 201 -131c0 -40 -23 -66 -46 -76h-107v63c0 53 -13 84 -48 84c-34 0 -47 -34 -51 -77l-16 -183h160v-58h-165l-3 -38c-4 -49 -14 -97 -25 -123c49 -14 131 -37 199 -37c60 0 71 21 71 86l45 11
c11 -21 19 -49 19 -89c0 -99 -58 -154 -166 -154c-91 0 -170 48 -215 85c-37 -56 -105 -85 -180 -85c-73 0 -122 45 -122 114c0 74 52 116 120 116c21 0 50 -3 74 -13l4 127h-100zM130 47c42 0 64 34 66 91c-19 11 -43 20 -69 20c-36 0 -53 -23 -53 -54c0 -37 23 -57 56 -57
z" />
    <glyph glyph-name="fraction" unicode="&#x2044;" horiz-adv-x="283" 
d="M-160 0l517 780h86l-517 -780h-86z" />
    <glyph glyph-name="yen" unicode="&#xa5;" horiz-adv-x="711" 
d="M102 332v58h82l-120 206c-15 26 -29 32 -57 37v69h346v-69c-52 -2 -65 -12 -65 -39c0 -18 9 -35 23 -61l102 -191l104 191c15 27 24 46 24 61c0 27 -21 37 -67 39v69h230v-69c-28 -5 -44 -11 -58 -37l-115 -206h92v-58h-124l-38 -68h162v-57h-166v-70
c0 -53 18 -65 85 -68v-69h-366v69c66 3 85 15 85 68v70h-159v57h155l-40 68h-115z" />
    <glyph glyph-name="florin" unicode="&#x192;" horiz-adv-x="560" 
d="M45 289l8 62h93l5 42c23 211 101 319 260 319c72 0 149 -22 149 -93c0 -30 -13 -56 -47 -67h-64c0 58 -3 110 -40 110c-27 0 -38 -28 -41 -58l-28 -253h111l-5 -62h-112l-16 -145c-23 -211 -101 -319 -260 -319c-72 0 -149 22 -149 93c0 30 13 56 47 67h64
c0 -58 3 -110 40 -110c27 0 38 28 41 58l38 356h-94z" />
    <glyph glyph-name="section" unicode="&#xa7;" horiz-adv-x="531" 
d="M230 -203c-95 0 -164 45 -164 114c0 36 22 53 45 61h94v-36c0 -32 8 -90 65 -90c41 0 58 34 58 66c0 66 -88 155 -158 253c-69 97 -123 192 -123 308c0 146 112 239 254 239c95 0 164 -45 164 -114c0 -36 -22 -53 -45 -61h-94v36c0 32 -8 90 -65 90
c-41 0 -58 -34 -58 -66c0 -66 88 -155 158 -253c69 -97 124 -192 124 -308c0 -146 -113 -239 -255 -239zM392 -92c16 25 29 69 29 128c0 84 -52 181 -125 277c-70 92 -157 208 -157 288c-16 -25 -29 -69 -29 -128c0 -84 52 -181 125 -277c70 -92 157 -208 157 -288z" />
    <glyph glyph-name="currency" unicode="&#xa4;" horiz-adv-x="582" 
d="M57 159l72 74c-22 31 -35 71 -35 116s13 85 36 117l-73 73l45 44l73 -73c32 23 72 36 116 36c43 0 84 -13 116 -36l73 72l44 -44l-72 -73c22 -31 36 -71 36 -116c0 -46 -14 -85 -36 -117l73 -72l-45 -44l-73 72c-32 -23 -73 -36 -116 -36c-44 0 -84 13 -117 36l-73 -73z
M180 349c0 -67 48 -117 111 -117s111 50 111 117s-48 117 -111 117s-111 -50 -111 -117z" />
    <glyph glyph-name="quotesingle" unicode="'" horiz-adv-x="246" 
d="M141 447h-36l-43 148c-9 31 -22 71 -22 94c0 42 28 81 83 81s83 -39 83 -81c0 -23 -13 -63 -22 -94z" />
    <glyph glyph-name="quotedblleft" unicode="&#x201c;" horiz-adv-x="577" 
d="M160 640h43c43 -9 67 -41 67 -91c0 -49 -34 -91 -96 -91c-66 0 -109 43 -109 127c0 114 68 181 209 185v-59c-69 -6 -104 -22 -114 -71zM417 640h43c43 -9 67 -41 67 -91c0 -49 -34 -91 -96 -91c-66 0 -109 43 -109 127c0 114 68 181 209 185v-59
c-69 -6 -104 -22 -114 -71z" />
    <glyph glyph-name="guillemotleft" unicode="&#xab;" horiz-adv-x="564" 
d="M35 271v10l181 200h87l-113 -205l113 -205h-87zM260 271v10l181 200h88l-114 -205l114 -205h-88z" />
    <glyph glyph-name="guilsinglleft" unicode="&#x2039;" horiz-adv-x="338" 
d="M35 271v10l181 200h87l-113 -205l113 -205h-87z" />
    <glyph glyph-name="guilsinglright" unicode="&#x203a;" horiz-adv-x="338" 
d="M303 281v-10l-179 -200h-89l114 205l-114 205h89z" />
    <glyph glyph-name="endash" unicode="&#x2013;" horiz-adv-x="580" 
d="M530 262h-480v86h480v-86z" />
    <glyph glyph-name="dagger" unicode="&#x2020;" horiz-adv-x="502" 
d="M45 605l175 -22l-22 175h105l-23 -175l177 22v-101l-177 21l23 -303h-105l23 303l-176 -21v101z" />
    <glyph glyph-name="daggerdbl" unicode="&#x2021;" horiz-adv-x="502" 
d="M221 552l-176 -21v101l175 -22l-22 148h105l-23 -148l177 22v-101l-177 21v-124l177 21v-101l-177 22l23 -148h-105l22 148l-175 -22v101l176 -21v124z" />
    <glyph glyph-name="periodcentered" unicode="&#xb7;" horiz-adv-x="315" 
d="M50 305c0 63 48 108 107 108c60 0 108 -45 108 -108s-48 -107 -108 -107c-59 0 -107 44 -107 107z" />
    <glyph glyph-name="paragraph" unicode="&#xb6;" horiz-adv-x="669" 
d="M323 -197v391c-178 0 -278 118 -278 254s100 254 278 254h316v-69c-80 0 -102 -12 -102 -73v-757h-74v840h-66v-840h-74zM323 249v398c-71 -9 -103 -101 -103 -199s32 -190 103 -199z" />
    <glyph glyph-name="bullet" unicode="&#x2022;" horiz-adv-x="422" 
d="M50 309c0 91 73 165 161 165c89 0 161 -74 161 -165c0 -89 -72 -164 -161 -164c-88 0 -161 75 -161 164z" />
    <glyph glyph-name="quotesinglbase" unicode="&#x201a;" horiz-adv-x="320" 
d="M170 9h-43c-43 9 -67 41 -67 91c0 49 34 91 96 91c66 0 109 -43 109 -127c0 -114 -68 -181 -209 -185v59c69 6 104 22 114 71z" />
    <glyph glyph-name="quotedblbase" unicode="&#x201e;" horiz-adv-x="577" 
d="M427 9h-43c-43 9 -67 41 -67 91c0 49 34 91 96 91c66 0 109 -43 109 -127c0 -114 -68 -181 -209 -185v59c69 6 104 22 114 71zM170 9h-43c-43 9 -67 41 -67 91c0 49 34 91 96 91c66 0 109 -43 109 -127c0 -114 -68 -181 -209 -185v59c69 6 104 22 114 71z" />
    <glyph glyph-name="quotedblright" unicode="&#x201d;" horiz-adv-x="577" 
d="M427 588h-43c-43 9 -67 41 -67 91c0 49 34 91 96 91c66 0 109 -43 109 -127c0 -114 -68 -181 -209 -185v59c69 6 104 22 114 71zM170 588h-43c-43 9 -67 41 -67 91c0 49 34 91 96 91c66 0 109 -43 109 -127c0 -114 -68 -181 -209 -185v59c69 6 104 22 114 71z" />
    <glyph glyph-name="guillemotright" unicode="&#xbb;" horiz-adv-x="564" 
d="M303 281v-10l-179 -200h-89l114 205l-114 205h89zM529 281v-10l-180 -200h-88l114 205l-114 205h88z" />
    <glyph glyph-name="ellipsis" unicode="&#x2026;" horiz-adv-x="915" 
d="M45 97c0 63 48 108 107 108c60 0 108 -45 108 -108s-48 -107 -108 -107c-59 0 -107 44 -107 107zM350 97c0 63 48 108 107 108c60 0 108 -45 108 -108s-48 -107 -108 -107c-59 0 -107 44 -107 107zM655 97c0 63 48 108 107 108c60 0 108 -45 108 -108s-48 -107 -108 -107
c-59 0 -107 44 -107 107z" />
    <glyph glyph-name="perthousand" unicode="&#x2030;" horiz-adv-x="1340" 
d="M164 523c0 -82 21 -140 60 -140c38 0 59 58 59 140c0 83 -21 141 -59 141c-39 0 -60 -58 -60 -141zM202 -19l448 741h78l-450 -741h-76zM35 523c0 126 89 189 189 189c99 0 188 -63 188 -189c0 -125 -89 -188 -188 -188c-100 0 -189 63 -189 188zM766 179
c0 82 -21 140 -60 140c-38 0 -59 -58 -59 -140c0 -83 21 -141 59 -141c39 0 60 58 60 141zM895 179c0 -126 -89 -189 -189 -189c-99 0 -188 63 -188 189c0 125 89 188 188 188c100 0 189 -63 189 -188zM1176 179c0 82 -21 140 -60 140c-38 0 -59 -58 -59 -140
c0 -83 21 -141 59 -141c39 0 60 58 60 141zM1305 179c0 -126 -89 -189 -189 -189c-99 0 -188 63 -188 189c0 125 89 188 188 188c100 0 189 -63 189 -188z" />
    <glyph glyph-name="questiondown" unicode="&#xbf;" horiz-adv-x="480" 
d="M186 -37c0 -44 25 -63 61 -63c50 0 68 37 68 82v53h110c28 -14 39 -39 39 -66c0 -81 -81 -138 -218 -138c-140 0 -220 55 -220 167c0 81 41 130 117 173c69 38 81 68 81 106v26h54c33 -19 62 -56 62 -103c0 -43 -17 -83 -61 -117c-48 -38 -93 -68 -93 -120zM354 448
c0 -59 -45 -106 -101 -106c-57 0 -102 47 -102 106c0 56 45 103 102 103c56 0 101 -47 101 -103z" />
    <glyph glyph-name="grave" unicode="`" horiz-adv-x="500" 
d="M122 766h184l67 -160h-96z" />
    <glyph glyph-name="acute" unicode="&#xb4;" horiz-adv-x="500" 
d="M194 766h184l-155 -160h-97z" />
    <glyph glyph-name="circumflex" unicode="&#x2c6;" horiz-adv-x="500" 
d="M318 766l138 -169h-95l-111 80l-111 -80h-95l138 169h136z" />
    <glyph glyph-name="tilde" unicode="&#x2dc;" horiz-adv-x="500" 
d="M391 773l60 -12c-54 -126 -83 -149 -141 -149c-56 0 -99 60 -136 60c-29 0 -46 -25 -65 -55l-60 12c54 126 82 149 141 149c65 0 98 -60 136 -60c28 0 46 24 65 55z" />
    <glyph glyph-name="macron" unicode="&#xaf;" horiz-adv-x="500" 
d="M96 626v101h308v-101h-308z" />
    <glyph glyph-name="breve" unicode="&#x2d8;" horiz-adv-x="500" 
d="M258 603c-101 0 -159 64 -159 170h70c9 -62 52 -78 89 -78s80 16 89 78h70c0 -106 -58 -170 -159 -170z" />
    <glyph glyph-name="dotaccent" unicode="&#x2d9;" horiz-adv-x="500" 
d="M251 598c-64 0 -103 44 -103 95s39 95 103 95s102 -44 102 -95s-38 -95 -102 -95z" />
    <glyph glyph-name="dieresis" unicode="&#xa8;" horiz-adv-x="500" 
d="M50 691c0 48 40 88 89 88s90 -40 90 -88s-41 -88 -90 -88s-89 40 -89 88zM270 691c0 48 41 88 88 88c51 0 91 -40 91 -88s-40 -88 -91 -88c-47 0 -88 40 -88 88z" />
    <glyph glyph-name="ring" unicode="&#x2da;" horiz-adv-x="500" 
d="M148 698c0 57 47 101 113 101s113 -44 113 -101s-47 -101 -113 -101s-113 44 -113 101zM307 698c0 25 -16 44 -46 44s-46 -19 -46 -44s16 -44 46 -44s46 19 46 44z" />
    <glyph glyph-name="cedilla" unicode="&#xb8;" horiz-adv-x="500" 
d="M148 -233l-11 49c72 0 115 12 115 39c0 25 -38 34 -85 36l48 117h50l-19 -52c59 -6 97 -29 97 -78c0 -74 -95 -111 -195 -111z" />
    <glyph glyph-name="hungarumlaut" unicode="&#x2dd;" horiz-adv-x="500" 
d="M112 766h158l-137 -160h-88zM307 766h158l-137 -160h-88z" />
    <glyph glyph-name="ogonek" unicode="&#x2db;" horiz-adv-x="500" 
d="M325 43l13 -24c-62 -31 -93 -71 -93 -111c0 -22 12 -41 43 -41c20 0 41 3 70 20l19 -28c-45 -50 -88 -75 -145 -75c-52 0 -96 31 -96 84c0 89 96 141 189 175z" />
    <glyph glyph-name="caron" unicode="&#x2c7;" horiz-adv-x="500" 
d="M456 775l-138 -169h-136l-138 169h95l111 -80l111 80h95z" />
    <glyph glyph-name="emdash" unicode="&#x2014;" horiz-adv-x="1000" 
d="M950 348v-86h-900v86h900z" />
    <glyph glyph-name="AE" unicode="&#xc6;" horiz-adv-x="1057" 
d="M64 106l139 204v2h1l191 281c-11 27 -29 37 -87 40v69h688v-192h-78c-31 81 -56 122 -136 122h-97v-234h74c44 0 62 18 72 78h66v-229h-66c-10 60 -28 78 -72 78h-74v-188c0 -54 27 -67 80 -67h25c70 0 102 37 166 138h76l-31 -208h-593v69c67 3 79 15 79 68v106h-233
l-48 -71c-18 -26 -24 -46 -24 -60c0 -31 12 -40 72 -43v-69h-247v69c27 5 40 13 57 37zM487 586l-186 -274h186v274z" />
    <glyph glyph-name="ordfeminine" unicode="&#xaa;" horiz-adv-x="478" 
d="M210 396c16 0 29 4 43 14v111l-40 -16c-32 -14 -46 -30 -46 -59c0 -33 20 -50 43 -50zM386 568c0 -41 -2 -125 -2 -140c0 -25 8 -38 24 -38c7 0 18 1 28 4l7 -36c-25 -24 -58 -43 -97 -43c-47 0 -76 29 -91 63c-25 -35 -72 -60 -119 -60c-60 0 -101 38 -101 99
c0 64 44 87 96 104l122 39v45c0 49 -11 71 -40 71c-26 0 -38 -17 -38 -43c0 -18 2 -32 7 -50l-94 -14c-19 7 -32 28 -32 52c0 67 69 101 166 101c108 0 164 -37 164 -154z" />
    <glyph glyph-name="Lslash" unicode="&#x141;" horiz-adv-x="669" 
d="M317 565v-142l132 48v-75l-132 -49v-208c0 -54 21 -67 75 -67h25c63 0 78 26 160 169h82l-38 -241h-583v69c67 3 79 15 79 68v144l-79 -28v75l79 28v209c0 52 -12 64 -79 67v70h356v-70c-66 -3 -77 -15 -77 -67z" />
    <glyph glyph-name="Oslash" unicode="&#xd8;" horiz-adv-x="770" 
d="M642 728l-44 -77c89 -63 136 -170 136 -286c0 -230 -153 -375 -358 -375c-52 0 -99 10 -139 25l-48 -84l-61 32l48 85c-92 63 -140 171 -140 289c0 230 153 375 358 375c54 0 102 -10 144 -28l43 76zM242 367c0 -69 6 -126 18 -171l218 384c-25 38 -60 58 -105 58
c-92 0 -131 -121 -131 -271zM397 64c92 0 131 121 131 271c0 65 -6 120 -17 164l-217 -382c25 -36 60 -53 103 -53z" />
    <glyph glyph-name="OE" unicode="&#x152;" horiz-adv-x="1056" 
d="M1000 0h-553c-262 0 -413 123 -413 343c0 224 161 359 395 359h566v-192h-78c-31 81 -56 122 -136 122h-97v-234h74c44 0 62 18 72 78h66v-229h-66c-10 60 -28 78 -72 78h-74v-188c0 -54 27 -67 80 -67h25c70 0 102 37 166 138h76zM486 70v562h-50
c-111 0 -190 -89 -190 -281c0 -172 80 -281 228 -281h12z" />
    <glyph glyph-name="ordmasculine" unicode="&#xba;" horiz-adv-x="477" 
d="M245 365c39 0 59 54 59 136c0 107 -28 170 -71 170c-39 0 -60 -54 -60 -136c0 -106 29 -170 72 -170zM233 315c-123 0 -203 80 -203 196c0 129 87 210 215 210c123 0 202 -80 202 -196c0 -129 -87 -210 -214 -210z" />
    <glyph glyph-name="ae" unicode="&#xe6;" horiz-adv-x="858" 
d="M603 560c145 0 220 -104 220 -229v-39h-327c0 -98 64 -159 152 -159c64 0 110 24 144 68l33 -22c-26 -114 -108 -189 -236 -189c-94 0 -171 40 -215 112c-50 -77 -125 -108 -195 -108c-92 0 -151 60 -151 141c0 88 63 125 142 147l170 47l3 11c-3 111 -25 159 -75 159
c-35 0 -51 -26 -51 -62c0 -23 2 -45 9 -69l-120 -18c-29 10 -43 37 -43 70c0 97 93 140 209 140c88 0 134 -20 164 -60c45 38 103 60 167 60zM586 491c-57 0 -81 -64 -88 -139h164c-1 82 -24 139 -76 139zM334 257v14l-67 -19c-35 -10 -51 -39 -51 -79c0 -38 23 -71 63 -71
c26 0 56 10 80 27c-16 36 -25 79 -25 128z" />
    <glyph glyph-name="dotlessi" unicode="&#x131;" horiz-adv-x="366" 
d="M281 561v-437c0 -46 16 -51 61 -57v-67h-310v67c45 6 61 11 61 57v295l-56 60v31l211 51h33z" />
    <glyph glyph-name="lslash" unicode="&#x142;" horiz-adv-x="388" 
d="M286 761v-257l85 46v-76l-85 -46v-304c0 -46 15 -51 60 -57v-67h-308v67c46 6 60 11 60 57v215l-79 -42v76l79 42v211l-55 59v37l210 39h33z" />
    <glyph glyph-name="oslash" unicode="&#xf8;" horiz-adv-x="637" 
d="M534 585l-43 -73c72 -49 114 -131 114 -227c0 -181 -126 -295 -295 -295c-43 0 -83 8 -117 22l-54 -90l-49 26l54 91c-71 49 -112 131 -112 227c0 180 125 294 294 294c42 0 81 -8 116 -22l43 73zM328 61c54 0 88 77 88 184c0 49 -3 91 -10 126l-155 -261
c18 -32 43 -49 77 -49zM220 305c0 -48 3 -90 9 -124l155 260c-18 32 -42 49 -75 49c-55 0 -89 -78 -89 -185z" />
    <glyph glyph-name="oe" unicode="&#x153;" horiz-adv-x="946" 
d="M326 560c77 0 141 -26 189 -75c47 45 111 75 176 75c145 0 220 -104 220 -229v-39h-327c0 -98 64 -159 152 -159c64 0 110 24 144 68l33 -22c-26 -114 -108 -189 -236 -189c-70 0 -134 27 -179 74c-50 -45 -115 -74 -188 -74c-168 0 -278 120 -278 276
c0 180 125 294 294 294zM328 61c54 0 83 77 83 184c0 140 -37 245 -102 245c-55 0 -84 -78 -84 -185c0 -140 37 -244 103 -244zM674 491c-57 0 -81 -64 -88 -139h164c-1 82 -24 139 -76 139z" />
    <glyph glyph-name="germandbls" unicode="&#xdf;" horiz-adv-x="775" 
d="M511 452c0 -21 12 -35 74 -69c90 -49 156 -96 156 -205c0 -118 -91 -188 -222 -188c-75 0 -129 23 -169 60l-6 121h86c11 -77 46 -115 92 -115c39 0 64 22 64 56c0 39 -19 59 -93 103c-86 51 -131 92 -131 165c0 104 135 126 135 241c0 54 -31 92 -90 92
c-74 0 -122 -57 -122 -151v-562h-247v67c45 6 60 11 60 57v341h-76v62l76 18c29 166 169 225 302 225c126 0 236 -49 236 -149c0 -104 -125 -115 -125 -169z" />
    <glyph glyph-name="onesuperior" unicode="&#xb9;" horiz-adv-x="391" 
d="M228 748h50v-363c0 -39 11 -42 73 -46v-52h-296v52c73 4 75 7 75 46v218h-75v48l28 6c79 17 108 43 145 91z" />
    <glyph glyph-name="mu" unicode="&#xb5;" horiz-adv-x="682" 
d="M249 -6l13 -155v-26l-186 -10v588c0 29 -6 52 -38 59l-15 5v57l207 48h35v-382c0 -50 22 -76 61 -76c36 0 55 7 82 16v273c0 29 -6 52 -38 59l-14 5v57l205 48h36v-415c0 -34 7 -53 37 -54h24v-69l-212 -32h-38v98c-28 -36 -68 -80 -129 -91c-11 -2 -23 -3 -30 -3z" />
    <glyph glyph-name="trademark" unicode="&#x2122;" horiz-adv-x="957" 
d="M50 702h327l6 -120h-36c-24 54 -37 82 -77 82h-8v-236c0 -28 11 -33 43 -35v-34h-183v34c32 2 42 7 42 35v236h-7c-42 0 -54 -28 -78 -82h-36zM638 501l49 162c6 15 8 29 8 39h154v-38c-33 0 -42 -9 -42 -36l31 -203c4 -25 14 -30 42 -32v-34h-187v34c35 2 48 7 48 33
c0 4 -1 19 -4 37l-23 140l-82 -244h-44l-84 244l-21 -140c-3 -18 -4 -33 -4 -37c0 -26 12 -31 48 -33v-34h-140v34c30 2 39 6 43 32l31 203c0 27 -9 36 -40 36v38h152c1 -10 3 -24 8 -39z" />
    <glyph glyph-name="Eth" unicode="&#xd0;" horiz-adv-x="810" 
d="M38 327v71h79v167c0 53 -12 65 -79 68v69h325c262 0 413 -123 413 -340c0 -227 -143 -362 -377 -362h-361v69c67 3 79 15 79 68v190h-79zM336 630h-21v-232h121v-71h-121v-185c0 -59 20 -70 68 -70h9c111 0 172 87 172 279c0 172 -80 279 -228 279z" />
    <glyph glyph-name="onehalf" unicode="&#xbd;" horiz-adv-x="955" 
d="M228 748h50v-363c0 -39 11 -42 73 -46v-52h-296v52c73 4 75 7 75 46v218h-75v48l28 6c79 17 108 43 145 91zM230 0l449 741h77l-450 -741h-76zM677 37h110c39 0 45 5 77 50h41l-13 -158h-363v47l126 110c58 50 89 86 89 138c0 40 -24 66 -69 66c-41 0 -75 -27 -96 -53
l-34 35c32 62 102 118 198 118c85 0 144 -48 144 -131c0 -99 -106 -164 -210 -222z" />
    <glyph glyph-name="plusminus" unicode="&#xb1;" horiz-adv-x="604" 
d="M255 621h93v-135h178v-92h-178v-136h-93v136h-177v92h177v135zM78 115v93h448v-93h-448z" />
    <glyph glyph-name="Thorn" unicode="&#xde;" horiz-adv-x="691" 
d="M308 483v-265h21c85 0 143 37 143 136c0 90 -65 129 -150 129h-14zM308 555h70c194 0 290 -80 290 -201c0 -138 -97 -202 -290 -202h-70v-15c0 -53 32 -64 116 -68v-69h-393v69c67 3 79 15 79 68v428c0 53 -12 65 -79 68v69h356v-69c-67 -3 -79 -15 -79 -68v-10z" />
    <glyph glyph-name="onequarter" unicode="&#xbc;" horiz-adv-x="963" 
d="M539 104h139v181zM825 -71h-147v118h-212v48l226 294h133v-285h88v-57h-88v-118zM225 748h50v-363c0 -39 11 -42 73 -46v-52h-296v52c73 4 75 7 75 46v218h-75v48l28 6c79 17 108 43 145 91zM227 0l449 741h77l-450 -741h-76z" />
    <glyph glyph-name="divide" unicode="&#xf7;" horiz-adv-x="604" 
d="M72 318v93h459v-93h-459zM231 179c0 40 32 70 69 70c40 0 72 -30 72 -70s-32 -71 -72 -71c-37 0 -69 31 -69 71zM231 550c0 39 32 70 69 70c40 0 72 -31 72 -70s-32 -72 -72 -72c-37 0 -69 33 -69 72z" />
    <glyph glyph-name="brokenbar" unicode="&#xa6;" horiz-adv-x="302" 
d="M202 770v-376h-102v376h102zM202 235v-376h-102v376h102z" />
    <glyph glyph-name="degree" unicode="&#xb0;" horiz-adv-x="376" 
d="M99 551c0 -55 34 -95 89 -95s89 40 89 95s-34 95 -89 95s-89 -40 -89 -95zM25 551c0 92 72 161 163 161s163 -69 163 -161s-72 -161 -163 -161s-163 69 -163 161z" />
    <glyph glyph-name="thorn" unicode="&#xfe;" horiz-adv-x="663" 
d="M259 431v-268c0 -66 16 -104 70 -104c70 0 109 80 109 191c0 125 -50 194 -122 194c-20 0 -40 -4 -57 -13zM70 -73v699l-55 59v37l210 39h34v-298c30 57 82 97 159 97c128 0 212 -92 212 -256c0 -196 -123 -314 -286 -314c-35 0 -69 9 -86 22v-85c0 -46 15 -51 60 -57
v-67h-309v67c45 6 61 11 61 57z" />
    <glyph glyph-name="threequarters" unicode="&#xbe;" horiz-adv-x="983" 
d="M261 537c80 -1 135 -46 135 -116c0 -96 -89 -143 -197 -143c-113 0 -164 43 -164 95c0 30 17 46 32 53h87v-25c0 -48 17 -78 51 -78c33 0 50 25 50 71c0 59 -28 92 -81 92h-18l-10 30c64 26 84 47 84 80c0 27 -19 48 -55 48c-41 0 -66 -22 -84 -45l-36 25
c29 66 92 120 186 120c79 0 132 -39 132 -107c0 -58 -49 -91 -112 -100zM559 104h139v181zM845 -71h-147v118h-212v48l226 294h133v-285h88v-57h-88v-118zM247 0l449 741h77l-450 -741h-76z" />
    <glyph glyph-name="registered" unicode="&#xae;" horiz-adv-x="555" 
d="M262 580h-6v-89h6c28 0 45 15 45 45s-17 44 -45 44zM164 608h115c72 0 100 -33 100 -71c0 -37 -27 -59 -52 -67l45 -56c9 -13 18 -20 29 -21v-23h-64c-11 6 -21 17 -30 31l-42 64h-9v-47c0 -19 2 -25 24 -25v-23h-116v23c23 0 26 6 26 25v142c0 20 -3 22 -26 25v23z
M87 484c0 -103 80 -193 190 -193c111 0 191 90 191 193c0 104 -80 194 -191 194c-110 0 -190 -90 -190 -194zM50 484c0 126 95 228 227 228c133 0 228 -102 228 -228c0 -125 -95 -227 -228 -227c-132 0 -227 102 -227 227z" />
    <glyph glyph-name="minus" unicode="&#x2212;" horiz-adv-x="604" 
d="M72 318v93h459v-93h-459z" />
    <glyph glyph-name="eth" unicode="&#xf0;" horiz-adv-x="629" 
d="M159 570l-19 44l131 51c-43 31 -95 56 -153 70l22 41c95 -13 172 -38 234 -71l119 46l19 -44l-87 -34c124 -89 172 -218 172 -341c0 -205 -99 -342 -287 -342c-168 0 -278 120 -278 276c0 175 125 271 258 271c53 0 88 -18 114 -44c-18 49 -48 96 -90 137zM328 61
c54 0 83 77 83 184c0 140 -37 237 -102 237c-55 0 -84 -70 -84 -177c0 -140 37 -244 103 -244z" />
    <glyph glyph-name="multiply" unicode="&#xd7;" horiz-adv-x="526" 
d="M199 361l-133 133l64 65l133 -135l132 135l65 -65l-134 -133l134 -132l-65 -65l-132 134l-133 -134l-64 65z" />
    <glyph glyph-name="threesuperior" unicode="&#xb3;" horiz-adv-x="441" 
d="M261 537c80 -1 135 -46 135 -116c0 -96 -89 -143 -197 -143c-113 0 -164 43 -164 95c0 30 17 46 32 53h87v-25c0 -48 17 -78 51 -78c33 0 50 25 50 71c0 59 -28 92 -81 92h-18l-10 30c64 26 84 47 84 80c0 27 -19 48 -55 48c-41 0 -66 -22 -84 -45l-36 25
c29 66 92 120 186 120c79 0 132 -39 132 -107c0 -58 -49 -91 -112 -100z" />
    <glyph glyph-name="copyright" unicode="&#xa9;" horiz-adv-x="796" 
d="M82 351c0 -177 130 -322 316 -322s316 145 316 322s-130 322 -316 322s-316 -145 -316 -322zM40 351c0 199 149 361 358 361s358 -162 358 -361s-149 -361 -358 -361s-358 162 -358 361zM426 192c49 0 64 45 81 101h67l-9 -113c-36 -24 -87 -39 -148 -39
c-138 0 -215 85 -215 203c0 136 97 220 216 220c58 0 110 -16 141 -43v-96h-66c-12 48 -31 91 -76 91c-69 0 -80 -74 -80 -163s29 -161 89 -161z" />
    <glyph glyph-name="Aacute" unicode="&#xc1;" horiz-adv-x="758" 
d="M463 153l-24 60h-244l-23 -60c-5 -15 -9 -29 -9 -40c0 -31 10 -41 70 -44v-69h-226v69c27 5 46 10 57 37l205 517l-35 80h205l254 -597c11 -25 29 -32 58 -37v-69h-347v69c58 3 70 13 70 44c0 11 -4 25 -11 40zM315 522l-93 -240h189zM369 909h185l-156 -158h-101z" />
    <glyph glyph-name="Acircumflex" unicode="&#xc2;" horiz-adv-x="758" 
d="M463 153l-24 60h-244l-23 -60c-5 -15 -9 -29 -9 -40c0 -31 10 -41 70 -44v-69h-226v69c27 5 46 10 57 37l205 517l-35 80h205l254 -597c11 -25 29 -32 58 -37v-69h-347v69c58 3 70 13 70 44c0 11 -4 25 -11 40zM421 918l138 -169h-95l-111 80l-111 -80h-95l138 169h136z
M315 522l-93 -240h189z" />
    <glyph glyph-name="Adieresis" unicode="&#xc4;" horiz-adv-x="758" 
d="M463 153l-24 60h-244l-23 -60c-5 -15 -9 -29 -9 -40c0 -31 10 -41 70 -44v-69h-226v69c27 5 46 10 57 37l205 517l-35 80h205l254 -597c11 -25 29 -32 58 -37v-69h-347v69c58 3 70 13 70 44c0 11 -4 25 -11 40zM154 831c0 48 40 88 89 88s90 -40 90 -88s-41 -88 -90 -88
s-89 40 -89 88zM374 831c0 48 41 88 88 88c51 0 91 -40 91 -88s-40 -88 -91 -88c-47 0 -88 40 -88 88zM315 522l-93 -240h189z" />
    <glyph glyph-name="Agrave" unicode="&#xc0;" horiz-adv-x="758" 
d="M463 153l-24 60h-244l-23 -60c-5 -15 -9 -29 -9 -40c0 -31 10 -41 70 -44v-69h-226v69c27 5 46 10 57 37l205 517l-35 80h205l254 -597c11 -25 29 -32 58 -37v-69h-347v69c58 3 70 13 70 44c0 11 -4 25 -11 40zM315 522l-93 -240h189zM161 909h185l72 -158h-101z" />
    <glyph glyph-name="Aring" unicode="&#xc5;" horiz-adv-x="758" 
d="M463 153l-24 60h-244l-23 -60c-5 -15 -9 -29 -9 -40c0 -31 10 -41 70 -44v-69h-226v69c27 5 46 10 57 37l205 517l-35 80h205l254 -597c11 -25 29 -32 58 -37v-69h-347v69c58 3 70 13 70 44c0 11 -4 25 -11 40zM240 840c0 57 47 101 113 101s113 -44 113 -101
s-47 -101 -113 -101s-113 44 -113 101zM315 522l-93 -240h189zM399 840c0 25 -16 44 -46 44s-46 -19 -46 -44s16 -44 46 -44s46 19 46 44z" />
    <glyph glyph-name="Atilde" unicode="&#xc3;" horiz-adv-x="758" 
d="M463 153l-24 60h-244l-23 -60c-5 -15 -9 -29 -9 -40c0 -31 10 -41 70 -44v-69h-226v69c27 5 46 10 57 37l205 517l-35 80h205l254 -597c11 -25 29 -32 58 -37v-69h-347v69c58 3 70 13 70 44c0 11 -4 25 -11 40zM502 901l60 -12c-54 -126 -83 -149 -141 -149
c-56 0 -99 60 -136 60c-29 0 -46 -25 -65 -55l-60 12c54 126 82 149 141 149c65 0 98 -60 136 -60c28 0 46 24 65 55zM315 522l-93 -240h189z" />
    <glyph glyph-name="Ccedilla" unicode="&#xc7;" horiz-adv-x="706" 
d="M289 -233l-11 49c72 0 115 12 115 39c0 25 -38 34 -85 36l41 102c-202 19 -315 157 -315 344c0 231 165 375 369 375c98 0 187 -28 240 -74v-163h-96c-25 99 -61 164 -146 164c-117 0 -153 -135 -153 -273c0 -176 56 -298 168 -298c84 0 121 59 156 181h97l-16 -193
c-60 -41 -148 -66 -252 -66h-2l-12 -34c59 -6 97 -29 97 -78c0 -74 -95 -111 -195 -111z" />
    <glyph glyph-name="Eacute" unicode="&#xc9;" horiz-adv-x="680" 
d="M520 247h-66c-10 60 -28 78 -72 78h-74v-188c0 -54 27 -67 80 -67h25c70 0 102 37 166 138h76l-31 -208h-593v69c67 3 79 15 79 68v428c0 53 -12 65 -79 68v69h588v-192h-78c-31 81 -56 122 -136 122h-97v-234h74c44 0 62 18 72 78h66v-229zM367 909h185l-156 -158h-101z
" />
    <glyph glyph-name="Ecircumflex" unicode="&#xca;" horiz-adv-x="680" 
d="M520 247h-66c-10 60 -28 78 -72 78h-74v-188c0 -54 27 -67 80 -67h25c70 0 102 37 166 138h76l-31 -208h-593v69c67 3 79 15 79 68v428c0 53 -12 65 -79 68v69h588v-192h-78c-31 81 -56 122 -136 122h-97v-234h74c44 0 62 18 72 78h66v-229zM419 918l138 -169h-95
l-111 80l-111 -80h-95l138 169h136z" />
    <glyph glyph-name="Edieresis" unicode="&#xcb;" horiz-adv-x="680" 
d="M520 247h-66c-10 60 -28 78 -72 78h-74v-188c0 -54 27 -67 80 -67h25c70 0 102 37 166 138h76l-31 -208h-593v69c67 3 79 15 79 68v428c0 53 -12 65 -79 68v69h588v-192h-78c-31 81 -56 122 -136 122h-97v-234h74c44 0 62 18 72 78h66v-229zM152 831c0 48 40 88 89 88
s90 -40 90 -88s-41 -88 -90 -88s-89 40 -89 88zM372 831c0 48 41 88 88 88c51 0 91 -40 91 -88s-40 -88 -91 -88c-47 0 -88 40 -88 88z" />
    <glyph glyph-name="Egrave" unicode="&#xc8;" horiz-adv-x="680" 
d="M520 247h-66c-10 60 -28 78 -72 78h-74v-188c0 -54 27 -67 80 -67h25c70 0 102 37 166 138h76l-31 -208h-593v69c67 3 79 15 79 68v428c0 53 -12 65 -79 68v69h588v-192h-78c-31 81 -56 122 -136 122h-97v-234h74c44 0 62 18 72 78h66v-229zM159 909h185l72 -158h-101z
" />
    <glyph glyph-name="Iacute" unicode="&#xcd;" horiz-adv-x="418" 
d="M387 0h-356v69c67 3 79 15 79 68v428c0 53 -12 65 -79 68v69h356v-69c-67 -3 -79 -15 -79 -68v-428c0 -53 12 -65 79 -68v-69zM225 909h185l-156 -158h-101z" />
    <glyph glyph-name="Icircumflex" unicode="&#xce;" horiz-adv-x="418" 
d="M387 0h-356v69c67 3 79 15 79 68v428c0 53 -12 65 -79 68v69h356v-69c-67 -3 -79 -15 -79 -68v-428c0 -53 12 -65 79 -68v-69zM277 918l138 -169h-95l-111 80l-111 -80h-95l138 169h136z" />
    <glyph glyph-name="Idieresis" unicode="&#xcf;" horiz-adv-x="418" 
d="M387 0h-356v69c67 3 79 15 79 68v428c0 53 -12 65 -79 68v69h356v-69c-67 -3 -79 -15 -79 -68v-428c0 -53 12 -65 79 -68v-69zM10 831c0 48 40 88 89 88s90 -40 90 -88s-41 -88 -90 -88s-89 40 -89 88zM230 831c0 48 41 88 88 88c51 0 91 -40 91 -88s-40 -88 -91 -88
c-47 0 -88 40 -88 88z" />
    <glyph glyph-name="Igrave" unicode="&#xcc;" horiz-adv-x="418" 
d="M387 0h-356v69c67 3 79 15 79 68v428c0 53 -12 65 -79 68v69h356v-69c-67 -3 -79 -15 -79 -68v-428c0 -53 12 -65 79 -68v-69zM17 909h185l72 -158h-101z" />
    <glyph glyph-name="Ntilde" unicode="&#xd1;" horiz-adv-x="778" 
d="M110 137v447c-29 40 -44 45 -79 49v69h272l289 -380v243c0 53 -23 65 -88 68v69h256v-69c-66 -3 -78 -15 -78 -68v-565h-81l-401 503v-366c0 -53 22 -65 88 -68v-69h-257v69c67 3 79 15 79 68zM541 901l60 -12c-54 -126 -83 -149 -141 -149c-56 0 -99 60 -136 60
c-29 0 -46 -25 -65 -55l-60 12c54 126 82 149 141 149c65 0 98 -60 136 -60c28 0 46 24 65 55z" />
    <glyph glyph-name="Oacute" unicode="&#xd3;" horiz-adv-x="766" 
d="M395 64c92 0 127 121 127 271c0 182 -48 303 -151 303c-92 0 -127 -121 -127 -271c0 -182 48 -303 151 -303zM392 712c220 0 340 -161 340 -347c0 -230 -153 -375 -358 -375c-220 0 -340 161 -340 347c0 230 153 375 358 375zM407 909h185l-156 -158h-101z" />
    <glyph glyph-name="Ocircumflex" unicode="&#xd4;" horiz-adv-x="766" 
d="M395 64c92 0 127 121 127 271c0 182 -48 303 -151 303c-92 0 -127 -121 -127 -271c0 -182 48 -303 151 -303zM392 712c220 0 340 -161 340 -347c0 -230 -153 -375 -358 -375c-220 0 -340 161 -340 347c0 230 153 375 358 375zM459 918l138 -169h-95l-111 80l-111 -80h-95
l138 169h136z" />
    <glyph glyph-name="Odieresis" unicode="&#xd6;" horiz-adv-x="766" 
d="M395 64c92 0 127 121 127 271c0 182 -48 303 -151 303c-92 0 -127 -121 -127 -271c0 -182 48 -303 151 -303zM392 712c220 0 340 -161 340 -347c0 -230 -153 -375 -358 -375c-220 0 -340 161 -340 347c0 230 153 375 358 375zM192 831c0 48 40 88 89 88s90 -40 90 -88
s-41 -88 -90 -88s-89 40 -89 88zM412 831c0 48 41 88 88 88c51 0 91 -40 91 -88s-40 -88 -91 -88c-47 0 -88 40 -88 88z" />
    <glyph glyph-name="Ograve" unicode="&#xd2;" horiz-adv-x="766" 
d="M395 64c92 0 127 121 127 271c0 182 -48 303 -151 303c-92 0 -127 -121 -127 -271c0 -182 48 -303 151 -303zM392 712c220 0 340 -161 340 -347c0 -230 -153 -375 -358 -375c-220 0 -340 161 -340 347c0 230 153 375 358 375zM199 909h185l72 -158h-101z" />
    <glyph glyph-name="Otilde" unicode="&#xd5;" horiz-adv-x="766" 
d="M395 64c92 0 127 121 127 271c0 182 -48 303 -151 303c-92 0 -127 -121 -127 -271c0 -182 48 -303 151 -303zM392 712c220 0 340 -161 340 -347c0 -230 -153 -375 -358 -375c-220 0 -340 161 -340 347c0 230 153 375 358 375zM532 901l60 -12
c-54 -126 -83 -149 -141 -149c-56 0 -99 60 -136 60c-29 0 -46 -25 -65 -55l-60 12c54 126 82 149 141 149c65 0 98 -60 136 -60c28 0 46 24 65 55z" />
    <glyph glyph-name="Scaron" unicode="&#x160;" horiz-adv-x="614" 
d="M295 -10c-102 0 -192 30 -242 67l-11 167h101c28 -113 75 -165 168 -165c61 0 106 28 106 88c0 50 -31 74 -140 103c-157 42 -228 102 -228 232c0 145 108 230 259 230c98 0 175 -24 225 -60v-153h-86c-28 82 -59 145 -152 145c-65 0 -98 -37 -98 -82
c0 -60 37 -81 141 -107c149 -38 234 -96 234 -238c0 -157 -123 -227 -277 -227zM514 921l-138 -169h-136l-138 169h95l111 -80l111 80h95z" />
    <glyph glyph-name="Uacute" unicode="&#xda;" horiz-adv-x="775" 
d="M298 565v-297c0 -104 29 -172 131 -172c88 0 153 37 153 181v288c0 53 -22 65 -88 68v69h261v-69c-66 -3 -79 -15 -79 -68v-318c0 -175 -123 -257 -276 -257c-193 0 -302 86 -302 258v317c0 53 -12 65 -78 68v69h354v-69c-65 -3 -76 -15 -76 -68zM439 909h185l-156 -158
h-101z" />
    <glyph glyph-name="Ucircumflex" unicode="&#xdb;" horiz-adv-x="775" 
d="M298 565v-297c0 -104 29 -172 131 -172c88 0 153 37 153 181v288c0 53 -22 65 -88 68v69h261v-69c-66 -3 -79 -15 -79 -68v-318c0 -175 -123 -257 -276 -257c-193 0 -302 86 -302 258v317c0 53 -12 65 -78 68v69h354v-69c-65 -3 -76 -15 -76 -68zM491 918l138 -169h-95
l-111 80l-111 -80h-95l138 169h136z" />
    <glyph glyph-name="Udieresis" unicode="&#xdc;" horiz-adv-x="775" 
d="M298 565v-297c0 -104 29 -172 131 -172c88 0 153 37 153 181v288c0 53 -22 65 -88 68v69h261v-69c-66 -3 -79 -15 -79 -68v-318c0 -175 -123 -257 -276 -257c-193 0 -302 86 -302 258v317c0 53 -12 65 -78 68v69h354v-69c-65 -3 -76 -15 -76 -68zM224 831
c0 48 40 88 89 88s90 -40 90 -88s-41 -88 -90 -88s-89 40 -89 88zM444 831c0 48 41 88 88 88c51 0 91 -40 91 -88s-40 -88 -91 -88c-47 0 -88 40 -88 88z" />
    <glyph glyph-name="Ugrave" unicode="&#xd9;" horiz-adv-x="775" 
d="M298 565v-297c0 -104 29 -172 131 -172c88 0 153 37 153 181v288c0 53 -22 65 -88 68v69h261v-69c-66 -3 -79 -15 -79 -68v-318c0 -175 -123 -257 -276 -257c-193 0 -302 86 -302 258v317c0 53 -12 65 -78 68v69h354v-69c-65 -3 -76 -15 -76 -68zM231 909h185l72 -158
h-101z" />
    <glyph glyph-name="Yacute" unicode="&#xdd;" horiz-adv-x="711" 
d="M413 343l104 190c15 27 24 46 24 61c0 27 -21 37 -67 39v69h230v-69c-28 -5 -44 -11 -58 -37l-189 -340v-119c0 -53 18 -65 85 -68v-69h-366v69c66 3 85 15 85 68v120l-197 339c-15 26 -29 32 -57 37v69h346v-69c-52 -2 -65 -12 -65 -39c0 -18 9 -35 23 -61zM403 909h185
l-156 -158h-101z" />
    <glyph glyph-name="Ydieresis" unicode="&#x178;" horiz-adv-x="711" 
d="M413 343l104 190c15 27 24 46 24 61c0 27 -21 37 -67 39v69h230v-69c-28 -5 -44 -11 -58 -37l-189 -340v-119c0 -53 18 -65 85 -68v-69h-366v69c66 3 85 15 85 68v120l-197 339c-15 26 -29 32 -57 37v69h346v-69c-52 -2 -65 -12 -65 -39c0 -18 9 -35 23 -61zM188 831
c0 48 40 88 89 88s90 -40 90 -88s-41 -88 -90 -88s-89 40 -89 88zM408 831c0 48 41 88 88 88c51 0 91 -40 91 -88s-40 -88 -91 -88c-47 0 -88 40 -88 88z" />
    <glyph glyph-name="Zcaron" unicode="&#x17d;" horiz-adv-x="649" 
d="M257 72h128c71 0 93 20 169 162h76l-35 -234h-573v48l359 581h-121c-81 0 -92 -53 -133 -137h-71v210h557v-49zM548 921l-138 -169h-136l-138 169h95l111 -80l111 80h95z" />
    <glyph glyph-name="aacute" unicode="&#xe1;" horiz-adv-x="591" 
d="M279 102c20 0 31 4 45 13v165l-59 -24c-35 -14 -49 -35 -49 -75c0 -48 23 -79 63 -79zM510 342c0 -4 -1 -190 -1 -195c0 -30 4 -52 30 -52c8 0 28 2 42 6l9 -51c-34 -32 -90 -60 -146 -60c-59 0 -98 37 -117 91c-31 -43 -78 -87 -158 -87c-84 0 -141 53 -141 141
s64 121 135 145l161 56v62c0 77 -16 101 -56 101c-35 0 -51 -26 -51 -62c0 -23 2 -45 9 -69l-120 -18c-29 10 -43 37 -43 70c0 97 93 140 222 140c143 0 225 -45 225 -218zM296 766h184l-155 -160h-97z" />
    <glyph glyph-name="acircumflex" unicode="&#xe2;" horiz-adv-x="591" 
d="M279 102c20 0 31 4 45 13v165l-59 -24c-35 -14 -49 -35 -49 -75c0 -48 23 -79 63 -79zM510 342c0 -4 -1 -190 -1 -195c0 -30 4 -52 30 -52c8 0 28 2 42 6l9 -51c-34 -32 -90 -60 -146 -60c-59 0 -98 37 -117 91c-31 -43 -78 -87 -158 -87c-84 0 -141 53 -141 141
s64 121 135 145l161 56v62c0 77 -16 101 -56 101c-35 0 -51 -26 -51 -62c0 -23 2 -45 9 -69l-120 -18c-29 10 -43 37 -43 70c0 97 93 140 222 140c143 0 225 -45 225 -218zM361 766l138 -169h-95l-111 80l-111 -80h-95l138 169h136z" />
    <glyph glyph-name="adieresis" unicode="&#xe4;" horiz-adv-x="591" 
d="M279 102c20 0 31 4 45 13v165l-59 -24c-35 -14 -49 -35 -49 -75c0 -48 23 -79 63 -79zM510 342c0 -4 -1 -190 -1 -195c0 -30 4 -52 30 -52c8 0 28 2 42 6l9 -51c-34 -32 -90 -60 -146 -60c-59 0 -98 37 -117 91c-31 -43 -78 -87 -158 -87c-84 0 -141 53 -141 141
s64 121 135 145l161 56v62c0 77 -16 101 -56 101c-35 0 -51 -26 -51 -62c0 -23 2 -45 9 -69l-120 -18c-29 10 -43 37 -43 70c0 97 93 140 222 140c143 0 225 -45 225 -218zM94 691c0 48 40 88 89 88s90 -40 90 -88s-41 -88 -90 -88s-89 40 -89 88zM314 691c0 48 41 88 88 88
c51 0 91 -40 91 -88s-40 -88 -91 -88c-47 0 -88 40 -88 88z" />
    <glyph glyph-name="agrave" unicode="&#xe0;" horiz-adv-x="591" 
d="M279 102c20 0 31 4 45 13v165l-59 -24c-35 -14 -49 -35 -49 -75c0 -48 23 -79 63 -79zM510 342c0 -4 -1 -190 -1 -195c0 -30 4 -52 30 -52c8 0 28 2 42 6l9 -51c-34 -32 -90 -60 -146 -60c-59 0 -98 37 -117 91c-31 -43 -78 -87 -158 -87c-84 0 -141 53 -141 141
s64 121 135 145l161 56v62c0 77 -16 101 -56 101c-35 0 -51 -26 -51 -62c0 -23 2 -45 9 -69l-120 -18c-29 10 -43 37 -43 70c0 97 93 140 222 140c143 0 225 -45 225 -218zM105 766h184l67 -160h-96z" />
    <glyph glyph-name="aring" unicode="&#xe5;" horiz-adv-x="591" 
d="M279 102c20 0 31 4 45 13v165l-59 -24c-35 -14 -49 -35 -49 -75c0 -48 23 -79 63 -79zM510 342c0 -4 -1 -190 -1 -195c0 -30 4 -52 30 -52c8 0 28 2 42 6l9 -51c-34 -32 -90 -60 -146 -60c-59 0 -98 37 -117 91c-31 -43 -78 -87 -158 -87c-84 0 -141 53 -141 141
s64 121 135 145l161 56v62c0 77 -16 101 -56 101c-35 0 -51 -26 -51 -62c0 -23 2 -45 9 -69l-120 -18c-29 10 -43 37 -43 70c0 97 93 140 222 140c143 0 225 -45 225 -218zM177 698c0 57 47 101 113 101s113 -44 113 -101s-47 -101 -113 -101s-113 44 -113 101zM336 698
c0 25 -16 44 -46 44s-46 -19 -46 -44s16 -44 46 -44s46 19 46 44z" />
    <glyph glyph-name="atilde" unicode="&#xe3;" horiz-adv-x="591" 
d="M279 102c20 0 31 4 45 13v165l-59 -24c-35 -14 -49 -35 -49 -75c0 -48 23 -79 63 -79zM510 342c0 -4 -1 -190 -1 -195c0 -30 4 -52 30 -52c8 0 28 2 42 6l9 -51c-34 -32 -90 -60 -146 -60c-59 0 -98 37 -117 91c-31 -43 -78 -87 -158 -87c-84 0 -141 53 -141 141
s64 121 135 145l161 56v62c0 77 -16 101 -56 101c-35 0 -51 -26 -51 -62c0 -23 2 -45 9 -69l-120 -18c-29 10 -43 37 -43 70c0 97 93 140 222 140c143 0 225 -45 225 -218zM444 773l60 -12c-54 -126 -83 -149 -141 -149c-56 0 -99 60 -136 60c-29 0 -46 -25 -65 -55l-60 12
c54 126 82 149 141 149c65 0 98 -60 136 -60c28 0 46 24 65 55z" />
    <glyph glyph-name="ccedilla" unicode="&#xe7;" horiz-adv-x="542" 
d="M186 -233l-11 49c72 0 115 12 115 39c0 25 -38 34 -85 36l41 101c-126 15 -214 114 -214 262c0 176 113 306 286 306c103 0 196 -49 196 -146c0 -41 -18 -68 -43 -78h-97v52c0 59 -14 101 -68 101s-103 -54 -103 -157c0 -119 49 -201 147 -201c55 0 103 27 137 72l34 -23
c-34 -127 -113 -185 -225 -189l-12 -35c59 -6 97 -29 97 -78c0 -74 -95 -111 -195 -111z" />
    <glyph glyph-name="eacute" unicode="&#xe9;" horiz-adv-x="561" 
d="M306 560c145 0 220 -104 220 -229v-39h-327c0 -98 64 -159 152 -159c64 0 110 24 144 68l33 -22c-26 -114 -108 -189 -236 -189c-149 0 -260 101 -260 267c0 183 124 303 274 303zM289 491c-57 0 -81 -64 -88 -139h164c-1 82 -24 139 -76 139zM307 766h184l-155 -160h-97
z" />
    <glyph glyph-name="ecircumflex" unicode="&#xea;" horiz-adv-x="561" 
d="M306 560c145 0 220 -104 220 -229v-39h-327c0 -98 64 -159 152 -159c64 0 110 24 144 68l33 -22c-26 -114 -108 -189 -236 -189c-149 0 -260 101 -260 267c0 183 124 303 274 303zM289 491c-57 0 -81 -64 -88 -139h164c-1 82 -24 139 -76 139zM368 766l138 -169h-95
l-111 80l-111 -80h-95l138 169h136z" />
    <glyph glyph-name="edieresis" unicode="&#xeb;" horiz-adv-x="561" 
d="M306 560c145 0 220 -104 220 -229v-39h-327c0 -98 64 -159 152 -159c64 0 110 24 144 68l33 -22c-26 -114 -108 -189 -236 -189c-149 0 -260 101 -260 267c0 183 124 303 274 303zM289 491c-57 0 -81 -64 -88 -139h164c-1 82 -24 139 -76 139zM102 691c0 48 40 88 89 88
s90 -40 90 -88s-41 -88 -90 -88s-89 40 -89 88zM322 691c0 48 41 88 88 88c51 0 91 -40 91 -88s-40 -88 -91 -88c-47 0 -88 40 -88 88z" />
    <glyph glyph-name="egrave" unicode="&#xe8;" horiz-adv-x="561" 
d="M306 560c145 0 220 -104 220 -229v-39h-327c0 -98 64 -159 152 -159c64 0 110 24 144 68l33 -22c-26 -114 -108 -189 -236 -189c-149 0 -260 101 -260 267c0 183 124 303 274 303zM289 491c-57 0 -81 -64 -88 -139h164c-1 82 -24 139 -76 139zM106 766h184l67 -160h-96z
" />
    <glyph glyph-name="iacute" unicode="&#xed;" horiz-adv-x="366" 
d="M281 561v-437c0 -46 16 -51 61 -57v-67h-310v67c45 6 61 11 61 57v295l-56 60v31l211 51h33zM200 766h184l-155 -160h-97z" />
    <glyph glyph-name="icircumflex" unicode="&#xee;" horiz-adv-x="366" 
d="M281 561v-437c0 -46 16 -51 61 -57v-67h-310v67c45 6 61 11 61 57v295l-56 60v31l211 51h33zM255 766l138 -169h-95l-111 80l-111 -80h-95l138 169h136z" />
    <glyph glyph-name="idieresis" unicode="&#xef;" horiz-adv-x="366" 
d="M281 561v-437c0 -46 16 -51 61 -57v-67h-310v67c45 6 61 11 61 57v295l-56 60v31l211 51h33zM-12 691c0 48 40 88 89 88s90 -40 90 -88s-41 -88 -90 -88s-89 40 -89 88zM208 691c0 48 41 88 88 88c51 0 91 -40 91 -88s-40 -88 -91 -88c-47 0 -88 40 -88 88z" />
    <glyph glyph-name="igrave" unicode="&#xec;" horiz-adv-x="366" 
d="M281 561v-437c0 -46 16 -51 61 -57v-67h-310v67c45 6 61 11 61 57v295l-56 60v31l211 51h33zM-11 766h184l67 -160h-96z" />
    <glyph glyph-name="ntilde" unicode="&#xf1;" horiz-adv-x="706" 
d="M438 124v254c0 41 -14 63 -61 63c-38 0 -69 -8 -96 -17v-300c0 -46 11 -51 56 -57v-67h-305v67c45 6 61 11 61 57v291l-56 59v36l211 55h33v-110c41 47 106 105 193 105c98 0 152 -53 152 -164v-272c0 -46 15 -51 60 -57v-67h-303v67c45 6 55 11 55 57zM506 773l60 -12
c-54 -126 -83 -149 -141 -149c-56 0 -99 60 -136 60c-29 0 -46 -25 -65 -55l-60 12c54 126 82 149 141 149c65 0 98 -60 136 -60c28 0 46 24 65 55z" />
    <glyph glyph-name="oacute" unicode="&#xf3;" horiz-adv-x="637" 
d="M328 61c54 0 83 77 83 184c0 140 -37 245 -102 245c-55 0 -84 -78 -84 -185c0 -140 37 -244 103 -244zM310 -10c-168 0 -278 120 -278 276c0 180 125 294 294 294s279 -120 279 -275c0 -181 -126 -295 -295 -295zM337 766h184l-155 -160h-97z" />
    <glyph glyph-name="ocircumflex" unicode="&#xf4;" horiz-adv-x="637" 
d="M328 61c54 0 83 77 83 184c0 140 -37 245 -102 245c-55 0 -84 -78 -84 -185c0 -140 37 -244 103 -244zM310 -10c-168 0 -278 120 -278 276c0 180 125 294 294 294s279 -120 279 -275c0 -181 -126 -295 -295 -295zM392 766l138 -169h-95l-111 80l-111 -80h-95l138 169h136
z" />
    <glyph glyph-name="odieresis" unicode="&#xf6;" horiz-adv-x="637" 
d="M328 61c54 0 83 77 83 184c0 140 -37 245 -102 245c-55 0 -84 -78 -84 -185c0 -140 37 -244 103 -244zM310 -10c-168 0 -278 120 -278 276c0 180 125 294 294 294s279 -120 279 -275c0 -181 -126 -295 -295 -295zM125 691c0 48 40 88 89 88s90 -40 90 -88
s-41 -88 -90 -88s-89 40 -89 88zM345 691c0 48 41 88 88 88c51 0 91 -40 91 -88s-40 -88 -91 -88c-47 0 -88 40 -88 88z" />
    <glyph glyph-name="ograve" unicode="&#xf2;" horiz-adv-x="637" 
d="M328 61c54 0 83 77 83 184c0 140 -37 245 -102 245c-55 0 -84 -78 -84 -185c0 -140 37 -244 103 -244zM310 -10c-168 0 -278 120 -278 276c0 180 125 294 294 294s279 -120 279 -275c0 -181 -126 -295 -295 -295zM126 766h184l67 -160h-96z" />
    <glyph glyph-name="otilde" unicode="&#xf5;" horiz-adv-x="637" 
d="M328 61c54 0 83 77 83 184c0 140 -37 245 -102 245c-55 0 -84 -78 -84 -185c0 -140 37 -244 103 -244zM310 -10c-168 0 -278 120 -278 276c0 180 125 294 294 294s279 -120 279 -275c0 -181 -126 -295 -295 -295zM465 773l60 -12c-54 -126 -83 -149 -141 -149
c-56 0 -99 60 -136 60c-29 0 -46 -25 -65 -55l-60 12c54 126 82 149 141 149c65 0 98 -60 136 -60c28 0 46 24 65 55z" />
    <glyph glyph-name="scaron" unicode="&#x161;" horiz-adv-x="516" 
d="M254 -10c-90 0 -160 26 -207 58l-6 121h86c18 -76 58 -113 133 -113c50 0 85 19 85 57c0 39 -24 53 -113 73c-129 29 -191 82 -191 185c0 122 85 189 218 189c71 0 137 -18 181 -47v-110h-83c-15 56 -45 91 -106 91c-46 0 -70 -24 -70 -57c0 -34 16 -52 109 -69
c110 -21 191 -70 191 -183c0 -125 -84 -195 -227 -195zM459 775l-138 -169h-136l-138 169h95l111 -80l111 80h95z" />
    <glyph glyph-name="uacute" unicode="&#xfa;" horiz-adv-x="687" 
d="M413 -10v98c-36 -46 -98 -98 -188 -98c-88 0 -149 53 -149 170v231c0 29 -6 52 -38 59l-15 5v57l207 48h35v-382c0 -50 22 -76 61 -76c36 0 60 7 87 16v273c0 29 -6 52 -38 59l-14 5v57l205 48h36v-415c0 -34 7 -53 37 -54h24v-69l-212 -32h-38zM365 766h184l-155 -160
h-97z" />
    <glyph glyph-name="ucircumflex" unicode="&#xfb;" horiz-adv-x="687" 
d="M413 -10v98c-36 -46 -98 -98 -188 -98c-88 0 -149 53 -149 170v231c0 29 -6 52 -38 59l-15 5v57l207 48h35v-382c0 -50 22 -76 61 -76c36 0 60 7 87 16v273c0 29 -6 52 -38 59l-14 5v57l205 48h36v-415c0 -34 7 -53 37 -54h24v-69l-212 -32h-38zM420 766l138 -169h-95
l-111 80l-111 -80h-95l138 169h136z" />
    <glyph glyph-name="udieresis" unicode="&#xfc;" horiz-adv-x="687" 
d="M413 -10v98c-36 -46 -98 -98 -188 -98c-88 0 -149 53 -149 170v231c0 29 -6 52 -38 59l-15 5v57l207 48h35v-382c0 -50 22 -76 61 -76c36 0 60 7 87 16v273c0 29 -6 52 -38 59l-14 5v57l205 48h36v-415c0 -34 7 -53 37 -54h24v-69l-212 -32h-38zM143 691
c0 48 40 88 89 88s90 -40 90 -88s-41 -88 -90 -88s-89 40 -89 88zM363 691c0 48 41 88 88 88c51 0 91 -40 91 -88s-40 -88 -91 -88c-47 0 -88 40 -88 88z" />
    <glyph glyph-name="ugrave" unicode="&#xf9;" horiz-adv-x="687" 
d="M413 -10v98c-36 -46 -98 -98 -188 -98c-88 0 -149 53 -149 170v231c0 29 -6 52 -38 59l-15 5v57l207 48h35v-382c0 -50 22 -76 61 -76c36 0 60 7 87 16v273c0 29 -6 52 -38 59l-14 5v57l205 48h36v-415c0 -34 7 -53 37 -54h24v-69l-212 -32h-38zM154 766h184l67 -160h-96
z" />
    <glyph glyph-name="yacute" unicode="&#xfd;" horiz-adv-x="622" 
d="M275 -2l-214 446c-10 21 -21 28 -56 40v66h336v-66c-52 -7 -68 -12 -68 -36c0 -8 2 -17 11 -39l84 -204l86 205c9 22 11 30 11 38c0 24 -14 29 -66 36v66h218v-66c-35 -12 -46 -18 -56 -40l-231 -517c-42 -93 -87 -135 -157 -135c-39 0 -71 16 -86 39v95h60
c70 0 96 4 123 62zM370 766h184l-155 -160h-97z" />
    <glyph glyph-name="ydieresis" unicode="&#xff;" horiz-adv-x="622" 
d="M275 -2l-214 446c-10 21 -21 28 -56 40v66h336v-66c-52 -7 -68 -12 -68 -36c0 -8 2 -17 11 -39l84 -204l86 205c9 22 11 30 11 38c0 24 -14 29 -66 36v66h218v-66c-35 -12 -46 -18 -56 -40l-231 -517c-42 -93 -87 -135 -157 -135c-39 0 -71 16 -86 39v95h60
c70 0 96 4 123 62zM158 691c0 48 40 88 89 88s90 -40 90 -88s-41 -88 -90 -88s-89 40 -89 88zM378 691c0 48 41 88 88 88c51 0 91 -40 91 -88s-40 -88 -91 -88c-47 0 -88 40 -88 88z" />
    <glyph glyph-name="zcaron" unicode="&#x17e;" horiz-adv-x="575" 
d="M26 0v47l280 435h-84c-56 0 -70 -34 -112 -139h-69v207h488v-50l-272 -431h77c66 0 85 30 138 139h70l-23 -208h-493zM500 775l-138 -169h-136l-138 169h95l111 -80l111 80h95z" />
    <glyph glyph-name="Omega" unicode="&#x2126;" horiz-adv-x="756" 
d="M378 639c-87 0 -127 -110 -127 -239c0 -151 52 -242 95 -310v-90h-271l-25 198h41c44 -79 52 -88 142 -88h53c-106 32 -221 147 -221 290c0 172 119 312 313 312s313 -140 313 -312c0 -143 -115 -258 -221 -290h53c90 0 98 9 142 88h41l-25 -198h-271v90
c43 68 95 159 95 310c0 129 -40 239 -127 239z" />
    <glyph glyph-name="pi" unicode="&#x3c0;" horiz-adv-x="690" 
d="M369 157v265h-87c0 -204 -10 -291 -40 -422h-191v47c53 92 107 186 107 375h-108v128h590l-17 -128h-80v-275c0 -30 16 -52 42 -52c8 0 28 2 42 6l9 -51c-34 -32 -90 -60 -146 -60c-87 0 -121 53 -121 167z" />
    <glyph glyph-name="Euro" unicode="&#x20ac;" horiz-adv-x="713" 
d="M28 383v58h95c38 166 166 271 329 271c88 0 156 -21 205 -67v-162h-90c-22 98 -49 155 -125 155c-83 0 -121 -87 -132 -197h203l-8 -58h-198v-17c0 -16 0 -32 1 -47h190l-8 -59h-177c15 -110 55 -191 137 -191c72 0 117 47 148 168h86l-13 -192
c-54 -37 -145 -55 -228 -55c-178 0 -297 103 -325 270h-90v59h84v18c0 15 0 31 2 46h-86z" />
    <glyph glyph-name="partialdiff" unicode="&#x2202;" horiz-adv-x="637" 
d="M290 537c53 0 88 -18 114 -44c-38 108 -141 207 -286 242l22 41c342 -45 457 -252 457 -444c0 -205 -99 -342 -287 -342c-168 0 -278 120 -278 276c0 175 125 271 258 271zM328 61c54 0 83 77 83 184c0 140 -37 237 -102 237c-55 0 -84 -70 -84 -177
c0 -140 37 -244 103 -244z" />
    <glyph glyph-name="product" unicode="&#x220f;" horiz-adv-x="832" 
d="M25 702h782v-69c-67 -3 -79 -15 -79 -68v-625c0 -53 12 -65 79 -68v-69h-346v69c66 3 79 15 79 68v699h-248v-699c0 -53 13 -65 79 -68v-69h-346v69c67 3 79 15 79 68v625c0 53 -12 65 -79 68v69z" />
    <glyph glyph-name="summation" unicode="&#x2211;" horiz-adv-x="645" 
d="M175 -43h187c81 0 123 2 179 94h74l-47 -248h-548v65l254 371l-241 388v75h555v-192h-87c-37 91 -64 129 -155 129h-100l176 -286v-41z" />
    <glyph glyph-name="radical" unicode="&#x221a;" horiz-adv-x="624" 
d="M369 255l178 457h77l-280 -712h-94l-145 433c-13 40 -27 53 -60 57l-25 3v57h260z" />
    <glyph glyph-name="infinity" unicode="&#x221e;" horiz-adv-x="760" 
d="M324 348l-37 45c-23 28 -48 40 -79 40c-42 0 -79 -31 -79 -85s37 -85 79 -85c31 0 56 12 79 40zM473 393l-37 -45l37 -45c23 -28 48 -40 79 -40c42 0 79 31 79 85s-37 85 -79 85c-31 0 -56 -12 -79 -40zM380 285l-30 -35c-40 -46 -82 -74 -147 -74
c-90 0 -163 65 -163 172s73 172 163 172c65 0 107 -28 147 -74l30 -35l30 35c40 46 82 74 147 74c90 0 163 -65 163 -172s-73 -172 -163 -172c-65 0 -107 28 -147 74z" />
    <glyph glyph-name="integral" unicode="&#x222b;" horiz-adv-x="457" 
d="M284 582v-525c0 -188 -95 -253 -229 -253c-89 0 -140 34 -140 96c0 31 16 51 35 64h80v-38c0 -35 5 -63 35 -63c27 0 33 26 33 71v525c0 188 95 253 229 253c89 0 140 -34 140 -96c0 -31 -16 -51 -35 -64h-80v38c0 35 -5 63 -35 63c-27 0 -33 -26 -33 -71z" />
    <glyph glyph-name="approxequal" unicode="&#x2248;" horiz-adv-x="615" 
d="M78 378v90c45 30 86 42 123 42c80 0 132 -40 211 -40c38 0 80 11 126 41v-90c-46 -30 -88 -41 -126 -41c-79 0 -131 40 -211 40c-37 0 -78 -12 -123 -42zM78 223v89c45 30 86 41 123 41c80 0 132 -39 211 -39c38 0 80 10 126 40v-88c-46 -32 -88 -42 -126 -42
c-79 0 -131 39 -211 39c-37 0 -78 -11 -123 -40z" />
    <glyph glyph-name="notequal" unicode="&#x2260;" horiz-adv-x="615" 
d="M78 407v85h272l70 104h87l-70 -104h101v-85h-159l-57 -84h216v-86h-274l-69 -103h-87l69 103h-99v86h157l57 84h-214z" />
    <glyph glyph-name="lessequal" unicode="&#x2264;" horiz-adv-x="483" 
d="M64 405v10l337 185v-106l-166 -85l166 -84v-105zM64 92v93h337v-93h-337z" />
    <glyph glyph-name="greaterequal" unicode="&#x2265;" horiz-adv-x="483" 
d="M419 415v-10l-337 -185v105l167 84l-167 85v106zM419 185v-93h-337v93h337z" />
    <glyph glyph-name="lozenge" unicode="&#x25ca;" horiz-adv-x="571" 
d="M30 351l206 351h98l207 -351l-207 -351h-98zM422 351l-137 246l-138 -246l138 -245z" />
    <glyph glyph-name="uni00A0" unicode="&#xa0;" horiz-adv-x="190" 
 />
    <glyph glyph-name="twosuperior" unicode="&#xb2;" horiz-adv-x="451" 
d="M173 395h110c39 0 45 5 77 50h41l-13 -158h-363v47l126 110c58 50 89 86 89 138c0 40 -24 66 -69 66c-41 0 -75 -27 -96 -53l-34 35c32 62 102 118 198 118c85 0 144 -48 144 -131c0 -99 -106 -164 -210 -222z" />
    <glyph glyph-name="Tcedilla" unicode="&#x162;" horiz-adv-x="714" 
d="M30 702h654l15 -237h-79c-45 112 -66 170 -145 170h-20v-498c0 -53 18 -65 84 -68v-69h-366v69c67 3 86 15 86 68v498h-21c-79 0 -100 -58 -145 -170h-78zM375 -158h-59c-30 8 -50 26 -50 62s31 64 85 64c61 0 98 -41 98 -98c0 -67 -48 -120 -177 -120v45
c67 0 101 20 103 47z" />
    <glyph glyph-name="tcedilla" unicode="&#x163;" horiz-adv-x="422" 
d="M264 677v-127h133v-75h-133v-308c0 -47 19 -69 62 -69c24 0 50 7 74 19l20 -51c-49 -50 -111 -76 -185 -76c-107 0 -161 50 -161 159v326h-66v55c68 22 145 84 197 147h59zM232 -158h-59c-30 8 -50 26 -50 62s31 64 85 64c61 0 98 -41 98 -98c0 -67 -48 -120 -177 -120
v45c67 0 101 20 103 47z" />
    <glyph glyph-name="Tcedilla.sc" horiz-adv-x="651" 
d="M32 608h587l14 -213h-78c-36 91 -58 149 -125 149h-10v-419c0 -44 18 -55 77 -58v-67h-343v67c59 3 77 14 77 58v419h-10c-67 0 -89 -58 -125 -149h-78zM343 -158h-59c-30 8 -50 26 -50 62s31 64 85 64c61 0 98 -41 98 -98c0 -67 -48 -120 -177 -120v45
c67 0 101 20 103 47z" />
    <glyph glyph-name="i.dot" horiz-adv-x="366" 
d="M281 561v-437c0 -46 16 -51 61 -57v-67h-310v67c45 6 61 11 61 57v295l-56 60v31l211 51h33zM188 598c-64 0 -103 44 -103 95s39 95 103 95s102 -44 102 -95s-38 -95 -102 -95z" />
    <glyph glyph-name="uni0237" unicode="&#x237;" horiz-adv-x="323" 
d="M262 561v-429c0 -115 -29 -170 -72 -219c-51 -57 -99 -94 -155 -122l-36 34l41 69c32 54 33 117 33 195v330l-55 60v31l211 51h33z" />
    <glyph glyph-name="space_uni0326" horiz-adv-x="500" 
d="M262 -158h-59c-30 8 -50 26 -50 62s31 64 85 64c61 0 98 -41 98 -98c0 -67 -48 -120 -177 -120v45c67 0 101 20 103 47z" />
    <glyph glyph-name="space_uni0326.alt" horiz-adv-x="500" 
d="M227 721h59c30 -8 50 -26 50 -62s-31 -64 -85 -64c-61 0 -98 41 -98 98c0 67 48 120 177 120v-45c-67 0 -101 -20 -103 -47z" />
    <glyph glyph-name="space_dotbelowcomb" horiz-adv-x="500" 
d="M251 -212c-64 0 -103 44 -103 95s39 95 103 95s102 -44 102 -95s-38 -95 -102 -95z" />
    <glyph glyph-name="uni2117" unicode="&#x2117;" horiz-adv-x="796" 
d="M446 304h-52v-67c0 -30 9 -37 57 -38v-45h-216v45c38 1 41 8 41 38v233c0 29 -3 35 -41 36v45h209c111 0 159 -61 159 -121c0 -76 -51 -126 -157 -126zM394 503v-156h15c56 0 79 29 79 81c0 46 -25 75 -79 75h-15zM82 351c0 -177 130 -322 316 -322s316 145 316 322
s-130 322 -316 322s-316 -145 -316 -322zM40 351c0 199 149 361 358 361s358 -162 358 -361s-149 -361 -358 -361s-358 162 -358 361z" />
    <glyph glyph-name="Delta" unicode="&#x2206;" horiz-adv-x="682" 
d="M662 0h-642v51l295 651h47l300 -651v-51zM277 452l-173 -384h346z" />
    <glyph glyph-name="Abreve" unicode="&#x102;" horiz-adv-x="758" 
d="M463 153l-24 60h-244l-23 -60c-5 -15 -9 -29 -9 -40c0 -31 10 -41 70 -44v-69h-226v69c27 5 46 10 57 37l205 517l-35 80h205l254 -597c11 -25 29 -32 58 -37v-69h-347v69c58 3 70 13 70 44c0 11 -4 25 -11 40zM353 746c-101 0 -159 64 -159 170h70c9 -62 52 -78 89 -78
s80 16 89 78h70c0 -106 -58 -170 -159 -170zM315 522l-93 -240h189z" />
    <glyph glyph-name="Amacron" unicode="&#x100;" horiz-adv-x="758" 
d="M463 153l-24 60h-244l-23 -60c-5 -15 -9 -29 -9 -40c0 -31 10 -41 70 -44v-69h-226v69c27 5 46 10 57 37l205 517l-35 80h205l254 -597c11 -25 29 -32 58 -37v-69h-347v69c58 3 70 13 70 44c0 11 -4 25 -11 40zM194 758v106h318v-106h-318zM315 522l-93 -240h189z" />
    <glyph glyph-name="Aogonek" unicode="&#x104;" horiz-adv-x="758" 
d="M463 153l-24 60h-244l-23 -60c-5 -15 -9 -29 -9 -40c0 -31 10 -41 70 -44v-69h-226v69c27 5 46 10 57 37l205 517l-35 80h205l254 -597c11 -25 29 -32 58 -37v-69h-313c-30 -18 -51 -46 -51 -77c0 -35 14 -56 45 -56c20 0 41 3 70 20l19 -28c-45 -50 -82 -73 -139 -73
c-52 0 -101 38 -101 105c0 57 36 104 125 148c52 26 68 43 68 74c0 11 -4 25 -11 40zM315 522l-93 -240h189z" />
    <glyph glyph-name="Aringacute" unicode="&#x1fa;" horiz-adv-x="758" 
d="M463 153l-24 60h-244l-23 -60c-5 -15 -9 -29 -9 -40c0 -31 10 -41 70 -44v-69h-226v69c27 5 46 10 57 37l205 517l-35 80h205l254 -597c11 -25 29 -32 58 -37v-69h-347v69c58 3 70 13 70 44c0 11 -4 25 -11 40zM231 824c0 55 49 90 118 90s118 -35 118 -90
s-49 -90 -118 -90s-118 35 -118 90zM315 522l-93 -240h189zM351 1061h185l-139 -120h-91zM401 824c0 26 -21 39 -52 39s-52 -13 -52 -39s21 -39 52 -39s52 13 52 39z" />
    <glyph glyph-name="AEacute" unicode="&#x1fc;" horiz-adv-x="1057" 
d="M64 106l139 204v2h1l191 281c-11 27 -29 37 -87 40v69h688v-192h-78c-31 81 -56 122 -136 122h-97v-234h74c44 0 62 18 72 78h66v-229h-66c-10 60 -28 78 -72 78h-74v-188c0 -54 27 -67 80 -67h25c70 0 102 37 166 138h76l-31 -208h-593v69c67 3 79 15 79 68v106h-233
l-48 -71c-18 -26 -24 -46 -24 -60c0 -31 12 -40 72 -43v-69h-247v69c27 5 40 13 57 37zM487 586l-186 -274h186v274zM633 909h185l-156 -158h-101z" />
    <glyph glyph-name="Cacute" unicode="&#x106;" horiz-adv-x="706" 
d="M416 68c84 0 121 59 156 181h97l-16 -193c-60 -41 -148 -66 -252 -66c-235 0 -367 145 -367 347c0 231 165 375 369 375c98 0 187 -28 240 -74v-163h-96c-25 99 -61 164 -146 164c-117 0 -153 -135 -153 -273c0 -176 56 -298 168 -298zM409 909h185l-156 -158h-101z" />
    <glyph glyph-name="Ccaron" unicode="&#x10c;" horiz-adv-x="706" 
d="M416 68c84 0 121 59 156 181h97l-16 -193c-60 -41 -148 -66 -252 -66c-235 0 -367 145 -367 347c0 231 165 375 369 375c98 0 187 -28 240 -74v-163h-96c-25 99 -61 164 -146 164c-117 0 -153 -135 -153 -273c0 -176 56 -298 168 -298zM604 921l-138 -169h-136l-138 169
h95l111 -80l111 80h95z" />
    <glyph glyph-name="Ccircumflex" unicode="&#x108;" horiz-adv-x="706" 
d="M416 68c84 0 121 59 156 181h97l-16 -193c-60 -41 -148 -66 -252 -66c-235 0 -367 145 -367 347c0 231 165 375 369 375c98 0 187 -28 240 -74v-163h-96c-25 99 -61 164 -146 164c-117 0 -153 -135 -153 -273c0 -176 56 -298 168 -298zM466 918l138 -169h-95l-111 80
l-111 -80h-95l138 169h136z" />
    <glyph glyph-name="Cdotaccent" unicode="&#x10a;" horiz-adv-x="706" 
d="M416 68c84 0 121 59 156 181h97l-16 -193c-60 -41 -148 -66 -252 -66c-235 0 -367 145 -367 347c0 231 165 375 369 375c98 0 187 -28 240 -74v-163h-96c-25 99 -61 164 -146 164c-117 0 -153 -135 -153 -273c0 -176 56 -298 168 -298zM399 743c-64 0 -103 44 -103 95
s39 95 103 95s102 -44 102 -95s-38 -95 -102 -95z" />
    <glyph glyph-name="Dcaron" unicode="&#x10e;" horiz-adv-x="803" 
d="M329 630h-21v-488c0 -59 20 -70 68 -70h9c111 0 172 87 172 279c0 172 -80 279 -228 279zM31 633v69h325c262 0 413 -123 413 -340c0 -227 -143 -362 -377 -362h-361v69c67 3 79 15 79 68v428c0 53 -12 65 -79 68zM606 921l-138 -169h-136l-138 169h95l111 -80l111 80h95
z" />
    <glyph glyph-name="Dcroat" unicode="&#x110;" horiz-adv-x="810" 
d="M38 327v71h79v167c0 53 -12 65 -79 68v69h325c262 0 413 -123 413 -340c0 -227 -143 -362 -377 -362h-361v69c67 3 79 15 79 68v190h-79zM336 630h-21v-232h121v-71h-121v-185c0 -59 20 -70 68 -70h9c111 0 172 87 172 279c0 172 -80 279 -228 279z" />
    <glyph glyph-name="Ebreve" unicode="&#x114;" horiz-adv-x="680" 
d="M520 247h-66c-10 60 -28 78 -72 78h-74v-188c0 -54 27 -67 80 -67h25c70 0 102 37 166 138h76l-31 -208h-593v69c67 3 79 15 79 68v428c0 53 -12 65 -79 68v69h588v-192h-78c-31 81 -56 122 -136 122h-97v-234h74c44 0 62 18 72 78h66v-229zM351 746
c-101 0 -159 64 -159 170h70c9 -62 52 -78 89 -78s80 16 89 78h70c0 -106 -58 -170 -159 -170z" />
    <glyph glyph-name="Ecaron" unicode="&#x11a;" horiz-adv-x="680" 
d="M520 247h-66c-10 60 -28 78 -72 78h-74v-188c0 -54 27 -67 80 -67h25c70 0 102 37 166 138h76l-31 -208h-593v69c67 3 79 15 79 68v428c0 53 -12 65 -79 68v69h588v-192h-78c-31 81 -56 122 -136 122h-97v-234h74c44 0 62 18 72 78h66v-229zM557 921l-138 -169h-136
l-138 169h95l111 -80l111 80h95z" />
    <glyph glyph-name="Edotaccent" unicode="&#x116;" horiz-adv-x="680" 
d="M520 247h-66c-10 60 -28 78 -72 78h-74v-188c0 -54 27 -67 80 -67h25c70 0 102 37 166 138h76l-31 -208h-593v69c67 3 79 15 79 68v428c0 53 -12 65 -79 68v69h588v-192h-78c-31 81 -56 122 -136 122h-97v-234h74c44 0 62 18 72 78h66v-229zM352 743
c-64 0 -103 44 -103 95s39 95 103 95s102 -44 102 -95s-38 -95 -102 -95z" />
    <glyph glyph-name="Emacron" unicode="&#x112;" horiz-adv-x="680" 
d="M520 247h-66c-10 60 -28 78 -72 78h-74v-188c0 -54 27 -67 80 -67h25c70 0 102 37 166 138h76l-31 -208h-593v69c67 3 79 15 79 68v428c0 53 -12 65 -79 68v69h588v-192h-78c-31 81 -56 122 -136 122h-97v-234h74c44 0 62 18 72 78h66v-229zM192 758v106h318v-106h-318z
" />
    <glyph glyph-name="Eogonek" unicode="&#x118;" horiz-adv-x="680" 
d="M520 247h-66c-10 60 -28 78 -72 78h-74v-188c0 -54 27 -67 80 -67h25c70 0 102 37 166 138h76l-31 -208h-90c-40 -27 -60 -60 -60 -92c0 -22 12 -41 43 -41c20 0 41 3 70 20l19 -28c-45 -50 -88 -75 -145 -75c-52 0 -96 31 -96 84c0 58 40 100 94 132h-428v69
c67 3 79 15 79 68v428c0 53 -12 65 -79 68v69h588v-192h-78c-31 81 -56 122 -136 122h-97v-234h74c44 0 62 18 72 78h66v-229z" />
    <glyph glyph-name="Gbreve" unicode="&#x11e;" horiz-adv-x="766" 
d="M34 337c0 231 172 375 373 375c97 0 186 -28 240 -74v-163h-96c-27 99 -64 164 -146 164c-116 0 -160 -135 -160 -273c0 -173 45 -297 176 -297c27 0 40 2 62 10v128c0 52 -13 64 -77 66v71h335v-71c-67 -2 -77 -14 -77 -66v-144c-63 -46 -163 -72 -270 -72
c-237 0 -360 146 -360 346zM400 746c-101 0 -159 64 -159 170h70c9 -62 52 -78 89 -78s80 16 89 78h70c0 -106 -58 -170 -159 -170z" />
    <glyph glyph-name="Gcircumflex" unicode="&#x11c;" horiz-adv-x="766" 
d="M34 337c0 231 172 375 373 375c97 0 186 -28 240 -74v-163h-96c-27 99 -64 164 -146 164c-116 0 -160 -135 -160 -273c0 -173 45 -297 176 -297c27 0 40 2 62 10v128c0 52 -13 64 -77 66v71h335v-71c-67 -2 -77 -14 -77 -66v-144c-63 -46 -163 -72 -270 -72
c-237 0 -360 146 -360 346zM471 918l138 -169h-95l-111 80l-111 -80h-95l138 169h136z" />
    <glyph glyph-name="Gcommaaccent" unicode="&#x122;" horiz-adv-x="766" 
d="M34 337c0 231 172 375 373 375c97 0 186 -28 240 -74v-163h-96c-27 99 -64 164 -146 164c-116 0 -160 -135 -160 -273c0 -173 45 -297 176 -297c27 0 40 2 62 10v128c0 52 -13 64 -77 66v71h335v-71c-67 -2 -77 -14 -77 -66v-144c-63 -46 -163 -72 -270 -72
c-237 0 -360 146 -360 346zM429 -158h-59c-30 8 -50 26 -50 62s31 64 85 64c61 0 98 -41 98 -98c0 -67 -48 -120 -177 -120v45c67 0 101 20 103 47z" />
    <glyph glyph-name="Gdotaccent" unicode="&#x120;" horiz-adv-x="766" 
d="M34 337c0 231 172 375 373 375c97 0 186 -28 240 -74v-163h-96c-27 99 -64 164 -146 164c-116 0 -160 -135 -160 -273c0 -173 45 -297 176 -297c27 0 40 2 62 10v128c0 52 -13 64 -77 66v71h335v-71c-67 -2 -77 -14 -77 -66v-144c-63 -46 -163 -72 -270 -72
c-237 0 -360 146 -360 346zM404 743c-64 0 -103 44 -103 95s39 95 103 95s102 -44 102 -95s-38 -95 -102 -95z" />
    <glyph glyph-name="Hbar" unicode="&#x126;" horiz-adv-x="878" 
d="M38 449v71h79v45c0 53 -12 65 -79 68v69h356v-69c-66 -3 -79 -15 -79 -68v-45h248v45c0 53 -13 65 -79 68v69h356v-69c-67 -3 -79 -15 -79 -68v-45h79v-71h-79v-312c0 -53 12 -65 79 -68v-69h-356v69c66 3 79 15 79 68v148h-248v-148c0 -53 13 -65 79 -68v-69h-356v69
c67 3 79 15 79 68v312h-79zM315 358h248v91h-248v-91z" />
    <glyph glyph-name="Hcircumflex" unicode="&#x124;" horiz-adv-x="864" 
d="M556 137v188h-248v-188c0 -53 13 -65 79 -68v-69h-356v69c67 3 79 15 79 68v428c0 53 -12 65 -79 68v69h356v-69c-66 -3 -79 -15 -79 -68v-167h248v167c0 53 -13 65 -79 68v69h356v-69c-67 -3 -79 -15 -79 -68v-428c0 -53 12 -65 79 -68v-69h-356v69c66 3 79 15 79 68z
M500 918l138 -169h-95l-111 80l-111 -80h-95l138 169h136z" />
    <glyph glyph-name="Ibreve" unicode="&#x12c;" horiz-adv-x="418" 
d="M387 0h-356v69c67 3 79 15 79 68v428c0 53 -12 65 -79 68v69h356v-69c-67 -3 -79 -15 -79 -68v-428c0 -53 12 -65 79 -68v-69zM209 746c-101 0 -159 64 -159 170h70c9 -62 52 -78 89 -78s80 16 89 78h70c0 -106 -58 -170 -159 -170z" />
    <glyph glyph-name="Idotaccent" unicode="&#x130;" horiz-adv-x="418" 
d="M387 0h-356v69c67 3 79 15 79 68v428c0 53 -12 65 -79 68v69h356v-69c-67 -3 -79 -15 -79 -68v-428c0 -53 12 -65 79 -68v-69zM210 743c-64 0 -103 44 -103 95s39 95 103 95s102 -44 102 -95s-38 -95 -102 -95z" />
    <glyph glyph-name="Imacron" unicode="&#x12a;" horiz-adv-x="418" 
d="M387 0h-356v69c67 3 79 15 79 68v428c0 53 -12 65 -79 68v69h356v-69c-67 -3 -79 -15 -79 -68v-428c0 -53 12 -65 79 -68v-69zM50 758v106h318v-106h-318z" />
    <glyph glyph-name="Iogonek" unicode="&#x12e;" horiz-adv-x="418" 
d="M387 0h-129c-40 -27 -60 -60 -60 -92c0 -22 12 -41 43 -41c20 0 41 3 70 20l19 -28c-45 -50 -88 -75 -145 -75c-52 0 -96 31 -96 84c0 58 40 100 94 132h-152v69c67 3 79 15 79 68v428c0 53 -12 65 -79 68v69h356v-69c-67 -3 -79 -15 -79 -68v-428c0 -53 12 -65 79 -68
v-69z" />
    <glyph glyph-name="Itilde" unicode="&#x128;" horiz-adv-x="418" 
d="M387 0h-356v69c67 3 79 15 79 68v428c0 53 -12 65 -79 68v69h356v-69c-67 -3 -79 -15 -79 -68v-428c0 -53 12 -65 79 -68v-69zM350 901l60 -12c-54 -126 -83 -149 -141 -149c-56 0 -99 60 -136 60c-29 0 -46 -25 -65 -55l-60 12c54 126 82 149 141 149
c65 0 98 -60 136 -60c28 0 46 24 65 55z" />
    <glyph glyph-name="IJ" unicode="&#x132;" horiz-adv-x="1030" 
d="M387 0h-356v69c67 3 79 15 79 68v428c0 53 -12 65 -79 68v69h356v-69c-67 -3 -79 -15 -79 -68v-428c0 -53 12 -65 79 -68v-69zM932 565v-339c0 -164 -98 -236 -268 -236c-151 0 -238 54 -238 151c0 46 22 72 50 91h135v-51c0 -68 9 -122 59 -122c55 0 62 53 62 134v372
c0 53 -11 65 -77 68v69h357v-69c-67 -3 -80 -15 -80 -68z" />
    <glyph glyph-name="Jcircumflex" unicode="&#x134;" horiz-adv-x="612" 
d="M514 565v-339c0 -164 -98 -236 -268 -236c-151 0 -238 54 -238 151c0 46 22 72 50 91h135v-51c0 -68 9 -122 59 -122c55 0 62 53 62 134v372c0 53 -11 65 -77 68v69h357v-69c-67 -3 -80 -15 -80 -68zM471 918l138 -169h-95l-111 80l-111 -80h-95l138 169h136z" />
    <glyph glyph-name="Kcommaaccent" unicode="&#x136;" horiz-adv-x="790" 
d="M504 426l181 -286c36 -57 59 -72 101 -72v-68h-226c-31 20 -54 49 -88 105l-154 252l209 200c18 17 29 28 29 45c0 16 -11 31 -61 31v69h264v-69c-42 -1 -55 -11 -82 -37zM110 137v428c0 53 -12 65 -79 68v69h356v-69c-66 -3 -77 -15 -77 -68v-428c0 -53 11 -65 77 -68
v-69h-356v69c67 3 79 15 79 68zM436 -158h-59c-30 8 -50 26 -50 62s31 64 85 64c61 0 98 -41 98 -98c0 -67 -48 -120 -177 -120v45c67 0 101 20 103 47z" />
    <glyph glyph-name="Lacute" unicode="&#x139;" horiz-adv-x="662" 
d="M310 565v-426c0 -54 21 -67 75 -67h25c63 0 78 26 160 169h82l-38 -241h-583v69c67 3 79 15 79 68v428c0 52 -12 64 -79 67v70h356v-70c-66 -3 -77 -15 -77 -67zM245 909h185l-156 -158h-101z" />
    <glyph glyph-name="Lcaron" unicode="&#x13d;" horiz-adv-x="662" 
d="M310 565v-426c0 -54 21 -67 75 -67h25c63 0 78 26 160 169h82l-38 -241h-583v69c67 3 79 15 79 68v428c0 52 -12 64 -79 67v70h356v-70c-66 -3 -77 -15 -77 -67zM621 707l-93 -205h-76l14 205h155z" />
    <glyph glyph-name="Lcommaaccent" unicode="&#x13b;" horiz-adv-x="662" 
d="M310 565v-426c0 -54 21 -67 75 -67h25c63 0 78 26 160 169h82l-38 -241h-583v69c67 3 79 15 79 68v428c0 52 -12 64 -79 67v70h356v-70c-66 -3 -77 -15 -77 -67zM359 -158h-59c-30 8 -50 26 -50 62s31 64 85 64c61 0 98 -41 98 -98c0 -67 -48 -120 -177 -120v45
c67 0 101 20 103 47z" />
    <glyph glyph-name="Ldot" unicode="&#x13f;" horiz-adv-x="662" 
d="M310 565v-426c0 -54 21 -67 75 -67h25c63 0 78 26 160 169h82l-38 -241h-583v69c67 3 79 15 79 68v428c0 52 -12 64 -79 67v70h356v-70c-66 -3 -77 -15 -77 -67zM551 315c-64 0 -103 44 -103 95s39 95 103 95s102 -44 102 -95s-38 -95 -102 -95z" />
    <glyph glyph-name="Nacute" unicode="&#x143;" horiz-adv-x="778" 
d="M110 137v447c-29 40 -44 45 -79 49v69h272l289 -380v243c0 53 -23 65 -88 68v69h256v-69c-66 -3 -78 -15 -78 -68v-565h-81l-401 503v-366c0 -53 22 -65 88 -68v-69h-257v69c67 3 79 15 79 68zM411 909h185l-156 -158h-101z" />
    <glyph glyph-name="Ncaron" unicode="&#x147;" horiz-adv-x="778" 
d="M110 137v447c-29 40 -44 45 -79 49v69h272l289 -380v243c0 53 -23 65 -88 68v69h256v-69c-66 -3 -78 -15 -78 -68v-565h-81l-401 503v-366c0 -53 22 -65 88 -68v-69h-257v69c67 3 79 15 79 68zM601 921l-138 -169h-136l-138 169h95l111 -80l111 80h95z" />
    <glyph glyph-name="Ncommaaccent" unicode="&#x145;" horiz-adv-x="778" 
d="M110 137v447c-29 40 -44 45 -79 49v69h272l289 -380v243c0 53 -23 65 -88 68v69h256v-69c-66 -3 -78 -15 -78 -68v-565h-81l-401 503v-366c0 -53 22 -65 88 -68v-69h-257v69c67 3 79 15 79 68zM413 -158h-59c-30 8 -50 26 -50 62s31 64 85 64c61 0 98 -41 98 -98
c0 -67 -48 -120 -177 -120v45c67 0 101 20 103 47z" />
    <glyph glyph-name="Eng" unicode="&#x14a;" horiz-adv-x="778" 
d="M524 89l-324 414v-366c0 -53 22 -65 88 -68v-69h-257v69c67 3 79 15 79 68v447c-29 40 -44 45 -79 49v69h272l289 -380v243c0 53 -23 65 -88 68v69h256v-69c-66 -3 -78 -15 -78 -68v-433c0 -115 -29 -170 -72 -219c-51 -57 -94 -94 -150 -122l-36 34l40 60
c35 52 60 114 60 204z" />
    <glyph glyph-name="Obreve" unicode="&#x14e;" horiz-adv-x="766" 
d="M395 64c92 0 127 121 127 271c0 182 -48 303 -151 303c-92 0 -127 -121 -127 -271c0 -182 48 -303 151 -303zM392 712c220 0 340 -161 340 -347c0 -230 -153 -375 -358 -375c-220 0 -340 161 -340 347c0 230 153 375 358 375zM391 746c-101 0 -159 64 -159 170h70
c9 -62 52 -78 89 -78s80 16 89 78h70c0 -106 -58 -170 -159 -170z" />
    <glyph glyph-name="Ohungarumlaut" unicode="&#x150;" horiz-adv-x="766" 
d="M395 64c92 0 127 121 127 271c0 182 -48 303 -151 303c-92 0 -127 -121 -127 -271c0 -182 48 -303 151 -303zM392 712c220 0 340 -161 340 -347c0 -230 -153 -375 -358 -375c-220 0 -340 161 -340 347c0 230 153 375 358 375zM312 909h158l-137 -158h-88zM507 909h158
l-137 -158h-88z" />
    <glyph glyph-name="Omacron" unicode="&#x14c;" horiz-adv-x="766" 
d="M395 64c92 0 127 121 127 271c0 182 -48 303 -151 303c-92 0 -127 -121 -127 -271c0 -182 48 -303 151 -303zM392 712c220 0 340 -161 340 -347c0 -230 -153 -375 -358 -375c-220 0 -340 161 -340 347c0 230 153 375 358 375zM232 758v106h318v-106h-318z" />
    <glyph glyph-name="Oslashacute" unicode="&#x1fe;" horiz-adv-x="770" 
d="M642 728l-44 -77c89 -63 136 -170 136 -286c0 -230 -153 -375 -358 -375c-52 0 -99 10 -139 25l-48 -84l-61 32l48 85c-92 63 -140 171 -140 289c0 230 153 375 358 375c54 0 102 -10 144 -28l43 76zM242 367c0 -69 6 -126 18 -171l218 384c-25 38 -60 58 -105 58
c-92 0 -131 -121 -131 -271zM397 64c92 0 131 121 131 271c0 65 -6 120 -17 164l-217 -382c25 -36 60 -53 103 -53zM401 909h185l-156 -158h-101z" />
    <glyph glyph-name="Racute" unicode="&#x154;" horiz-adv-x="762" 
d="M329 630h-22v-273h20c106 0 153 45 153 141c0 88 -56 132 -151 132zM31 702h370c188 0 276 -78 276 -205c0 -87 -61 -151 -140 -174l114 -182c36 -58 57 -71 107 -72v-69h-229c-29 25 -55 59 -83 110l-97 179h-42v-152c0 -53 10 -65 76 -68v-69h-352v69c67 3 79 15 79 68
v428c0 53 -12 65 -79 65v72zM392 909h185l-156 -158h-101z" />
    <glyph glyph-name="Rcaron" unicode="&#x158;" horiz-adv-x="762" 
d="M329 630h-22v-273h20c106 0 153 45 153 141c0 88 -56 132 -151 132zM31 702h370c188 0 276 -78 276 -205c0 -87 -61 -151 -140 -174l114 -182c36 -58 57 -71 107 -72v-69h-229c-29 25 -55 59 -83 110l-97 179h-42v-152c0 -53 10 -65 76 -68v-69h-352v69c67 3 79 15 79 68
v428c0 53 -12 65 -79 65v72zM582 921l-138 -169h-136l-138 169h95l111 -80l111 80h95z" />
    <glyph glyph-name="Rcommaaccent" unicode="&#x156;" horiz-adv-x="762" 
d="M329 630h-22v-273h20c106 0 153 45 153 141c0 88 -56 132 -151 132zM31 702h370c188 0 276 -78 276 -205c0 -87 -61 -151 -140 -174l114 -182c36 -58 57 -71 107 -72v-69h-229c-29 25 -55 59 -83 110l-97 179h-42v-152c0 -53 10 -65 76 -68v-69h-352v69c67 3 79 15 79 68
v428c0 53 -12 65 -79 65v72zM404 -158h-59c-30 8 -50 26 -50 62s31 64 85 64c61 0 98 -41 98 -98c0 -67 -48 -120 -177 -120v45c67 0 101 20 103 47z" />
    <glyph glyph-name="Sacute" unicode="&#x15a;" horiz-adv-x="614" 
d="M295 -10c-102 0 -192 30 -242 67l-11 167h101c28 -113 75 -165 168 -165c61 0 106 28 106 88c0 50 -31 74 -140 103c-157 42 -228 102 -228 232c0 145 108 230 259 230c98 0 175 -24 225 -60v-153h-86c-28 82 -59 145 -152 145c-65 0 -98 -37 -98 -82
c0 -60 37 -81 141 -107c149 -38 234 -96 234 -238c0 -157 -123 -227 -277 -227zM331 909h185l-156 -158h-101z" />
    <glyph glyph-name="Scedilla" unicode="&#x15e;" horiz-adv-x="614" 
d="M199 -233l-11 49c72 0 115 12 115 39c0 25 -38 34 -85 36l41 101c-87 6 -162 32 -206 65l-11 167h101c28 -113 75 -165 168 -165c61 0 106 28 106 88c0 50 -31 74 -140 103c-157 42 -228 102 -228 232c0 145 108 230 259 230c98 0 175 -24 225 -60v-153h-86
c-28 82 -59 145 -152 145c-65 0 -98 -37 -98 -82c0 -60 37 -81 141 -107c149 -38 234 -96 234 -238c0 -152 -116 -222 -263 -227l-12 -34c59 -6 97 -29 97 -78c0 -74 -95 -111 -195 -111z" />
    <glyph glyph-name="Scircumflex" unicode="&#x15c;" horiz-adv-x="614" 
d="M295 -10c-102 0 -192 30 -242 67l-11 167h101c28 -113 75 -165 168 -165c61 0 106 28 106 88c0 50 -31 74 -140 103c-157 42 -228 102 -228 232c0 145 108 230 259 230c98 0 175 -24 225 -60v-153h-86c-28 82 -59 145 -152 145c-65 0 -98 -37 -98 -82
c0 -60 37 -81 141 -107c149 -38 234 -96 234 -238c0 -157 -123 -227 -277 -227zM382 918l138 -169h-95l-111 80l-111 -80h-95l138 169h136z" />
    <glyph glyph-name="Scommaaccent" unicode="&#x218;" horiz-adv-x="614" 
d="M295 -10c-102 0 -192 30 -242 67l-11 167h101c28 -113 75 -165 168 -165c61 0 106 28 106 88c0 50 -31 74 -140 103c-157 42 -228 102 -228 232c0 145 108 230 259 230c98 0 175 -24 225 -60v-153h-86c-28 82 -59 145 -152 145c-65 0 -98 -37 -98 -82
c0 -60 37 -81 141 -107c149 -38 234 -96 234 -238c0 -157 -123 -227 -277 -227zM331 -158h-59c-30 8 -50 26 -50 62s31 64 85 64c61 0 98 -41 98 -98c0 -67 -48 -120 -177 -120v45c67 0 101 20 103 47z" />
    <glyph glyph-name="Tbar" unicode="&#x166;" horiz-adv-x="714" 
d="M30 702h654l15 -237h-79c-45 112 -66 170 -145 170h-20v-234h99v-71h-99v-193c0 -53 18 -65 84 -68v-69h-366v69c67 3 86 15 86 68v193h-99v71h99v234h-21c-79 0 -100 -58 -145 -170h-78z" />
    <glyph glyph-name="Tcaron" unicode="&#x164;" horiz-adv-x="714" 
d="M30 702h654l15 -237h-79c-45 112 -66 170 -145 170h-20v-498c0 -53 18 -65 84 -68v-69h-366v69c67 3 86 15 86 68v498h-21c-79 0 -100 -58 -145 -170h-78zM563 921l-138 -169h-136l-138 169h95l111 -80l111 80h95z" />
    <glyph glyph-name="Ubreve" unicode="&#x16c;" horiz-adv-x="775" 
d="M298 565v-297c0 -104 29 -172 131 -172c88 0 153 37 153 181v288c0 53 -22 65 -88 68v69h261v-69c-66 -3 -79 -15 -79 -68v-318c0 -175 -123 -257 -276 -257c-193 0 -302 86 -302 258v317c0 53 -12 65 -78 68v69h354v-69c-65 -3 -76 -15 -76 -68zM423 746
c-101 0 -159 64 -159 170h70c9 -62 52 -78 89 -78s80 16 89 78h70c0 -106 -58 -170 -159 -170z" />
    <glyph glyph-name="Uhungarumlaut" unicode="&#x170;" horiz-adv-x="775" 
d="M298 565v-297c0 -104 29 -172 131 -172c88 0 153 37 153 181v288c0 53 -22 65 -88 68v69h261v-69c-66 -3 -79 -15 -79 -68v-318c0 -175 -123 -257 -276 -257c-193 0 -302 86 -302 258v317c0 53 -12 65 -78 68v69h354v-69c-65 -3 -76 -15 -76 -68zM344 909h158l-137 -158
h-88zM539 909h158l-137 -158h-88z" />
    <glyph glyph-name="Umacron" unicode="&#x16a;" horiz-adv-x="775" 
d="M298 565v-297c0 -104 29 -172 131 -172c88 0 153 37 153 181v288c0 53 -22 65 -88 68v69h261v-69c-66 -3 -79 -15 -79 -68v-318c0 -175 -123 -257 -276 -257c-193 0 -302 86 -302 258v317c0 53 -12 65 -78 68v69h354v-69c-65 -3 -76 -15 -76 -68zM264 758v106h318v-106
h-318z" />
    <glyph glyph-name="Uogonek" unicode="&#x172;" horiz-adv-x="775" 
d="M528 43l13 -24c-62 -31 -93 -71 -93 -111c0 -22 12 -41 43 -41c20 0 41 3 70 20l19 -28c-45 -50 -88 -75 -145 -75c-52 0 -96 31 -96 84c0 52 33 92 79 123c-6 -1 -12 -1 -18 -1c-193 0 -302 86 -302 258v317c0 53 -12 65 -78 68v69h354v-69c-65 -3 -76 -15 -76 -68v-297
c0 -104 29 -172 131 -172c88 0 153 37 153 181v288c0 53 -22 65 -88 68v69h261v-69c-66 -3 -79 -15 -79 -68v-318c0 -168 -114 -250 -258 -256c32 21 71 38 110 52z" />
    <glyph glyph-name="Uring" unicode="&#x16e;" horiz-adv-x="775" 
d="M298 565v-297c0 -104 29 -172 131 -172c88 0 153 37 153 181v288c0 53 -22 65 -88 68v69h261v-69c-66 -3 -79 -15 -79 -68v-318c0 -175 -123 -257 -276 -257c-193 0 -302 86 -302 258v317c0 53 -12 65 -78 68v69h354v-69c-65 -3 -76 -15 -76 -68zM310 840
c0 57 47 101 113 101s113 -44 113 -101s-47 -101 -113 -101s-113 44 -113 101zM469 840c0 25 -16 44 -46 44s-46 -19 -46 -44s16 -44 46 -44s46 19 46 44z" />
    <glyph glyph-name="Utilde" unicode="&#x168;" horiz-adv-x="775" 
d="M298 565v-297c0 -104 29 -172 131 -172c88 0 153 37 153 181v288c0 53 -22 65 -88 68v69h261v-69c-66 -3 -79 -15 -79 -68v-318c0 -175 -123 -257 -276 -257c-193 0 -302 86 -302 258v317c0 53 -12 65 -78 68v69h354v-69c-65 -3 -76 -15 -76 -68zM564 901l60 -12
c-54 -126 -83 -149 -141 -149c-56 0 -99 60 -136 60c-29 0 -46 -25 -65 -55l-60 12c54 126 82 149 141 149c65 0 98 -60 136 -60c28 0 46 24 65 55z" />
    <glyph glyph-name="Wacute" unicode="&#x1e82;" horiz-adv-x="1031" 
d="M756 278l93 253c10 29 15 47 15 58c0 29 -10 41 -69 44v69h229v-69c-27 -5 -48 -9 -59 -37l-225 -600h-75l-138 385l-145 -385h-73l-245 600c-11 25 -30 32 -57 37v69h338v-69c-43 -4 -59 -16 -59 -44c0 -11 4 -27 13 -50l104 -268l84 221l-35 104c-9 23 -23 32 -50 37
v69h328v-69c-60 -3 -69 -15 -69 -44c0 -11 2 -26 14 -62zM573 909h185l-156 -158h-101z" />
    <glyph glyph-name="Wcircumflex" unicode="&#x174;" horiz-adv-x="1031" 
d="M756 278l93 253c10 29 15 47 15 58c0 29 -10 41 -69 44v69h229v-69c-27 -5 -48 -9 -59 -37l-225 -600h-75l-138 385l-145 -385h-73l-245 600c-11 25 -30 32 -57 37v69h338v-69c-43 -4 -59 -16 -59 -44c0 -11 4 -27 13 -50l104 -268l84 221l-35 104c-9 23 -23 32 -50 37
v69h328v-69c-60 -3 -69 -15 -69 -44c0 -11 2 -26 14 -62zM625 918l138 -169h-95l-111 80l-111 -80h-95l138 169h136z" />
    <glyph glyph-name="Wgrave" unicode="&#x1e80;" horiz-adv-x="1031" 
d="M756 278l93 253c10 29 15 47 15 58c0 29 -10 41 -69 44v69h229v-69c-27 -5 -48 -9 -59 -37l-225 -600h-75l-138 385l-145 -385h-73l-245 600c-11 25 -30 32 -57 37v69h338v-69c-43 -4 -59 -16 -59 -44c0 -11 4 -27 13 -50l104 -268l84 221l-35 104c-9 23 -23 32 -50 37
v69h328v-69c-60 -3 -69 -15 -69 -44c0 -11 2 -26 14 -62zM365 909h185l72 -158h-101z" />
    <glyph glyph-name="Wdieresis" unicode="&#x1e84;" horiz-adv-x="1031" 
d="M756 278l93 253c10 29 15 47 15 58c0 29 -10 41 -69 44v69h229v-69c-27 -5 -48 -9 -59 -37l-225 -600h-75l-138 385l-145 -385h-73l-245 600c-11 25 -30 32 -57 37v69h338v-69c-43 -4 -59 -16 -59 -44c0 -11 4 -27 13 -50l104 -268l84 221l-35 104c-9 23 -23 32 -50 37
v69h328v-69c-60 -3 -69 -15 -69 -44c0 -11 2 -26 14 -62zM358 831c0 48 40 88 89 88s90 -40 90 -88s-41 -88 -90 -88s-89 40 -89 88zM578 831c0 48 41 88 88 88c51 0 91 -40 91 -88s-40 -88 -91 -88c-47 0 -88 40 -88 88z" />
    <glyph glyph-name="Ycircumflex" unicode="&#x176;" horiz-adv-x="711" 
d="M413 343l104 190c15 27 24 46 24 61c0 27 -21 37 -67 39v69h230v-69c-28 -5 -44 -11 -58 -37l-189 -340v-119c0 -53 18 -65 85 -68v-69h-366v69c66 3 85 15 85 68v120l-197 339c-15 26 -29 32 -57 37v69h346v-69c-52 -2 -65 -12 -65 -39c0 -18 9 -35 23 -61zM455 918
l138 -169h-95l-111 80l-111 -80h-95l138 169h136z" />
    <glyph glyph-name="Ygrave" unicode="&#x1ef2;" horiz-adv-x="711" 
d="M413 343l104 190c15 27 24 46 24 61c0 27 -21 37 -67 39v69h230v-69c-28 -5 -44 -11 -58 -37l-189 -340v-119c0 -53 18 -65 85 -68v-69h-366v69c66 3 85 15 85 68v120l-197 339c-15 26 -29 32 -57 37v69h346v-69c-52 -2 -65 -12 -65 -39c0 -18 9 -35 23 -61zM195 909h185
l72 -158h-101z" />
    <glyph glyph-name="Zacute" unicode="&#x179;" horiz-adv-x="649" 
d="M257 72h128c71 0 93 20 169 162h76l-35 -234h-573v48l359 581h-121c-81 0 -92 -53 -133 -137h-71v210h557v-49zM358 909h185l-156 -158h-101z" />
    <glyph glyph-name="Zdotaccent" unicode="&#x17b;" horiz-adv-x="649" 
d="M257 72h128c71 0 93 20 169 162h76l-35 -234h-573v48l359 581h-121c-81 0 -92 -53 -133 -137h-71v210h557v-49zM343 743c-64 0 -103 44 -103 95s39 95 103 95s102 -44 102 -95s-38 -95 -102 -95z" />
    <glyph glyph-name="abreve" unicode="&#x103;" horiz-adv-x="591" 
d="M279 102c20 0 31 4 45 13v165l-59 -24c-35 -14 -49 -35 -49 -75c0 -48 23 -79 63 -79zM510 342c0 -4 -1 -190 -1 -195c0 -30 4 -52 30 -52c8 0 28 2 42 6l9 -51c-34 -32 -90 -60 -146 -60c-59 0 -98 37 -117 91c-31 -43 -78 -87 -158 -87c-84 0 -141 53 -141 141
s64 121 135 145l161 56v62c0 77 -16 101 -56 101c-35 0 -51 -26 -51 -62c0 -23 2 -45 9 -69l-120 -18c-29 10 -43 37 -43 70c0 97 93 140 222 140c143 0 225 -45 225 -218zM286 603c-101 0 -159 64 -159 170h70c9 -62 52 -78 89 -78s80 16 89 78h70
c0 -106 -58 -170 -159 -170z" />
    <glyph glyph-name="amacron" unicode="&#x101;" horiz-adv-x="591" 
d="M279 102c20 0 31 4 45 13v165l-59 -24c-35 -14 -49 -35 -49 -75c0 -48 23 -79 63 -79zM510 342c0 -4 -1 -190 -1 -195c0 -30 4 -52 30 -52c8 0 28 2 42 6l9 -51c-34 -32 -90 -60 -146 -60c-59 0 -98 37 -117 91c-31 -43 -78 -87 -158 -87c-84 0 -141 53 -141 141
s64 121 135 145l161 56v62c0 77 -16 101 -56 101c-35 0 -51 -26 -51 -62c0 -23 2 -45 9 -69l-120 -18c-29 10 -43 37 -43 70c0 97 93 140 222 140c143 0 225 -45 225 -218zM138 626v101h308v-101h-308z" />
    <glyph glyph-name="aogonek" unicode="&#x105;" horiz-adv-x="591" 
d="M510 342c0 -4 -1 -190 -1 -195c0 -30 4 -52 30 -52c8 0 28 2 42 6l9 -51c-72 -42 -150 -76 -150 -142c0 -22 12 -41 43 -41c20 0 41 3 70 20l19 -28c-45 -50 -88 -75 -145 -75c-52 0 -96 31 -96 84c0 54 35 95 84 126c-43 9 -73 42 -88 87c-31 -43 -78 -87 -158 -87
c-84 0 -141 53 -141 141s64 121 135 145l161 56v62c0 77 -16 101 -56 101c-35 0 -51 -26 -51 -62c0 -23 2 -45 9 -69l-120 -18c-29 10 -43 37 -43 70c0 97 93 140 222 140c143 0 225 -45 225 -218zM279 102c20 0 31 4 45 13v165l-59 -24c-35 -14 -49 -35 -49 -75
c0 -48 23 -79 63 -79z" />
    <glyph glyph-name="aringacute" unicode="&#x1fb;" horiz-adv-x="591" 
d="M170 671c0 55 49 90 118 90s118 -35 118 -90s-49 -90 -118 -90s-118 35 -118 90zM340 671c0 26 -21 39 -52 39s-52 -13 -52 -39s21 -39 52 -39s52 13 52 39zM290 908h185l-139 -120h-91zM279 102c20 0 31 4 45 13v165l-59 -24c-35 -14 -49 -35 -49 -75
c0 -48 23 -79 63 -79zM510 342c0 -4 -1 -190 -1 -195c0 -30 4 -52 30 -52c8 0 28 2 42 6l9 -51c-34 -32 -90 -60 -146 -60c-59 0 -98 37 -117 91c-31 -43 -78 -87 -158 -87c-84 0 -141 53 -141 141s64 121 135 145l161 56v62c0 77 -16 101 -56 101c-35 0 -51 -26 -51 -62
c0 -23 2 -45 9 -69l-120 -18c-29 10 -43 37 -43 70c0 97 93 140 222 140c143 0 225 -45 225 -218z" />
    <glyph glyph-name="aeacute" unicode="&#x1fd;" horiz-adv-x="858" 
d="M603 560c145 0 220 -104 220 -229v-39h-327c0 -98 64 -159 152 -159c64 0 110 24 144 68l33 -22c-26 -114 -108 -189 -236 -189c-94 0 -171 40 -215 112c-50 -77 -125 -108 -195 -108c-92 0 -151 60 -151 141c0 88 63 125 142 147l170 47l3 11c-3 111 -25 159 -75 159
c-35 0 -51 -26 -51 -62c0 -23 2 -45 9 -69l-120 -18c-29 10 -43 37 -43 70c0 97 93 140 209 140c88 0 134 -20 164 -60c45 38 103 60 167 60zM461 766h184l-155 -160h-97zM586 491c-57 0 -81 -64 -88 -139h164c-1 82 -24 139 -76 139zM334 257v14l-67 -19
c-35 -10 -51 -39 -51 -79c0 -38 23 -71 63 -71c26 0 56 10 80 27c-16 36 -25 79 -25 128z" />
    <glyph glyph-name="cacute" unicode="&#x107;" horiz-adv-x="542" 
d="M203 332c0 -119 49 -201 147 -201c55 0 103 27 137 72l34 -23c-35 -132 -119 -190 -238 -190c-145 0 -251 102 -251 264c0 176 113 306 286 306c103 0 196 -49 196 -146c0 -41 -18 -68 -43 -78h-97v52c0 59 -14 101 -68 101s-103 -54 -103 -157zM317 766h184l-155 -160
h-97z" />
    <glyph glyph-name="ccaron" unicode="&#x10d;" horiz-adv-x="542" 
d="M203 332c0 -119 49 -201 147 -201c55 0 103 27 137 72l34 -23c-35 -132 -119 -190 -238 -190c-145 0 -251 102 -251 264c0 176 113 306 286 306c103 0 196 -49 196 -146c0 -41 -18 -68 -43 -78h-97v52c0 59 -14 101 -68 101s-103 -54 -103 -157zM508 775l-138 -169h-136
l-138 169h95l111 -80l111 80h95z" />
    <glyph glyph-name="ccircumflex" unicode="&#x109;" horiz-adv-x="542" 
d="M203 332c0 -119 49 -201 147 -201c55 0 103 27 137 72l34 -23c-35 -132 -119 -190 -238 -190c-145 0 -251 102 -251 264c0 176 113 306 286 306c103 0 196 -49 196 -146c0 -41 -18 -68 -43 -78h-97v52c0 59 -14 101 -68 101s-103 -54 -103 -157zM370 766l138 -169h-95
l-111 80l-111 -80h-95l138 169h136z" />
    <glyph glyph-name="cdotaccent" unicode="&#x10b;" horiz-adv-x="542" 
d="M203 332c0 -119 49 -201 147 -201c55 0 103 27 137 72l34 -23c-35 -132 -119 -190 -238 -190c-145 0 -251 102 -251 264c0 176 113 306 286 306c103 0 196 -49 196 -146c0 -41 -18 -68 -43 -78h-97v52c0 59 -14 101 -68 101s-103 -54 -103 -157zM303 598
c-64 0 -103 44 -103 95s39 95 103 95s102 -44 102 -95s-38 -95 -102 -95z" />
    <glyph glyph-name="dcaron" unicode="&#x10f;" horiz-adv-x="693" 
d="M404 -10v98c-31 -58 -81 -98 -166 -98c-120 0 -205 92 -205 256c0 197 121 307 282 307c38 0 71 -9 89 -24v97l-55 59v37l211 39h32v-616c0 -34 8 -53 38 -54h24v-69l-212 -32h-38zM334 487c-71 0 -109 -77 -109 -187c0 -122 46 -195 123 -195c20 0 39 5 56 12v271
c0 66 -17 99 -70 99zM821 766l-93 -205h-76l14 205h155z" />
    <glyph glyph-name="dcroat" unicode="&#x111;" horiz-adv-x="682" 
d="M654 577h-62v-432c0 -34 8 -53 38 -54h24v-69l-212 -32h-38v98c-31 -58 -81 -98 -166 -98c-120 0 -205 92 -205 256c0 197 130 286 264 286c50 0 92 -16 107 -34v79h-117v51h117v53h-55v47l211 33h32v-133h62v-51zM334 466c-71 0 -109 -56 -109 -166
c0 -122 46 -195 123 -195c20 0 39 5 56 12v250c0 66 -17 99 -70 99z" />
    <glyph glyph-name="ebreve" unicode="&#x115;" horiz-adv-x="561" 
d="M306 560c145 0 220 -104 220 -229v-39h-327c0 -98 64 -159 152 -159c64 0 110 24 144 68l33 -22c-26 -114 -108 -189 -236 -189c-149 0 -260 101 -260 267c0 183 124 303 274 303zM289 491c-57 0 -81 -64 -88 -139h164c-1 82 -24 139 -76 139zM297 603
c-101 0 -159 64 -159 170h70c9 -62 52 -78 89 -78s80 16 89 78h70c0 -106 -58 -170 -159 -170z" />
    <glyph glyph-name="ecaron" unicode="&#x11b;" horiz-adv-x="561" 
d="M306 560c145 0 220 -104 220 -229v-39h-327c0 -98 64 -159 152 -159c64 0 110 24 144 68l33 -22c-26 -114 -108 -189 -236 -189c-149 0 -260 101 -260 267c0 183 124 303 274 303zM289 491c-57 0 -81 -64 -88 -139h164c-1 82 -24 139 -76 139zM503 775l-138 -169h-136
l-138 169h95l111 -80l111 80h95z" />
    <glyph glyph-name="edotaccent" unicode="&#x117;" horiz-adv-x="561" 
d="M306 560c145 0 220 -104 220 -229v-39h-327c0 -98 64 -159 152 -159c64 0 110 24 144 68l33 -22c-26 -114 -108 -189 -236 -189c-149 0 -260 101 -260 267c0 183 124 303 274 303zM289 491c-57 0 -81 -64 -88 -139h164c-1 82 -24 139 -76 139zM297 598
c-64 0 -103 44 -103 95s39 95 103 95s102 -44 102 -95s-38 -95 -102 -95z" />
    <glyph glyph-name="emacron" unicode="&#x113;" horiz-adv-x="561" 
d="M306 560c145 0 220 -104 220 -229v-39h-327c0 -98 64 -159 152 -159c64 0 110 24 144 68l33 -22c-26 -114 -108 -189 -236 -189c-149 0 -260 101 -260 267c0 183 124 303 274 303zM289 491c-57 0 -81 -64 -88 -139h164c-1 82 -24 139 -76 139zM143 626v101h308v-101h-308
z" />
    <glyph glyph-name="eogonek" unicode="&#x119;" horiz-adv-x="561" 
d="M306 560c145 0 220 -104 220 -229v-39h-327c0 -98 64 -159 152 -159c64 0 110 24 144 68l33 -22c-18 -79 -63 -139 -131 -169c-52 -29 -77 -65 -77 -102c0 -22 12 -41 43 -41c20 0 41 3 70 20l19 -28c-45 -50 -88 -75 -145 -75c-52 0 -96 31 -96 84c0 52 33 92 78 122
c-147 1 -257 102 -257 267c0 183 124 303 274 303zM289 491c-57 0 -81 -64 -88 -139h164c-1 82 -24 139 -76 139z" />
    <glyph glyph-name="gbreve" unicode="&#x11f;" horiz-adv-x="597" 
d="M286 197c-36 0 -74 4 -108 15c-17 -20 -26 -32 -26 -47c0 -14 8 -21 24 -21h241c119 0 176 -59 176 -149c0 -129 -123 -202 -310 -202c-162 0 -262 38 -262 117c0 49 50 75 89 82c-41 16 -73 48 -73 104c0 54 36 90 107 129c-55 26 -96 72 -96 144c0 120 104 191 247 191
c41 0 74 -6 101 -13l185 7v-92h-44l-78 17v-6c45 -20 70 -52 70 -102c0 -111 -104 -174 -243 -174zM307 603c-101 0 -159 64 -159 170h70c9 -62 52 -78 89 -78s80 16 89 78h70c0 -106 -58 -170 -159 -170zM397 -33h-258c-5 -6 -7 -17 -7 -30c0 -56 59 -83 154 -83
c89 0 163 17 163 75c0 27 -21 38 -52 38zM293 254c40 0 54 41 54 108c0 80 -21 140 -67 140c-41 0 -54 -42 -54 -108c0 -77 21 -140 67 -140z" />
    <glyph glyph-name="gcircumflex" unicode="&#x11d;" horiz-adv-x="597" 
d="M286 197c-36 0 -74 4 -108 15c-17 -20 -26 -32 -26 -47c0 -14 8 -21 24 -21h241c119 0 176 -59 176 -149c0 -129 -123 -202 -310 -202c-162 0 -262 38 -262 117c0 49 50 75 89 82c-41 16 -73 48 -73 104c0 54 36 90 107 129c-55 26 -96 72 -96 144c0 120 104 191 247 191
c41 0 74 -6 101 -13l185 7v-92h-44l-78 17v-6c45 -20 70 -52 70 -102c0 -111 -104 -174 -243 -174zM375 766l138 -169h-95l-111 80l-111 -80h-95l138 169h136zM397 -33h-258c-5 -6 -7 -17 -7 -30c0 -56 59 -83 154 -83c89 0 163 17 163 75c0 27 -21 38 -52 38zM293 254
c40 0 54 41 54 108c0 80 -21 140 -67 140c-41 0 -54 -42 -54 -108c0 -77 21 -140 67 -140z" />
    <glyph glyph-name="gcommaaccent" unicode="&#x123;" horiz-adv-x="597" 
d="M286 197c-36 0 -74 4 -108 15c-17 -20 -26 -32 -26 -47c0 -14 8 -21 24 -21h241c119 0 176 -59 176 -149c0 -129 -123 -202 -310 -202c-162 0 -262 38 -262 117c0 49 50 75 89 82c-41 16 -73 48 -73 104c0 54 36 90 107 129c-55 26 -96 72 -96 144c0 120 104 191 247 191
c41 0 74 -6 101 -13l185 7v-92h-44l-78 17v-6c45 -20 70 -52 70 -102c0 -111 -104 -174 -243 -174zM397 -33h-258c-5 -6 -7 -17 -7 -30c0 -56 59 -83 154 -83c89 0 163 17 163 75c0 27 -21 38 -52 38zM290 721h59c30 -8 50 -26 50 -62s-31 -64 -85 -64c-61 0 -98 41 -98 98
c0 67 48 120 177 120v-45c-67 0 -101 -20 -103 -47zM293 254c40 0 54 41 54 108c0 80 -21 140 -67 140c-41 0 -54 -42 -54 -108c0 -77 21 -140 67 -140z" />
    <glyph glyph-name="gdotaccent" unicode="&#x121;" horiz-adv-x="597" 
d="M286 197c-36 0 -74 4 -108 15c-17 -20 -26 -32 -26 -47c0 -14 8 -21 24 -21h241c119 0 176 -59 176 -149c0 -129 -123 -202 -310 -202c-162 0 -262 38 -262 117c0 49 50 75 89 82c-41 16 -73 48 -73 104c0 54 36 90 107 129c-55 26 -96 72 -96 144c0 120 104 191 247 191
c41 0 74 -6 101 -13l185 7v-92h-44l-78 17v-6c45 -20 70 -52 70 -102c0 -111 -104 -174 -243 -174zM397 -33h-258c-5 -6 -7 -17 -7 -30c0 -56 59 -83 154 -83c89 0 163 17 163 75c0 27 -21 38 -52 38zM308 598c-64 0 -103 44 -103 95s39 95 103 95s102 -44 102 -95
s-38 -95 -102 -95zM293 254c40 0 54 41 54 108c0 80 -21 140 -67 140c-41 0 -54 -42 -54 -108c0 -77 21 -140 67 -140z" />
    <glyph glyph-name="hbar" unicode="&#x127;" horiz-adv-x="703" 
d="M400 577h-123v-126c42 47 106 105 193 105c98 0 153 -53 153 -164v-268c0 -46 15 -51 60 -57v-67h-304v67c45 6 56 11 56 57v250c0 41 -15 63 -62 63c-38 0 -69 -8 -96 -17v-296c0 -46 11 -51 56 -57v-67h-305v67c46 6 61 11 61 57v453h-56v51h56v53h-56v47l212 33h32
v-133h123v-51z" />
    <glyph glyph-name="hcircumflex" unicode="&#x125;" horiz-adv-x="697" 
d="M271 761v-306c42 47 106 105 193 105c98 0 153 -53 153 -164v-272c0 -46 15 -51 60 -57v-67h-304v67c45 6 56 11 56 57v254c0 41 -15 63 -62 63c-38 0 -69 -8 -96 -17v-300c0 -46 11 -51 56 -57v-67h-305v67c46 6 61 11 61 57v502l-56 59v37l212 39h32zM407 958l138 -169
h-95l-111 80l-111 -80h-95l138 169h136z" />
    <glyph glyph-name="ibreve" unicode="&#x12d;" horiz-adv-x="366" 
d="M281 561v-437c0 -46 16 -51 61 -57v-67h-310v67c45 6 61 11 61 57v295l-56 60v31l211 51h33zM187 603c-101 0 -159 64 -159 170h70c9 -62 52 -78 89 -78s80 16 89 78h70c0 -106 -58 -170 -159 -170z" />
    <glyph glyph-name="imacron" unicode="&#x12b;" horiz-adv-x="366" 
d="M46 626v101h276v-101h-276zM281 561v-437c0 -46 16 -51 61 -57v-67h-310v67c45 6 61 11 61 57v295l-56 60v31l211 51h33z" />
    <glyph glyph-name="iogonek" unicode="&#x12f;" horiz-adv-x="366" 
d="M281 561v-437c0 -46 16 -51 61 -57v-67h-106c-40 -27 -60 -60 -60 -92c0 -22 12 -41 43 -41c20 0 41 3 70 20l19 -28c-45 -50 -88 -75 -145 -75c-52 0 -96 31 -96 84c0 58 40 100 94 132h-129v67c45 6 61 11 61 57v295l-56 60v31l211 51h33zM185 593
c-64 0 -103 44 -103 95s39 95 103 95s102 -44 102 -95s-38 -95 -102 -95z" />
    <glyph glyph-name="itilde" unicode="&#x129;" horiz-adv-x="366" 
d="M318 773l60 -12c-54 -126 -83 -149 -133 -149c-49 0 -86 60 -117 60c-29 0 -46 -25 -65 -55l-60 12c54 126 82 149 135 149c57 0 84 -60 115 -60c28 0 46 24 65 55zM281 561v-437c0 -46 16 -51 61 -57v-67h-310v67c45 6 61 11 61 57v295l-56 60v31l211 51h33z" />
    <glyph glyph-name="ij" unicode="&#x133;" horiz-adv-x="689" 
d="M281 561v-437c0 -46 16 -51 61 -57v-67h-310v67c45 6 61 11 61 57v295l-56 60v31l211 51h33zM185 593c-64 0 -103 44 -103 95s39 95 103 95s102 -44 102 -95s-38 -95 -102 -95zM628 561v-429c0 -115 -29 -170 -72 -219c-51 -57 -99 -94 -155 -122l-36 34l41 69
c32 54 33 117 33 195v330l-55 60v31l211 51h33zM532 593c-64 0 -103 44 -103 95s39 95 103 95c63 0 102 -44 102 -95s-39 -95 -102 -95z" />
    <glyph glyph-name="jcircumflex" unicode="&#x135;" horiz-adv-x="323" 
d="M262 561v-429c0 -115 -29 -170 -72 -219c-51 -57 -99 -94 -155 -122l-36 34l41 69c32 54 33 117 33 195v330l-55 60v31l211 51h33zM234 766l138 -169h-95l-111 80l-111 -80h-95l138 169h136z" />
    <glyph glyph-name="kcommaaccent" unicode="&#x137;" horiz-adv-x="663" 
d="M278 292l127 122c14 15 27 26 27 38c0 22 -17 26 -63 32v66h264v-66c-39 -10 -68 -16 -93 -41l-89 -88l202 -303v-52h-192zM271 761v-637c0 -46 16 -51 61 -57v-67h-310v67c46 6 61 11 61 57v502l-56 59v37l212 39h32zM355 -158h-59c-30 8 -50 26 -50 62s31 64 85 64
c61 0 98 -41 98 -98c0 -67 -48 -120 -177 -120v45c67 0 101 20 103 47z" />
    <glyph glyph-name="kgreenlandic" unicode="&#x138;" horiz-adv-x="663" 
d="M278 292l127 122c14 15 27 26 27 38c0 22 -17 26 -63 32v66h264v-66c-39 -10 -68 -16 -93 -41l-89 -88l202 -303v-52h-192zM271 560v-436c0 -46 16 -51 61 -57v-67h-310v67c46 6 61 11 61 57v301l-56 59v37l212 39h32z" />
    <glyph glyph-name="lacute" unicode="&#x13a;" horiz-adv-x="355" 
d="M270 761v-637c0 -46 15 -51 60 -57v-67h-308v67c46 6 60 11 60 57v502l-55 59v37l210 39h33zM192 949h185l-156 -158h-101z" />
    <glyph glyph-name="lcaron" unicode="&#x13e;" horiz-adv-x="371" 
d="M270 761v-637c0 -46 15 -51 60 -57v-67h-308v67c46 6 60 11 60 57v502l-55 59v37l210 39h33zM501 766l-93 -205h-76l14 205h155z" />
    <glyph glyph-name="lcommaaccent" unicode="&#x13c;" horiz-adv-x="355" 
d="M270 761v-637c0 -46 15 -51 60 -57v-67h-308v67c46 6 60 11 60 57v502l-55 59v37l210 39h33zM194 -158h-59c-30 8 -50 26 -50 62s31 64 85 64c61 0 98 -41 98 -98c0 -67 -48 -120 -177 -120v45c67 0 101 20 103 47z" />
    <glyph glyph-name="ldot" unicode="&#x140;" horiz-adv-x="517" 
d="M270 761v-637c0 -46 15 -51 60 -57v-67h-308v67c46 6 60 11 60 57v502l-55 59v37l210 39h33zM433 290c-64 0 -103 44 -103 95s39 95 103 95s102 -44 102 -95s-38 -95 -102 -95z" />
    <glyph glyph-name="nacute" unicode="&#x144;" horiz-adv-x="706" 
d="M438 124v254c0 41 -14 63 -61 63c-38 0 -69 -8 -96 -17v-300c0 -46 11 -51 56 -57v-67h-305v67c45 6 61 11 61 57v291l-56 59v36l211 55h33v-110c41 47 106 105 193 105c98 0 152 -53 152 -164v-272c0 -46 15 -51 60 -57v-67h-303v67c45 6 55 11 55 57zM378 766h184
l-155 -160h-97z" />
    <glyph glyph-name="ncaron" unicode="&#x148;" horiz-adv-x="706" 
d="M438 124v254c0 41 -14 63 -61 63c-38 0 -69 -8 -96 -17v-300c0 -46 11 -51 56 -57v-67h-305v67c45 6 61 11 61 57v291l-56 59v36l211 55h33v-110c41 47 106 105 193 105c98 0 152 -53 152 -164v-272c0 -46 15 -51 60 -57v-67h-303v67c45 6 55 11 55 57zM571 775
l-138 -169h-136l-138 169h95l111 -80l111 80h95z" />
    <glyph glyph-name="ncommaaccent" unicode="&#x146;" horiz-adv-x="706" 
d="M438 124v254c0 41 -14 63 -61 63c-38 0 -69 -8 -96 -17v-300c0 -46 11 -51 56 -57v-67h-305v67c45 6 61 11 61 57v291l-56 59v36l211 55h33v-110c41 47 106 105 193 105c98 0 152 -53 152 -164v-272c0 -46 15 -51 60 -57v-67h-303v67c45 6 55 11 55 57zM383 -158h-59
c-30 8 -50 26 -50 62s31 64 85 64c61 0 98 -41 98 -98c0 -67 -48 -120 -177 -120v45c67 0 101 20 103 47z" />
    <glyph glyph-name="eng" unicode="&#x14b;" horiz-adv-x="687" 
d="M438 89v289c0 41 -14 63 -61 63c-38 0 -69 -8 -96 -17v-300c0 -46 11 -51 56 -57v-67h-305v67c45 6 61 11 61 57v291l-56 59v36l211 55h33v-110c41 47 106 105 193 105c98 0 152 -53 152 -164v-264c0 -115 -29 -170 -72 -219c-51 -57 -99 -94 -155 -122l-36 34l41 69
c32 54 34 117 34 195z" />
    <glyph glyph-name="obreve" unicode="&#x14f;" horiz-adv-x="637" 
d="M328 61c54 0 83 77 83 184c0 140 -37 245 -102 245c-55 0 -84 -78 -84 -185c0 -140 37 -244 103 -244zM310 -10c-168 0 -278 120 -278 276c0 180 125 294 294 294s279 -120 279 -275c0 -181 -126 -295 -295 -295zM324 603c-101 0 -159 64 -159 170h70
c9 -62 52 -78 89 -78s80 16 89 78h70c0 -106 -58 -170 -159 -170z" />
    <glyph glyph-name="ohungarumlaut" unicode="&#x151;" horiz-adv-x="637" 
d="M328 61c54 0 83 77 83 184c0 140 -37 245 -102 245c-55 0 -84 -78 -84 -185c0 -140 37 -244 103 -244zM310 -10c-168 0 -278 120 -278 276c0 180 125 294 294 294s279 -120 279 -275c0 -181 -126 -295 -295 -295zM245 766h158l-137 -160h-88zM440 766h158l-137 -160h-88z
" />
    <glyph glyph-name="omacron" unicode="&#x14d;" horiz-adv-x="637" 
d="M328 61c54 0 83 77 83 184c0 140 -37 245 -102 245c-55 0 -84 -78 -84 -185c0 -140 37 -244 103 -244zM310 -10c-168 0 -278 120 -278 276c0 180 125 294 294 294s279 -120 279 -275c0 -181 -126 -295 -295 -295zM170 626v101h308v-101h-308z" />
    <glyph glyph-name="oslashacute" unicode="&#x1ff;" horiz-adv-x="637" 
d="M534 585l-43 -73c72 -49 114 -131 114 -227c0 -181 -126 -295 -295 -295c-43 0 -83 8 -117 22l-54 -90l-49 26l54 91c-71 49 -112 131 -112 227c0 180 125 294 294 294c42 0 81 -8 116 -22l43 73zM328 61c54 0 88 77 88 184c0 49 -3 91 -10 126l-155 -261
c18 -32 43 -49 77 -49zM220 305c0 -48 3 -90 9 -124l155 260c-18 32 -42 49 -75 49c-55 0 -89 -78 -89 -185zM331 766h184l-155 -160h-97z" />
    <glyph glyph-name="racute" unicode="&#x155;" horiz-adv-x="486" 
d="M281 565v-175c40 134 82 170 152 170c22 0 33 -5 45 -12v-158h-24c-63 0 -128 -4 -173 -36v-232c0 -44 23 -47 80 -55v-67h-329v67c45 6 61 11 61 57v291l-56 59v36l210 55h34zM290 766h184l-155 -160h-97z" />
    <glyph glyph-name="rcaron" unicode="&#x159;" horiz-adv-x="486" 
d="M281 565v-175c40 134 82 170 152 170c22 0 33 -5 45 -12v-158h-24c-63 0 -128 -4 -173 -36v-232c0 -44 23 -47 80 -55v-67h-329v67c45 6 61 11 61 57v291l-56 59v36l210 55h34zM483 775l-138 -169h-136l-138 169h95l111 -80l111 80h95z" />
    <glyph glyph-name="rcommaaccent" unicode="&#x157;" horiz-adv-x="486" 
d="M281 565v-175c40 134 82 170 152 170c22 0 33 -5 45 -12v-158h-24c-63 0 -128 -4 -173 -36v-232c0 -44 23 -47 80 -55v-67h-329v67c45 6 61 11 61 57v291l-56 59v36l210 55h34zM217 -158h-59c-30 8 -50 26 -50 62s31 64 85 64c61 0 98 -41 98 -98
c0 -67 -48 -120 -177 -120v45c67 0 101 20 103 47z" />
    <glyph glyph-name="sacute" unicode="&#x15b;" horiz-adv-x="516" 
d="M254 -10c-90 0 -160 26 -207 58l-6 121h86c18 -76 58 -113 133 -113c50 0 85 19 85 57c0 39 -24 53 -113 73c-129 29 -191 82 -191 185c0 122 85 189 218 189c71 0 137 -18 181 -47v-110h-83c-15 56 -45 91 -106 91c-46 0 -70 -24 -70 -57c0 -34 16 -52 109 -69
c110 -21 191 -70 191 -183c0 -125 -84 -195 -227 -195zM274 766h184l-155 -160h-97z" />
    <glyph glyph-name="scedilla" unicode="&#x15f;" horiz-adv-x="516" 
d="M155 -233l-11 49c72 0 115 12 115 39c0 25 -38 34 -85 36l41 101c-72 6 -128 29 -168 56l-6 121h86c18 -76 58 -113 133 -113c50 0 85 19 85 57c0 39 -24 53 -113 73c-129 29 -191 82 -191 185c0 122 85 189 218 189c71 0 137 -18 181 -47v-110h-83
c-15 56 -45 91 -106 91c-46 0 -70 -24 -70 -57c0 -34 16 -52 109 -69c110 -21 191 -70 191 -183c0 -122 -80 -191 -216 -195l-12 -34c59 -6 97 -29 97 -78c0 -74 -95 -111 -195 -111z" />
    <glyph glyph-name="scircumflex" unicode="&#x15d;" horiz-adv-x="516" 
d="M254 -10c-90 0 -160 26 -207 58l-6 121h86c18 -76 58 -113 133 -113c50 0 85 19 85 57c0 39 -24 53 -113 73c-129 29 -191 82 -191 185c0 122 85 189 218 189c71 0 137 -18 181 -47v-110h-83c-15 56 -45 91 -106 91c-46 0 -70 -24 -70 -57c0 -34 16 -52 109 -69
c110 -21 191 -70 191 -183c0 -125 -84 -195 -227 -195zM326 766l138 -169h-95l-111 80l-111 -80h-95l138 169h136z" />
    <glyph glyph-name="scommaaccent" unicode="&#x219;" horiz-adv-x="516" 
d="M254 -10c-90 0 -160 26 -207 58l-6 121h86c18 -76 58 -113 133 -113c50 0 85 19 85 57c0 39 -24 53 -113 73c-129 29 -191 82 -191 185c0 122 85 189 218 189c71 0 137 -18 181 -47v-110h-83c-15 56 -45 91 -106 91c-46 0 -70 -24 -70 -57c0 -34 16 -52 109 -69
c110 -21 191 -70 191 -183c0 -125 -84 -195 -227 -195zM279 -158h-59c-30 8 -50 26 -50 62s31 64 85 64c61 0 98 -41 98 -98c0 -67 -48 -120 -177 -120v45c67 0 101 20 103 47z" />
    <glyph glyph-name="tbar" unicode="&#x167;" horiz-adv-x="462" 
d="M284 677v-127h133v-75h-133v-95h133v-71h-133v-142c0 -47 19 -69 62 -69c24 0 50 7 74 19l20 -51c-49 -50 -111 -76 -185 -76c-107 0 -161 50 -161 159v160h-66v71h66v95h-66v55c68 22 145 84 197 147h59z" />
    <glyph glyph-name="tcaron" unicode="&#x165;" horiz-adv-x="422" 
d="M264 677v-127h133v-75h-133v-308c0 -47 19 -69 62 -69c24 0 50 7 74 19l20 -51c-49 -50 -111 -76 -185 -76c-107 0 -161 50 -161 159v326h-66v55c68 22 145 84 197 147h59zM483 822l-93 -205h-76l14 205h155z" />
    <glyph glyph-name="ubreve" unicode="&#x16d;" horiz-adv-x="687" 
d="M413 -10v98c-36 -46 -98 -98 -188 -98c-88 0 -149 53 -149 170v231c0 29 -6 52 -38 59l-15 5v57l207 48h35v-382c0 -50 22 -76 61 -76c36 0 60 7 87 16v273c0 29 -6 52 -38 59l-14 5v57l205 48h36v-415c0 -34 7 -53 37 -54h24v-69l-212 -32h-38zM352 603
c-101 0 -159 64 -159 170h70c9 -62 52 -78 89 -78s80 16 89 78h70c0 -106 -58 -170 -159 -170z" />
    <glyph glyph-name="uhungarumlaut" unicode="&#x171;" horiz-adv-x="687" 
d="M413 -10v98c-36 -46 -98 -98 -188 -98c-88 0 -149 53 -149 170v231c0 29 -6 52 -38 59l-15 5v57l207 48h35v-382c0 -50 22 -76 61 -76c36 0 60 7 87 16v273c0 29 -6 52 -38 59l-14 5v57l205 48h36v-415c0 -34 7 -53 37 -54h24v-69l-212 -32h-38zM249 766h158l-137 -160
h-88zM444 766h158l-137 -160h-88z" />
    <glyph glyph-name="umacron" unicode="&#x16b;" horiz-adv-x="687" 
d="M413 -10v98c-36 -46 -98 -98 -188 -98c-88 0 -149 53 -149 170v231c0 29 -6 52 -38 59l-15 5v57l207 48h35v-382c0 -50 22 -76 61 -76c36 0 60 7 87 16v273c0 29 -6 52 -38 59l-14 5v57l205 48h36v-415c0 -34 7 -53 37 -54h24v-69l-212 -32h-38zM198 626v101h308v-101
h-308z" />
    <glyph glyph-name="uogonek" unicode="&#x173;" horiz-adv-x="687" 
d="M663 22c-186 -36 -222 -75 -222 -114c0 -22 12 -41 43 -41c20 0 41 3 70 20l19 -28c-45 -50 -88 -75 -145 -75c-52 0 -96 31 -96 84s34 88 81 119v101c-36 -46 -98 -98 -188 -98c-88 0 -149 53 -149 170v231c0 29 -6 52 -38 59l-15 5v57l207 48h35v-382
c0 -50 22 -76 61 -76c36 0 60 7 87 16v273c0 29 -6 52 -38 59l-14 5v57l205 48h36v-415c0 -34 7 -53 37 -54h24v-69z" />
    <glyph glyph-name="uring" unicode="&#x16f;" horiz-adv-x="687" 
d="M413 -10v98c-36 -46 -98 -98 -188 -98c-88 0 -149 53 -149 170v231c0 29 -6 52 -38 59l-15 5v57l207 48h35v-382c0 -50 22 -76 61 -76c36 0 60 7 87 16v273c0 29 -6 52 -38 59l-14 5v57l205 48h36v-415c0 -34 7 -53 37 -54h24v-69l-212 -32h-38zM239 698
c0 57 47 101 113 101s113 -44 113 -101s-47 -101 -113 -101s-113 44 -113 101zM398 698c0 25 -16 44 -46 44s-46 -19 -46 -44s16 -44 46 -44s46 19 46 44z" />
    <glyph glyph-name="utilde" unicode="&#x169;" horiz-adv-x="687" 
d="M413 -10v98c-36 -46 -98 -98 -188 -98c-88 0 -149 53 -149 170v231c0 29 -6 52 -38 59l-15 5v57l207 48h35v-382c0 -50 22 -76 61 -76c36 0 60 7 87 16v273c0 29 -6 52 -38 59l-14 5v57l205 48h36v-415c0 -34 7 -53 37 -54h24v-69l-212 -32h-38zM485 773l60 -12
c-54 -126 -83 -149 -141 -149c-56 0 -99 60 -136 60c-29 0 -46 -25 -65 -55l-60 12c54 126 82 149 141 149c65 0 98 -60 136 -60c28 0 46 24 65 55z" />
    <glyph glyph-name="wacute" unicode="&#x1e83;" horiz-adv-x="900" 
d="M674 242l69 173c5 13 7 25 7 33c0 24 -16 31 -46 36v66h191v-66c-34 -12 -47 -18 -56 -40l-186 -448h-61l-130 315l-140 -315h-60l-201 448c-10 22 -21 28 -56 40v66h307v-66c-29 -5 -38 -16 -38 -33c0 -11 4 -22 10 -37l70 -178l70 162l-18 46c-9 23 -19 34 -44 40v66
h286v-66c-35 -5 -46 -12 -46 -34c0 -11 4 -24 8 -35zM503 766h184l-155 -160h-97z" />
    <glyph glyph-name="wcircumflex" unicode="&#x175;" horiz-adv-x="900" 
d="M674 242l69 173c5 13 7 25 7 33c0 24 -16 31 -46 36v66h191v-66c-34 -12 -47 -18 -56 -40l-186 -448h-61l-130 315l-140 -315h-60l-201 448c-10 22 -21 28 -56 40v66h307v-66c-29 -5 -38 -16 -38 -33c0 -11 4 -22 10 -37l70 -178l70 162l-18 46c-9 23 -19 34 -44 40v66
h286v-66c-35 -5 -46 -12 -46 -34c0 -11 4 -24 8 -35zM558 766l138 -169h-95l-111 80l-111 -80h-95l138 169h136z" />
    <glyph glyph-name="wgrave" unicode="&#x1e81;" horiz-adv-x="900" 
d="M674 242l69 173c5 13 7 25 7 33c0 24 -16 31 -46 36v66h191v-66c-34 -12 -47 -18 -56 -40l-186 -448h-61l-130 315l-140 -315h-60l-201 448c-10 22 -21 28 -56 40v66h307v-66c-29 -5 -38 -16 -38 -33c0 -11 4 -22 10 -37l70 -178l70 162l-18 46c-9 23 -19 34 -44 40v66
h286v-66c-35 -5 -46 -12 -46 -34c0 -11 4 -24 8 -35zM292 766h184l67 -160h-96z" />
    <glyph glyph-name="wdieresis" unicode="&#x1e85;" horiz-adv-x="900" 
d="M674 242l69 173c5 13 7 25 7 33c0 24 -16 31 -46 36v66h191v-66c-34 -12 -47 -18 -56 -40l-186 -448h-61l-130 315l-140 -315h-60l-201 448c-10 22 -21 28 -56 40v66h307v-66c-29 -5 -38 -16 -38 -33c0 -11 4 -22 10 -37l70 -178l70 162l-18 46c-9 23 -19 34 -44 40v66
h286v-66c-35 -5 -46 -12 -46 -34c0 -11 4 -24 8 -35zM291 691c0 48 40 88 89 88s90 -40 90 -88s-41 -88 -90 -88s-89 40 -89 88zM511 691c0 48 41 88 88 88c51 0 91 -40 91 -88s-40 -88 -91 -88c-47 0 -88 40 -88 88z" />
    <glyph glyph-name="ycircumflex" unicode="&#x177;" horiz-adv-x="622" 
d="M275 -2l-214 446c-10 21 -21 28 -56 40v66h336v-66c-52 -7 -68 -12 -68 -36c0 -8 2 -17 11 -39l84 -204l86 205c9 22 11 30 11 38c0 24 -14 29 -66 36v66h218v-66c-35 -12 -46 -18 -56 -40l-231 -517c-42 -93 -87 -135 -157 -135c-39 0 -71 16 -86 39v95h60
c70 0 96 4 123 62zM425 766l138 -169h-95l-111 80l-111 -80h-95l138 169h136z" />
    <glyph glyph-name="ygrave" unicode="&#x1ef3;" horiz-adv-x="622" 
d="M275 -2l-214 446c-10 21 -21 28 -56 40v66h336v-66c-52 -7 -68 -12 -68 -36c0 -8 2 -17 11 -39l84 -204l86 205c9 22 11 30 11 38c0 24 -14 29 -66 36v66h218v-66c-35 -12 -46 -18 -56 -40l-231 -517c-42 -93 -87 -135 -157 -135c-39 0 -71 16 -86 39v95h60
c70 0 96 4 123 62zM159 766h184l67 -160h-96z" />
    <glyph glyph-name="zacute" unicode="&#x17a;" horiz-adv-x="575" 
d="M26 0v47l280 435h-84c-56 0 -70 -34 -112 -139h-69v207h488v-50l-272 -431h77c66 0 85 30 138 139h70l-23 -208h-493zM307 766h184l-155 -160h-97z" />
    <glyph glyph-name="zdotaccent" unicode="&#x17c;" horiz-adv-x="575" 
d="M26 0v47l280 435h-84c-56 0 -70 -34 -112 -139h-69v207h488v-50l-272 -431h77c66 0 85 30 138 139h70l-23 -208h-493zM295 598c-64 0 -103 44 -103 95s39 95 103 95s102 -44 102 -95s-38 -95 -102 -95z" />
    <glyph glyph-name="A.sc" horiz-adv-x="686" 
d="M403 140l-17 40h-208l-16 -40c-5 -13 -7 -25 -7 -35c0 -26 6 -35 57 -38v-67h-200v67c24 5 40 9 49 32l177 435l-37 81h195l227 -516c9 -21 25 -27 51 -32v-67h-319v67c50 3 58 12 58 39c0 9 -4 20 -10 34zM281 435l-77 -189h155z" />
    <glyph glyph-name="B.sc" horiz-adv-x="664" 
d="M319 279h-31v-156c0 -47 17 -59 60 -59h8c47 0 84 40 84 104c0 66 -30 111 -121 111zM302 539h-14v-192h21c66 0 105 31 105 99c0 72 -44 93 -112 93zM383 0h-351v68c59 3 66 14 66 58v356c0 44 -7 55 -66 58v68h354c135 0 215 -51 215 -153c0 -87 -81 -133 -168 -141
c110 -5 199 -52 199 -148c0 -118 -87 -166 -249 -166z" />
    <glyph glyph-name="C.sc" horiz-adv-x="642" 
d="M378 65c72 0 101 51 131 158h97l-13 -173c-53 -37 -135 -60 -227 -60c-215 0 -332 127 -332 302c0 199 148 326 331 326c86 0 169 -24 217 -67v-143h-96c-21 81 -48 142 -122 142c-96 0 -121 -120 -121 -233c0 -151 45 -252 135 -252z" />
    <glyph glyph-name="D.sc" horiz-adv-x="731" 
d="M298 539h-6v-410c0 -51 15 -60 54 -60h6c90 0 138 70 138 235c0 142 -63 235 -192 235zM359 0h-327v68c59 3 66 14 66 58v356c0 44 -7 55 -66 58v68h291c233 0 374 -98 374 -297c0 -193 -124 -311 -338 -311z" />
    <glyph glyph-name="E.sc" horiz-adv-x="615" 
d="M563 0h-531v68c59 3 66 14 66 58v356c0 44 -7 55 -66 58v68h526v-173h-78c-27 69 -48 106 -119 106h-73v-192h52c39 0 55 12 64 64h64v-199h-64c-9 52 -25 65 -64 65h-52v-155c0 -46 23 -57 67 -57h13c59 0 90 34 146 120h76z" />
    <glyph glyph-name="F.sc" horiz-adv-x="578" 
d="M388 0h-356v68c59 3 66 14 66 58v356c0 44 -7 55 -66 58v68h516v-172h-79c-26 69 -49 105 -120 105h-61v-198h36c40 0 55 13 64 65h65v-199h-65c-9 53 -24 65 -64 65h-36v-155c0 -42 25 -54 100 -57v-62z" />
    <glyph glyph-name="G.sc" horiz-adv-x="687" 
d="M34 292c0 199 155 326 335 326c84 0 166 -24 216 -67v-143h-96c-24 81 -51 142 -122 142c-94 0 -128 -120 -128 -233c0 -147 34 -252 144 -252c18 0 24 0 42 3v114c0 43 -8 54 -65 55v70h307v-70c-60 -1 -66 -12 -66 -55v-129c-56 -40 -148 -63 -245 -63
c-215 0 -322 130 -322 302z" />
    <glyph glyph-name="H.sc" horiz-adv-x="782" 
d="M750 68v-68h-326v68c59 3 66 14 66 58v152h-198v-152c0 -44 7 -55 66 -58v-68h-326v68c59 3 66 14 66 58v356c0 44 -7 55 -66 58v68h326v-68c-59 -3 -66 -14 -66 -58v-133h198v133c0 44 -7 55 -66 58v68h326v-68c-59 -3 -66 -14 -66 -58v-356c0 -44 7 -55 66 -58z" />
    <glyph glyph-name="I.sc" horiz-adv-x="390" 
d="M358 68v-68h-326v68c59 3 66 14 66 58v356c0 44 -7 55 -66 58v68h326v-68c-59 -3 -66 -14 -66 -58v-356c0 -44 7 -55 66 -58z" />
    <glyph glyph-name="J.sc" horiz-adv-x="579" 
d="M490 483v-282c0 -147 -90 -211 -249 -211c-140 0 -229 52 -229 142c0 44 21 67 48 85h131v-49c0 -59 9 -112 52 -112c48 0 52 50 52 112v315c0 44 -6 54 -64 57v68h326v-68c-59 -3 -67 -13 -67 -57z" />
    <glyph glyph-name="K.sc" horiz-adv-x="724" 
d="M479 374l150 -247c29 -47 48 -61 85 -61v-66h-215c-27 18 -47 44 -76 95l-123 214l178 163c18 16 27 26 27 41c0 13 -8 27 -48 27v68h235v-68c-36 -1 -47 -7 -69 -28zM358 68v-68h-326v68c59 3 66 14 66 58v356c0 44 -7 55 -66 58v68h326v-68c-59 -3 -66 -14 -66 -58
v-356c0 -44 7 -55 66 -58z" />
    <glyph glyph-name="L.sc" horiz-adv-x="606" 
d="M292 482v-355c0 -47 17 -58 62 -58h16c51 0 63 18 141 151h81l-34 -220h-526v68c59 3 66 14 66 58v356c0 44 -7 55 -66 58v68h326v-68c-59 -3 -66 -14 -66 -58z" />
    <glyph glyph-name="M.sc" horiz-adv-x="904" 
d="M626 145l-40 276l-149 -421h-67l-154 420l-37 -275c-1 -8 -2 -19 -2 -22c0 -42 23 -52 84 -56v-67h-246v67c50 3 67 14 73 53l56 357c0 46 -16 60 -74 63v68h263c2 -20 5 -34 14 -58l107 -288l103 288c9 24 13 38 15 58h261v-68c-59 -3 -74 -17 -74 -63l55 -357
c7 -43 25 -50 75 -53v-67h-345v67c63 4 84 14 84 56c0 3 -1 14 -2 22z" />
    <glyph glyph-name="N.sc" horiz-adv-x="695" 
d="M98 125v376c-24 33 -38 35 -66 39v68h249l244 -302v177c0 44 -18 54 -76 57v68h226v-68c-58 -3 -65 -13 -65 -57v-483h-79l-348 422v-297c0 -44 18 -55 76 -58v-67h-227v67c59 3 66 14 66 58z" />
    <glyph glyph-name="O.sc" horiz-adv-x="695" 
d="M359 59c72 0 97 103 97 227c0 166 -39 263 -120 263c-72 0 -97 -103 -97 -227c0 -166 39 -263 120 -263zM338 -10c-197 0 -304 141 -304 302c0 200 136 326 323 326c197 0 304 -141 304 -302c0 -200 -136 -326 -323 -326z" />
    <glyph glyph-name="P.sc" horiz-adv-x="627" 
d="M292 539v-250h15c69 0 112 47 112 130c0 77 -50 120 -119 120h-8zM390 0h-358v68c59 3 66 14 66 58v356c0 44 -7 55 -66 58v68h324c173 0 253 -81 253 -190c0 -125 -81 -191 -256 -191h-61v-102c0 -44 23 -54 98 -58v-67z" />
    <glyph glyph-name="Q.sc" horiz-adv-x="693" 
d="M355 616c198 0 304 -139 304 -300c0 -160 -88 -273 -219 -311l68 -52c37 -29 54 -36 102 -36v-35c-25 -22 -60 -36 -114 -36c-65 0 -125 31 -186 105l-38 46c-155 26 -238 152 -238 295c0 199 135 324 321 324zM357 60c73 0 97 102 97 227c0 165 -38 260 -119 260
c-72 0 -97 -102 -97 -226c0 -165 39 -261 119 -261z" />
    <glyph glyph-name="R.sc" horiz-adv-x="698" 
d="M312 539h-23v-228h21c91 0 131 37 131 118c0 77 -50 110 -129 110zM352 0h-320v68c59 3 66 14 66 58v356c0 44 -7 55 -66 58v68h352c168 0 248 -67 248 -176c0 -84 -55 -132 -123 -155l92 -147c31 -50 47 -62 91 -63v-67h-211c-24 22 -50 55 -72 101l-73 153h-47v-129
c0 -44 4 -55 63 -58v-67z" />
    <glyph glyph-name="S.sc" horiz-adv-x="565" 
d="M272 -10c-92 0 -173 26 -219 58l-10 145h101c24 -100 64 -138 145 -138c48 0 86 20 86 66c0 38 -26 56 -120 78c-138 33 -206 91 -206 208c0 135 101 211 233 211c87 0 162 -23 206 -53v-130h-86c-25 67 -48 120 -129 120c-55 0 -82 -29 -82 -69c0 -44 33 -62 122 -80
c132 -28 210 -81 210 -212c0 -143 -111 -204 -251 -204z" />
    <glyph glyph-name="T.sc" horiz-adv-x="651" 
d="M32 608h587l14 -213h-78c-36 91 -58 149 -125 149h-10v-419c0 -44 18 -55 77 -58v-67h-343v67c59 3 77 14 77 58v419h-10c-67 0 -89 -58 -125 -149h-78z" />
    <glyph glyph-name="U.sc" horiz-adv-x="699" 
d="M286 483v-246c0 -85 18 -144 106 -144c70 0 126 27 126 152v238c0 44 -17 54 -75 57v68h231v-68c-58 -3 -66 -13 -66 -57v-267c0 -154 -109 -226 -246 -226c-176 0 -272 77 -272 226v267c0 44 -7 54 -65 57v68h324v-68c-58 -3 -63 -13 -63 -57z" />
    <glyph glyph-name="V.sc" horiz-adv-x="659" 
d="M394 254l93 214c6 13 9 25 9 34c0 25 -7 35 -58 38v68h209v-68c-25 -4 -40 -8 -51 -32l-225 -510h-50l-260 510c-12 24 -25 28 -49 32v68h325v-68c-50 -3 -59 -12 -59 -38c0 -9 4 -23 9 -35z" />
    <glyph glyph-name="W.sc" horiz-adv-x="921" 
d="M674 254l73 193c11 29 14 46 14 55c0 25 -6 35 -57 38v68h205v-68c-24 -4 -42 -8 -52 -32l-198 -510h-65l-120 321l-127 -321h-67l-219 510c-9 21 -25 28 -49 32v68h306v-68c-33 -4 -46 -15 -46 -38c0 -9 3 -24 12 -46l83 -209l69 178l-29 83c-8 18 -19 28 -43 32v68h294
v-68c-51 -3 -57 -13 -57 -38c0 -9 2 -23 14 -59z" />
    <glyph glyph-name="X.sc" horiz-adv-x="687" 
d="M379 131l-85 107l-85 -107c-15 -16 -16 -27 -16 -35c0 -21 13 -29 42 -29v-67h-223v67c36 0 59 17 67 26l168 205l-171 217c-7 9 -20 23 -44 25v68h318v-68c-27 0 -42 -8 -42 -28c0 -10 8 -18 21 -35l55 -72l54 71c11 14 16 27 16 36c0 20 -14 28 -39 28v68h219v-68
c-32 0 -53 -15 -63 -25l-142 -169l196 -253c9 -11 26 -21 50 -26v-67h-311v67c23 0 34 8 34 29c0 9 -6 18 -19 35z" />
    <glyph glyph-name="Y.sc" horiz-adv-x="644" 
d="M377 297l82 152c14 26 23 44 23 57c0 23 -19 33 -55 34v68h205v-68c-25 -4 -39 -9 -51 -32l-162 -293v-90c0 -44 13 -55 72 -58v-67h-330v67c58 3 72 14 72 58v91l-172 292c-13 23 -25 28 -49 32v68h315v-68c-43 -1 -53 -11 -53 -34c0 -16 8 -32 21 -57z" />
    <glyph glyph-name="Z.sc" horiz-adv-x="591" 
d="M251 69h93c60 0 80 10 151 143h75l-32 -212h-514v47l308 491h-91c-72 0 -81 -52 -116 -118h-71v188h501v-49z" />
    <glyph glyph-name="Aacute.sc" horiz-adv-x="686" 
d="M403 140l-17 40h-208l-16 -40c-5 -13 -7 -25 -7 -35c0 -26 6 -35 57 -38v-67h-200v67c24 5 40 9 49 32l177 435l-37 81h195l227 -516c9 -21 25 -27 51 -32v-67h-319v67c50 3 58 12 58 39c0 9 -4 20 -10 34zM327 816h184l-155 -160h-97zM281 435l-77 -189h155z" />
    <glyph glyph-name="Abreve.sc" horiz-adv-x="686" 
d="M403 140l-17 40h-208l-16 -40c-5 -13 -7 -25 -7 -35c0 -26 6 -35 57 -38v-67h-200v67c24 5 40 9 49 32l177 435l-37 81h195l227 -516c9 -21 25 -27 51 -32v-67h-319v67c50 3 58 12 58 39c0 9 -4 20 -10 34zM314 653c-101 0 -159 64 -159 170h70c9 -62 52 -78 89 -78
s80 16 89 78h70c0 -106 -58 -170 -159 -170zM281 435l-77 -189h155z" />
    <glyph glyph-name="Acircumflex.sc" horiz-adv-x="686" 
d="M403 140l-17 40h-208l-16 -40c-5 -13 -7 -25 -7 -35c0 -26 6 -35 57 -38v-67h-200v67c24 5 40 9 49 32l177 435l-37 81h195l227 -516c9 -21 25 -27 51 -32v-67h-319v67c50 3 58 12 58 39c0 9 -4 20 -10 34zM382 816l138 -169h-95l-111 80l-111 -80h-95l138 169h136z
M281 435l-77 -189h155z" />
    <glyph glyph-name="Adieresis.sc" horiz-adv-x="686" 
d="M403 140l-17 40h-208l-16 -40c-5 -13 -7 -25 -7 -35c0 -26 6 -35 57 -38v-67h-200v67c24 5 40 9 49 32l177 435l-37 81h195l227 -516c9 -21 25 -27 51 -32v-67h-319v67c50 3 58 12 58 39c0 9 -4 20 -10 34zM115 741c0 48 40 88 89 88s90 -40 90 -88s-41 -88 -90 -88
s-89 40 -89 88zM335 741c0 48 41 88 88 88c51 0 91 -40 91 -88s-40 -88 -91 -88c-47 0 -88 40 -88 88zM281 435l-77 -189h155z" />
    <glyph glyph-name="Agrave.sc" horiz-adv-x="686" 
d="M403 140l-17 40h-208l-16 -40c-5 -13 -7 -25 -7 -35c0 -26 6 -35 57 -38v-67h-200v67c24 5 40 9 49 32l177 435l-37 81h195l227 -516c9 -21 25 -27 51 -32v-67h-319v67c50 3 58 12 58 39c0 9 -4 20 -10 34zM116 816h184l67 -160h-96zM281 435l-77 -189h155z" />
    <glyph glyph-name="Amacron.sc" horiz-adv-x="686" 
d="M403 140l-17 40h-208l-16 -40c-5 -13 -7 -25 -7 -35c0 -26 6 -35 57 -38v-67h-200v67c24 5 40 9 49 32l177 435l-37 81h195l227 -516c9 -21 25 -27 51 -32v-67h-319v67c50 3 58 12 58 39c0 9 -4 20 -10 34zM160 676v101h308v-101h-308zM281 435l-77 -189h155z" />
    <glyph glyph-name="Aogonek.sc" horiz-adv-x="686" 
d="M201 615h195l227 -516c9 -21 25 -27 51 -32v-67h-306c-30 -18 -46 -46 -46 -77c0 -35 14 -56 45 -56c20 0 41 3 70 20l19 -28c-45 -50 -82 -73 -139 -73c-52 0 -101 38 -101 105c0 57 36 104 125 148c52 26 68 43 68 74c0 11 -4 21 -12 40l-11 27h-208l-16 -40
c-5 -13 -7 -25 -7 -35c0 -26 6 -35 57 -38v-67h-200v67c24 5 40 9 49 32l177 435zM281 435l-77 -189h155z" />
    <glyph glyph-name="Aring.sc" horiz-adv-x="686" 
d="M403 140l-17 40h-208l-16 -40c-5 -13 -7 -25 -7 -35c0 -26 6 -35 57 -38v-67h-200v67c24 5 40 9 49 32l177 435l-37 81h195l227 -516c9 -21 25 -27 51 -32v-67h-319v67c50 3 58 12 58 39c0 9 -4 20 -10 34zM201 748c0 57 47 101 113 101s113 -44 113 -101
s-47 -101 -113 -101s-113 44 -113 101zM281 435l-77 -189h155zM360 748c0 25 -16 44 -46 44s-46 -19 -46 -44s16 -44 46 -44s46 19 46 44z" />
    <glyph glyph-name="Aringacute.sc" horiz-adv-x="686" 
d="M403 140l-17 40h-208l-16 -40c-5 -13 -7 -25 -7 -35c0 -26 6 -35 57 -38v-67h-200v67c24 5 40 9 49 32l177 435l-37 81h195l227 -516c9 -21 25 -27 51 -32v-67h-319v67c50 3 58 12 58 39c0 9 -4 20 -10 34zM195 729c0 55 49 90 118 90s118 -35 118 -90s-49 -90 -118 -90
s-118 35 -118 90zM315 966h185l-139 -120h-91zM281 435l-77 -189h155zM365 729c0 26 -21 39 -52 39s-52 -13 -52 -39s21 -39 52 -39s52 13 52 39z" />
    <glyph glyph-name="Atilde.sc" horiz-adv-x="686" 
d="M403 140l-17 40h-208l-16 -40c-5 -13 -7 -25 -7 -35c0 -26 6 -35 57 -38v-67h-200v67c24 5 40 9 49 32l177 435l-37 81h195l227 -516c9 -21 25 -27 51 -32v-67h-319v67c50 3 58 12 58 39c0 9 -4 20 -10 34zM459 823l60 -12c-54 -126 -83 -149 -141 -149
c-56 0 -99 60 -136 60c-29 0 -46 -25 -65 -55l-60 12c54 126 82 149 141 149c65 0 98 -60 136 -60c28 0 46 24 65 55zM281 435l-77 -189h155z" />
    <glyph glyph-name="AE.sc" horiz-adv-x="948" 
d="M61 99l279 406c-10 23 -25 32 -75 35v68h626v-173h-78c-27 69 -48 106 -119 106h-73v-192h52c39 0 55 12 64 64h64v-199h-64c-9 52 -25 65 -64 65h-52v-155c0 -46 23 -57 67 -57h13c59 0 90 34 146 120h76l-27 -187h-531v68c59 3 66 13 66 57v83h-203l-33 -47
c-17 -24 -23 -43 -23 -54c0 -27 9 -37 60 -40v-67h-220v67c24 5 34 11 49 32zM431 496l-157 -222h157v222z" />
    <glyph glyph-name="AEacute.sc" horiz-adv-x="948" 
d="M61 99l279 406c-10 23 -25 32 -75 35v68h626v-173h-78c-27 69 -48 106 -119 106h-73v-192h52c39 0 55 12 64 64h64v-199h-64c-9 52 -25 65 -64 65h-52v-155c0 -46 23 -57 67 -57h13c59 0 90 34 146 120h76l-27 -187h-531v68c59 3 66 13 66 57v83h-203l-33 -47
c-17 -24 -23 -43 -23 -54c0 -27 9 -37 60 -40v-67h-220v67c24 5 34 11 49 32zM585 816h184l-155 -160h-97zM431 496l-157 -222h157v222z" />
    <glyph glyph-name="Cacute.sc" horiz-adv-x="642" 
d="M378 65c72 0 101 51 131 158h97l-13 -173c-53 -37 -135 -60 -227 -60c-215 0 -332 127 -332 302c0 199 148 326 331 326c86 0 169 -24 217 -67v-143h-96c-21 81 -48 142 -122 142c-96 0 -121 -120 -121 -233c0 -151 45 -252 135 -252zM380 816h184l-155 -160h-97z" />
    <glyph glyph-name="Ccaron.sc" horiz-adv-x="642" 
d="M378 65c72 0 101 51 131 158h97l-13 -173c-53 -37 -135 -60 -227 -60c-215 0 -332 127 -332 302c0 199 148 326 331 326c86 0 169 -24 217 -67v-143h-96c-21 81 -48 142 -122 142c-96 0 -121 -120 -121 -233c0 -151 45 -252 135 -252zM573 825l-138 -169h-136l-138 169
h95l111 -80l111 80h95z" />
    <glyph glyph-name="Ccedilla.sc" horiz-adv-x="642" 
d="M251 -233l-11 49c72 0 115 12 115 39c0 25 -38 34 -85 36l42 102c-181 19 -278 139 -278 299c0 199 148 326 331 326c86 0 169 -24 217 -67v-143h-96c-21 81 -48 142 -122 142c-96 0 -121 -120 -121 -233c0 -151 45 -252 135 -252c72 0 101 51 131 158h97l-13 -173
c-53 -37 -135 -60 -227 -60h-5l-12 -34c59 -6 97 -29 97 -78c0 -74 -95 -111 -195 -111z" />
    <glyph glyph-name="Ccircumflex.sc" horiz-adv-x="642" 
d="M378 65c72 0 101 51 131 158h97l-13 -173c-53 -37 -135 -60 -227 -60c-215 0 -332 127 -332 302c0 199 148 326 331 326c86 0 169 -24 217 -67v-143h-96c-21 81 -48 142 -122 142c-96 0 -121 -120 -121 -233c0 -151 45 -252 135 -252zM428 816l138 -169h-95l-111 80
l-111 -80h-95l138 169h136z" />
    <glyph glyph-name="Cdotaccent.sc" horiz-adv-x="642" 
d="M378 65c72 0 101 51 131 158h97l-13 -173c-53 -37 -135 -60 -227 -60c-215 0 -332 127 -332 302c0 199 148 326 331 326c86 0 169 -24 217 -67v-143h-96c-21 81 -48 142 -122 142c-96 0 -121 -120 -121 -233c0 -151 45 -252 135 -252zM360 648c-64 0 -103 44 -103 95
s39 95 103 95s102 -44 102 -95s-38 -95 -102 -95z" />
    <glyph glyph-name="Dcaron.sc" horiz-adv-x="731" 
d="M298 539h-6v-410c0 -51 15 -60 54 -60h6c90 0 138 70 138 235c0 142 -63 235 -192 235zM359 0h-327v68c59 3 66 14 66 58v356c0 44 -7 55 -66 58v68h291c233 0 374 -98 374 -297c0 -193 -124 -311 -338 -311zM558 825l-138 -169h-136l-138 169h95l111 -80l111 80h95z" />
    <glyph glyph-name="Dcroat.sc" horiz-adv-x="739" 
d="M367 0h-327v68c59 3 66 14 66 58v152h-66v71h66v133c0 44 -7 55 -66 58v68h291c233 0 374 -98 374 -297c0 -193 -124 -311 -338 -311zM306 539h-6v-190h107v-71h-107v-149c0 -51 15 -60 54 -60h6c90 0 138 70 138 235c0 142 -63 235 -192 235z" />
    <glyph glyph-name="Eacute.sc" horiz-adv-x="615" 
d="M563 0h-531v68c59 3 66 14 66 58v356c0 44 -7 55 -66 58v68h526v-173h-78c-27 69 -48 106 -119 106h-73v-192h52c39 0 55 12 64 64h64v-199h-64c-9 52 -25 65 -64 65h-52v-155c0 -46 23 -57 67 -57h13c59 0 90 34 146 120h76zM326 816h184l-155 -160h-97z" />
    <glyph glyph-name="Ebreve.sc" horiz-adv-x="615" 
d="M563 0h-531v68c59 3 66 14 66 58v356c0 44 -7 55 -66 58v68h526v-173h-78c-27 69 -48 106 -119 106h-73v-192h52c39 0 55 12 64 64h64v-199h-64c-9 52 -25 65 -64 65h-52v-155c0 -46 23 -57 67 -57h13c59 0 90 34 146 120h76zM313 653c-101 0 -159 64 -159 170h70
c9 -62 52 -78 89 -78s80 16 89 78h70c0 -106 -58 -170 -159 -170z" />
    <glyph glyph-name="Ecaron.sc" horiz-adv-x="615" 
d="M563 0h-531v68c59 3 66 14 66 58v356c0 44 -7 55 -66 58v68h526v-173h-78c-27 69 -48 106 -119 106h-73v-192h52c39 0 55 12 64 64h64v-199h-64c-9 52 -25 65 -64 65h-52v-155c0 -46 23 -57 67 -57h13c59 0 90 34 146 120h76zM519 825l-138 -169h-136l-138 169h95
l111 -80l111 80h95z" />
    <glyph glyph-name="Ecircumflex.sc" horiz-adv-x="615" 
d="M563 0h-531v68c59 3 66 14 66 58v356c0 44 -7 55 -66 58v68h526v-173h-78c-27 69 -48 106 -119 106h-73v-192h52c39 0 55 12 64 64h64v-199h-64c-9 52 -25 65 -64 65h-52v-155c0 -46 23 -57 67 -57h13c59 0 90 34 146 120h76zM381 816l138 -169h-95l-111 80l-111 -80h-95
l138 169h136z" />
    <glyph glyph-name="Edieresis.sc" horiz-adv-x="615" 
d="M563 0h-531v68c59 3 66 14 66 58v356c0 44 -7 55 -66 58v68h526v-173h-78c-27 69 -48 106 -119 106h-73v-192h52c39 0 55 12 64 64h64v-199h-64c-9 52 -25 65 -64 65h-52v-155c0 -46 23 -57 67 -57h13c59 0 90 34 146 120h76zM114 741c0 48 40 88 89 88s90 -40 90 -88
s-41 -88 -90 -88s-89 40 -89 88zM334 741c0 48 41 88 88 88c51 0 91 -40 91 -88s-40 -88 -91 -88c-47 0 -88 40 -88 88z" />
    <glyph glyph-name="Edotaccent.sc" horiz-adv-x="615" 
d="M563 0h-531v68c59 3 66 14 66 58v356c0 44 -7 55 -66 58v68h526v-173h-78c-27 69 -48 106 -119 106h-73v-192h52c39 0 55 12 64 64h64v-199h-64c-9 52 -25 65 -64 65h-52v-155c0 -46 23 -57 67 -57h13c59 0 90 34 146 120h76zM314 648c-64 0 -103 44 -103 95
s39 95 103 95s102 -44 102 -95s-38 -95 -102 -95z" />
    <glyph glyph-name="Egrave.sc" horiz-adv-x="615" 
d="M563 0h-531v68c59 3 66 14 66 58v356c0 44 -7 55 -66 58v68h526v-173h-78c-27 69 -48 106 -119 106h-73v-192h52c39 0 55 12 64 64h64v-199h-64c-9 52 -25 65 -64 65h-52v-155c0 -46 23 -57 67 -57h13c59 0 90 34 146 120h76zM115 816h184l67 -160h-96z" />
    <glyph glyph-name="Emacron.sc" horiz-adv-x="615" 
d="M563 0h-531v68c59 3 66 14 66 58v356c0 44 -7 55 -66 58v68h526v-173h-78c-27 69 -48 106 -119 106h-73v-192h52c39 0 55 12 64 64h64v-199h-64c-9 52 -25 65 -64 65h-52v-155c0 -46 23 -57 67 -57h13c59 0 90 34 146 120h76zM159 676v101h308v-101h-308z" />
    <glyph glyph-name="Eogonek.sc" horiz-adv-x="615" 
d="M563 0h-82c-40 -27 -60 -60 -60 -92c0 -22 12 -41 43 -41c20 0 41 3 70 20l19 -28c-45 -50 -88 -75 -145 -75c-52 0 -96 31 -96 84c0 58 40 100 94 132h-374v68c59 3 66 14 66 58v356c0 44 -7 55 -66 58v68h526v-173h-78c-27 69 -48 106 -119 106h-73v-192h52
c39 0 55 12 64 64h64v-199h-64c-9 52 -25 65 -64 65h-52v-155c0 -46 23 -57 67 -57h13c59 0 90 34 146 120h76z" />
    <glyph glyph-name="Eth.sc" horiz-adv-x="739" 
d="M367 0h-327v68c59 3 66 14 66 58v152h-66v71h66v133c0 44 -7 55 -66 58v68h291c233 0 374 -98 374 -297c0 -193 -124 -311 -338 -311zM306 539h-6v-190h107v-71h-107v-149c0 -51 15 -60 54 -60h6c90 0 138 70 138 235c0 142 -63 235 -192 235z" />
    <glyph glyph-name="Gbreve.sc" horiz-adv-x="687" 
d="M34 292c0 199 155 326 335 326c84 0 166 -24 216 -67v-143h-96c-24 81 -51 142 -122 142c-94 0 -128 -120 -128 -233c0 -147 34 -252 144 -252c18 0 24 0 42 3v114c0 43 -8 54 -65 55v70h307v-70c-60 -1 -66 -12 -66 -55v-129c-56 -40 -148 -63 -245 -63
c-215 0 -322 130 -322 302zM365 653c-101 0 -159 64 -159 170h70c9 -62 52 -78 89 -78s80 16 89 78h70c0 -106 -58 -170 -159 -170z" />
    <glyph glyph-name="Gcircumflex.sc" horiz-adv-x="687" 
d="M34 292c0 199 155 326 335 326c84 0 166 -24 216 -67v-143h-96c-24 81 -51 142 -122 142c-94 0 -128 -120 -128 -233c0 -147 34 -252 144 -252c18 0 24 0 42 3v114c0 43 -8 54 -65 55v70h307v-70c-60 -1 -66 -12 -66 -55v-129c-56 -40 -148 -63 -245 -63
c-215 0 -322 130 -322 302zM433 816l138 -169h-95l-111 80l-111 -80h-95l138 169h136z" />
    <glyph glyph-name="Gcommaaccent.sc" horiz-adv-x="687" 
d="M34 292c0 199 155 326 335 326c84 0 166 -24 216 -67v-143h-96c-24 81 -51 142 -122 142c-94 0 -128 -120 -128 -233c0 -147 34 -252 144 -252c18 0 24 0 42 3v114c0 43 -8 54 -65 55v70h307v-70c-60 -1 -66 -12 -66 -55v-129c-56 -40 -148 -63 -245 -63
c-215 0 -322 130 -322 302zM392 -158h-59c-30 8 -50 26 -50 62s31 64 85 64c61 0 98 -41 98 -98c0 -67 -48 -120 -177 -120v45c67 0 101 20 103 47z" />
    <glyph glyph-name="Gdotaccent.sc" horiz-adv-x="687" 
d="M34 292c0 199 155 326 335 326c84 0 166 -24 216 -67v-143h-96c-24 81 -51 142 -122 142c-94 0 -128 -120 -128 -233c0 -147 34 -252 144 -252c18 0 24 0 42 3v114c0 43 -8 54 -65 55v70h307v-70c-60 -1 -66 -12 -66 -55v-129c-56 -40 -148 -63 -245 -63
c-215 0 -322 130 -322 302zM367 648c-64 0 -103 44 -103 95s39 95 103 95s102 -44 102 -95s-38 -95 -102 -95z" />
    <glyph glyph-name="Hbar.sc" horiz-adv-x="798" 
d="M106 380h-66v71h66v31c0 44 -7 55 -66 58v68h326v-68c-59 -3 -66 -14 -66 -58v-31h198v31c0 44 -7 55 -66 58v68h326v-68c-59 -3 -66 -14 -66 -58v-31h66v-71h-66v-254c0 -44 7 -55 66 -58v-68h-326v68c59 3 66 14 66 58v112h-198v-112c0 -44 7 -55 66 -58v-68h-326v68
c59 3 66 14 66 58v254zM300 309h198v71h-198v-71z" />
    <glyph glyph-name="Hcircumflex.sc" horiz-adv-x="782" 
d="M750 68v-68h-326v68c59 3 66 14 66 58v152h-198v-152c0 -44 7 -55 66 -58v-68h-326v68c59 3 66 14 66 58v356c0 44 -7 55 -66 58v68h326v-68c-59 -3 -66 -14 -66 -58v-133h198v133c0 44 -7 55 -66 58v68h326v-68c-59 -3 -66 -14 -66 -58v-356c0 -44 7 -55 66 -58z
M459 816l138 -169h-95l-111 80l-111 -80h-95l138 169h136z" />
    <glyph glyph-name="Iacute.sc" horiz-adv-x="390" 
d="M358 68v-68h-326v68c59 3 66 14 66 58v356c0 44 -7 55 -66 58v68h326v-68c-59 -3 -66 -14 -66 -58v-356c0 -44 7 -55 66 -58zM208 816h184l-155 -160h-97z" />
    <glyph glyph-name="Ibreve.sc" horiz-adv-x="390" 
d="M358 68v-68h-326v68c59 3 66 14 66 58v356c0 44 -7 55 -66 58v68h326v-68c-59 -3 -66 -14 -66 -58v-356c0 -44 7 -55 66 -58zM195 653c-101 0 -159 64 -159 170h70c9 -62 52 -78 89 -78s80 16 89 78h70c0 -106 -58 -170 -159 -170z" />
    <glyph glyph-name="Icircumflex.sc" horiz-adv-x="390" 
d="M358 68v-68h-326v68c59 3 66 14 66 58v356c0 44 -7 55 -66 58v68h326v-68c-59 -3 -66 -14 -66 -58v-356c0 -44 7 -55 66 -58zM263 816l138 -169h-95l-111 80l-111 -80h-95l138 169h136z" />
    <glyph glyph-name="Idieresis.sc" horiz-adv-x="390" 
d="M358 68v-68h-326v68c59 3 66 14 66 58v356c0 44 -7 55 -66 58v68h326v-68c-59 -3 -66 -14 -66 -58v-356c0 -44 7 -55 66 -58zM-4 741c0 48 40 88 89 88s90 -40 90 -88s-41 -88 -90 -88s-89 40 -89 88zM216 741c0 48 41 88 88 88c51 0 91 -40 91 -88s-40 -88 -91 -88
c-47 0 -88 40 -88 88z" />
    <glyph glyph-name="Idotaccent.sc" horiz-adv-x="390" 
d="M358 68v-68h-326v68c59 3 66 14 66 58v356c0 44 -7 55 -66 58v68h326v-68c-59 -3 -66 -14 -66 -58v-356c0 -44 7 -55 66 -58zM196 648c-64 0 -103 44 -103 95s39 95 103 95s102 -44 102 -95s-38 -95 -102 -95z" />
    <glyph glyph-name="Igrave.sc" horiz-adv-x="390" 
d="M358 68v-68h-326v68c59 3 66 14 66 58v356c0 44 -7 55 -66 58v68h326v-68c-59 -3 -66 -14 -66 -58v-356c0 -44 7 -55 66 -58zM-3 816h184l67 -160h-96z" />
    <glyph glyph-name="Imacron.sc" horiz-adv-x="390" 
d="M358 68v-68h-326v68c59 3 66 14 66 58v356c0 44 -7 55 -66 58v68h326v-68c-59 -3 -66 -14 -66 -58v-356c0 -44 7 -55 66 -58zM41 676v101h308v-101h-308z" />
    <glyph glyph-name="Iogonek.sc" horiz-adv-x="390" 
d="M358 68v-68h-114c-40 -27 -60 -60 -60 -92c0 -22 12 -41 43 -41c20 0 41 3 70 20l19 -28c-45 -50 -88 -75 -145 -75c-52 0 -96 31 -96 84c0 58 40 100 94 132h-137v68c59 3 66 14 66 58v356c0 44 -7 55 -66 58v68h326v-68c-59 -3 -66 -14 -66 -58v-356
c0 -44 7 -55 66 -58z" />
    <glyph glyph-name="Itilde.sc" horiz-adv-x="390" 
d="M341 823l60 -12c-54 -126 -83 -149 -141 -149c-56 0 -99 60 -136 60c-29 0 -46 -25 -65 -55l-60 12c54 126 82 149 141 149c65 0 98 -60 136 -60c28 0 46 24 65 55zM358 68v-68h-326v68c59 3 66 14 66 58v356c0 44 -7 55 -66 58v68h326v-68c-59 -3 -66 -14 -66 -58v-356
c0 -44 7 -55 66 -58z" />
    <glyph glyph-name="IJ.sc" horiz-adv-x="959" 
d="M358 68v-68h-326v68c59 3 66 14 66 58v356c0 44 -7 55 -66 58v68h326v-68c-59 -3 -66 -14 -66 -58v-356c0 -44 7 -55 66 -58zM870 483v-282c0 -147 -90 -211 -249 -211c-140 0 -229 52 -229 142c0 44 21 67 48 85h131v-49c0 -59 9 -112 52 -112c48 0 52 50 52 112v315
c0 44 -6 54 -64 57v68h326v-68c-59 -3 -67 -13 -67 -57z" />
    <glyph glyph-name="Jcircumflex.sc" horiz-adv-x="579" 
d="M490 483v-282c0 -147 -90 -211 -249 -211c-140 0 -229 52 -229 142c0 44 21 67 48 85h131v-49c0 -59 9 -112 52 -112c48 0 52 50 52 112v315c0 44 -6 54 -64 57v68h326v-68c-59 -3 -67 -13 -67 -57zM457 816l138 -169h-95l-111 80l-111 -80h-95l138 169h136z" />
    <glyph glyph-name="Kcommaaccent.sc" horiz-adv-x="724" 
d="M479 374l150 -247c29 -47 48 -61 85 -61v-66h-215c-27 18 -47 44 -76 95l-123 214l178 163c18 16 27 26 27 41c0 13 -8 27 -48 27v68h235v-68c-36 -1 -47 -7 -69 -28zM358 68v-68h-326v68c59 3 66 14 66 58v356c0 44 -7 55 -66 58v68h326v-68c-59 -3 -66 -14 -66 -58
v-356c0 -44 7 -55 66 -58zM391 -158h-59c-30 8 -50 26 -50 62s31 64 85 64c61 0 98 -41 98 -98c0 -67 -48 -120 -177 -120v45c67 0 101 20 103 47z" />
    <glyph glyph-name="Lacute.sc" horiz-adv-x="606" 
d="M292 482v-355c0 -47 17 -58 62 -58h16c51 0 63 18 141 151h81l-34 -220h-526v68c59 3 66 14 66 58v356c0 44 -7 55 -66 58v68h326v-68c-59 -3 -66 -14 -66 -58zM223 816h184l-155 -160h-97z" />
    <glyph glyph-name="Lcaron.sc" horiz-adv-x="606" 
d="M292 482v-355c0 -47 17 -58 62 -58h16c51 0 63 18 141 151h81l-34 -220h-526v68c59 3 66 14 66 58v356c0 44 -7 55 -66 58v68h326v-68c-59 -3 -66 -14 -66 -58zM575 608l-93 -205h-76l14 205h155z" />
    <glyph glyph-name="Lcommaaccent.sc" horiz-adv-x="606" 
d="M292 482v-355c0 -47 17 -58 62 -58h16c51 0 63 18 141 151h81l-34 -220h-526v68c59 3 66 14 66 58v356c0 44 -7 55 -66 58v68h326v-68c-59 -3 -66 -14 -66 -58zM330 -158h-59c-30 8 -50 26 -50 62s31 64 85 64c61 0 98 -41 98 -98c0 -67 -48 -120 -177 -120v45
c67 0 101 20 103 47z" />
    <glyph glyph-name="Ldot.sc" horiz-adv-x="606" 
d="M292 482v-355c0 -47 17 -58 62 -58h16c51 0 63 18 141 151h81l-34 -220h-526v68c59 3 66 14 66 58v356c0 44 -7 55 -66 58v68h326v-68c-59 -3 -66 -14 -66 -58zM497 287c-64 0 -103 44 -103 95s39 95 103 95s102 -44 102 -95s-38 -95 -102 -95z" />
    <glyph glyph-name="Lslash.sc" horiz-adv-x="614" 
d="M300 312v-185c0 -47 17 -58 62 -58h16c51 0 63 18 141 151h81l-34 -220h-526v68c59 3 66 14 66 58v122l-66 -23v73l66 24v160c0 44 -7 55 -66 58v68h326v-68c-59 -3 -66 -14 -66 -58v-97l125 46v-73z" />
    <glyph glyph-name="Nacute.sc" horiz-adv-x="695" 
d="M98 125v376c-24 33 -38 35 -66 39v68h249l244 -302v177c0 44 -18 54 -76 57v68h226v-68c-58 -3 -65 -13 -65 -57v-483h-79l-348 422v-297c0 -44 18 -55 76 -58v-67h-227v67c59 3 66 14 66 58zM374 816h184l-155 -160h-97z" />
    <glyph glyph-name="Ncaron.sc" horiz-adv-x="695" 
d="M98 125v376c-24 33 -38 35 -66 39v68h249l244 -302v177c0 44 -18 54 -76 57v68h226v-68c-58 -3 -65 -13 -65 -57v-483h-79l-348 422v-297c0 -44 18 -55 76 -58v-67h-227v67c59 3 66 14 66 58zM567 825l-138 -169h-136l-138 169h95l111 -80l111 80h95z" />
    <glyph glyph-name="Ncommaaccent.sc" horiz-adv-x="695" 
d="M98 125v376c-24 33 -38 35 -66 39v68h249l244 -302v177c0 44 -18 54 -76 57v68h226v-68c-58 -3 -65 -13 -65 -57v-483h-79l-348 422v-297c0 -44 18 -55 76 -58v-67h-227v67c59 3 66 14 66 58zM379 -158h-59c-30 8 -50 26 -50 62s31 64 85 64c61 0 98 -41 98 -98
c0 -67 -48 -120 -177 -120v45c67 0 101 20 103 47z" />
    <glyph glyph-name="Ntilde.sc" horiz-adv-x="695" 
d="M98 125v376c-24 33 -38 35 -66 39v68h249l244 -302v177c0 44 -18 54 -76 57v68h226v-68c-58 -3 -65 -13 -65 -57v-483h-79l-348 422v-297c0 -44 18 -55 76 -58v-67h-227v67c59 3 66 14 66 58zM502 823l60 -12c-54 -126 -83 -149 -141 -149c-56 0 -99 60 -136 60
c-29 0 -46 -25 -65 -55l-60 12c54 126 82 149 141 149c65 0 98 -60 136 -60c28 0 46 24 65 55z" />
    <glyph glyph-name="Eng.sc" horiz-adv-x="695" 
d="M465 80l-282 342v-297c0 -44 18 -55 76 -58v-67h-227v67c59 3 66 14 66 58v376c-24 33 -38 35 -66 39v68h249l244 -302v177c0 44 -18 54 -76 57v68h226v-68c-58 -3 -65 -13 -65 -57v-357c0 -110 -23 -164 -65 -210c-48 -52 -97 -73 -147 -94l-30 29l26 35
c40 54 71 118 71 194z" />
    <glyph glyph-name="Oacute.sc" horiz-adv-x="695" 
d="M359 59c72 0 97 103 97 227c0 166 -39 263 -120 263c-72 0 -97 -103 -97 -227c0 -166 39 -263 120 -263zM338 -10c-197 0 -304 141 -304 302c0 200 136 326 323 326c197 0 304 -141 304 -302c0 -200 -136 -326 -323 -326zM364 816h184l-155 -160h-97z" />
    <glyph glyph-name="Obreve.sc" horiz-adv-x="695" 
d="M359 59c72 0 97 103 97 227c0 166 -39 263 -120 263c-72 0 -97 -103 -97 -227c0 -166 39 -263 120 -263zM338 -10c-197 0 -304 141 -304 302c0 200 136 326 323 326c197 0 304 -141 304 -302c0 -200 -136 -326 -323 -326zM351 653c-101 0 -159 64 -159 170h70
c9 -62 52 -78 89 -78s80 16 89 78h70c0 -106 -58 -170 -159 -170z" />
    <glyph glyph-name="Ocircumflex.sc" horiz-adv-x="695" 
d="M359 59c72 0 97 103 97 227c0 166 -39 263 -120 263c-72 0 -97 -103 -97 -227c0 -166 39 -263 120 -263zM338 -10c-197 0 -304 141 -304 302c0 200 136 326 323 326c197 0 304 -141 304 -302c0 -200 -136 -326 -323 -326zM419 816l138 -169h-95l-111 80l-111 -80h-95
l138 169h136z" />
    <glyph glyph-name="Odieresis.sc" horiz-adv-x="695" 
d="M359 59c72 0 97 103 97 227c0 166 -39 263 -120 263c-72 0 -97 -103 -97 -227c0 -166 39 -263 120 -263zM338 -10c-197 0 -304 141 -304 302c0 200 136 326 323 326c197 0 304 -141 304 -302c0 -200 -136 -326 -323 -326zM152 741c0 48 40 88 89 88s90 -40 90 -88
s-41 -88 -90 -88s-89 40 -89 88zM372 741c0 48 41 88 88 88c51 0 91 -40 91 -88s-40 -88 -91 -88c-47 0 -88 40 -88 88z" />
    <glyph glyph-name="Ograve.sc" horiz-adv-x="695" 
d="M359 59c72 0 97 103 97 227c0 166 -39 263 -120 263c-72 0 -97 -103 -97 -227c0 -166 39 -263 120 -263zM338 -10c-197 0 -304 141 -304 302c0 200 136 326 323 326c197 0 304 -141 304 -302c0 -200 -136 -326 -323 -326zM153 816h184l67 -160h-96z" />
    <glyph glyph-name="Ohungarumlaut.sc" horiz-adv-x="695" 
d="M359 59c72 0 97 103 97 227c0 166 -39 263 -120 263c-72 0 -97 -103 -97 -227c0 -166 39 -263 120 -263zM338 -10c-197 0 -304 141 -304 302c0 200 136 326 323 326c197 0 304 -141 304 -302c0 -200 -136 -326 -323 -326zM272 816h158l-137 -160h-88zM467 816h158
l-137 -160h-88z" />
    <glyph glyph-name="Omacron.sc" horiz-adv-x="695" 
d="M359 59c72 0 97 103 97 227c0 166 -39 263 -120 263c-72 0 -97 -103 -97 -227c0 -166 39 -263 120 -263zM338 -10c-197 0 -304 141 -304 302c0 200 136 326 323 326c197 0 304 -141 304 -302c0 -200 -136 -326 -323 -326zM197 676v101h308v-101h-308z" />
    <glyph glyph-name="Oslash.sc" horiz-adv-x="695" 
d="M338 -10c-57 0 -106 12 -147 32l-67 -96l-50 34l66 94c-70 57 -106 144 -106 238c0 200 136 326 323 326c59 0 110 -13 153 -36l58 83l50 -34l-58 -82c66 -57 101 -142 101 -233c0 -200 -136 -326 -323 -326zM237 322c0 -45 2 -84 8 -118l187 268c-19 50 -51 77 -96 77
c-72 0 -99 -103 -99 -227zM359 59c72 0 99 103 99 227c0 40 -2 76 -7 107l-185 -265c19 -45 50 -69 93 -69z" />
    <glyph glyph-name="Oslashacute.sc" horiz-adv-x="695" 
d="M338 -10c-57 0 -106 12 -147 32l-67 -96l-50 34l66 94c-70 57 -106 144 -106 238c0 200 136 326 323 326c59 0 110 -13 153 -36l58 83l50 -34l-58 -82c66 -57 101 -142 101 -233c0 -200 -136 -326 -323 -326zM237 322c0 -45 2 -84 8 -118l187 268c-19 50 -51 77 -96 77
c-72 0 -99 -103 -99 -227zM359 59c72 0 99 103 99 227c0 40 -2 76 -7 107l-185 -265c19 -45 50 -69 93 -69zM360 816h184l-155 -160h-97z" />
    <glyph glyph-name="Otilde.sc" horiz-adv-x="695" 
d="M359 59c72 0 97 103 97 227c0 166 -39 263 -120 263c-72 0 -97 -103 -97 -227c0 -166 39 -263 120 -263zM338 -10c-197 0 -304 141 -304 302c0 200 136 326 323 326c197 0 304 -141 304 -302c0 -200 -136 -326 -323 -326zM502 823l60 -12c-54 -126 -83 -149 -141 -149
c-56 0 -99 60 -136 60c-29 0 -46 -25 -65 -55l-60 12c54 126 82 149 141 149c65 0 98 -60 136 -60c28 0 46 24 65 55z" />
    <glyph glyph-name="OE.sc" horiz-adv-x="955" 
d="M903 0h-496c-232 0 -373 98 -373 300c0 189 143 308 357 308h507v-173h-78c-27 69 -48 106 -119 106h-73v-192h52c39 0 55 12 64 64h64v-199h-64c-9 52 -25 65 -64 65h-52v-155c0 -46 23 -57 67 -57h13c59 0 90 34 146 120h76zM438 67v474h-40c-90 0 -158 -73 -158 -238
c0 -153 72 -236 193 -236h5z" />
    <glyph glyph-name="Racute.sc" horiz-adv-x="698" 
d="M312 539h-23v-228h21c91 0 131 37 131 118c0 77 -50 110 -129 110zM352 0h-320v68c59 3 66 14 66 58v356c0 44 -7 55 -66 58v68h352c168 0 248 -67 248 -176c0 -84 -55 -132 -123 -155l92 -147c31 -50 47 -62 91 -63v-67h-211c-24 22 -50 55 -72 101l-73 153h-47v-129
c0 -44 4 -55 63 -58v-67zM361 816h184l-155 -160h-97z" />
    <glyph glyph-name="Rcaron.sc" horiz-adv-x="698" 
d="M312 539h-23v-228h21c91 0 131 37 131 118c0 77 -50 110 -129 110zM352 0h-320v68c59 3 66 14 66 58v356c0 44 -7 55 -66 58v68h352c168 0 248 -67 248 -176c0 -84 -55 -132 -123 -155l92 -147c31 -50 47 -62 91 -63v-67h-211c-24 22 -50 55 -72 101l-73 153h-47v-129
c0 -44 4 -55 63 -58v-67zM554 825l-138 -169h-136l-138 169h95l111 -80l111 80h95z" />
    <glyph glyph-name="Rcommaaccent.sc" horiz-adv-x="698" 
d="M312 539h-23v-228h21c91 0 131 37 131 118c0 77 -50 110 -129 110zM352 0h-320v68c59 3 66 14 66 58v356c0 44 -7 55 -66 58v68h352c168 0 248 -67 248 -176c0 -84 -55 -132 -123 -155l92 -147c31 -50 47 -62 91 -63v-67h-211c-24 22 -50 55 -72 101l-73 153h-47v-129
c0 -44 4 -55 63 -58v-67zM386 -158h-59c-30 8 -50 26 -50 62s31 64 85 64c61 0 98 -41 98 -98c0 -67 -48 -120 -177 -120v45c67 0 101 20 103 47z" />
    <glyph glyph-name="Sacute.sc" horiz-adv-x="565" 
d="M272 -10c-92 0 -173 26 -219 58l-10 145h101c24 -100 64 -138 145 -138c48 0 86 20 86 66c0 38 -26 56 -120 78c-138 33 -206 91 -206 208c0 135 101 211 233 211c87 0 162 -23 206 -53v-130h-86c-25 67 -48 120 -129 120c-55 0 -82 -29 -82 -69c0 -44 33 -62 122 -80
c132 -28 210 -81 210 -212c0 -143 -111 -204 -251 -204zM309 816h184l-155 -160h-97z" />
    <glyph glyph-name="Scaron.sc" horiz-adv-x="565" 
d="M272 -10c-92 0 -173 26 -219 58l-10 145h101c24 -100 64 -138 145 -138c48 0 86 20 86 66c0 38 -26 56 -120 78c-138 33 -206 91 -206 208c0 135 101 211 233 211c87 0 162 -23 206 -53v-130h-86c-25 67 -48 120 -129 120c-55 0 -82 -29 -82 -69c0 -44 33 -62 122 -80
c132 -28 210 -81 210 -212c0 -143 -111 -204 -251 -204zM502 825l-138 -169h-136l-138 169h95l111 -80l111 80h95z" />
    <glyph glyph-name="Scedilla.sc" horiz-adv-x="565" 
d="M175 -233l-11 49c72 0 115 12 115 39c0 25 -38 34 -85 36l41 100c-77 6 -143 29 -182 57l-10 145h101c24 -100 64 -138 145 -138c48 0 86 20 86 66c0 38 -26 56 -120 78c-138 33 -206 91 -206 208c0 135 101 211 233 211c87 0 162 -23 206 -53v-130h-86
c-25 67 -48 120 -129 120c-55 0 -82 -29 -82 -69c0 -44 33 -62 122 -80c132 -28 210 -81 210 -212c0 -139 -104 -200 -238 -204l-12 -34c59 -6 97 -29 97 -78c0 -74 -95 -111 -195 -111z" />
    <glyph glyph-name="Scircumflex.sc" horiz-adv-x="565" 
d="M272 -10c-92 0 -173 26 -219 58l-10 145h101c24 -100 64 -138 145 -138c48 0 86 20 86 66c0 38 -26 56 -120 78c-138 33 -206 91 -206 208c0 135 101 211 233 211c87 0 162 -23 206 -53v-130h-86c-25 67 -48 120 -129 120c-55 0 -82 -29 -82 -69c0 -44 33 -62 122 -80
c132 -28 210 -81 210 -212c0 -143 -111 -204 -251 -204zM359 816l138 -169h-95l-111 80l-111 -80h-95l138 169h136z" />
    <glyph glyph-name="Scommaaccent.sc" horiz-adv-x="565" 
d="M272 -10c-92 0 -173 26 -219 58l-10 145h101c24 -100 64 -138 145 -138c48 0 86 20 86 66c0 38 -26 56 -120 78c-138 33 -206 91 -206 208c0 135 101 211 233 211c87 0 162 -23 206 -53v-130h-86c-25 67 -48 120 -129 120c-55 0 -82 -29 -82 -69c0 -44 33 -62 122 -80
c132 -28 210 -81 210 -212c0 -143 -111 -204 -251 -204zM319 -158h-59c-30 8 -50 26 -50 62s31 64 85 64c61 0 98 -41 98 -98c0 -67 -48 -120 -177 -120v45c67 0 101 20 103 47z" />
    <glyph glyph-name="Tbar.sc" horiz-adv-x="651" 
d="M32 608h587l14 -213h-78c-36 91 -58 149 -125 149h-10v-205h89v-71h-89v-143c0 -44 18 -55 77 -58v-67h-343v67c59 3 77 14 77 58v143h-89v71h89v205h-10c-67 0 -89 -58 -125 -149h-78z" />
    <glyph glyph-name="Tcaron.sc" horiz-adv-x="651" 
d="M32 608h587l14 -213h-78c-36 91 -58 149 -125 149h-10v-419c0 -44 18 -55 77 -58v-67h-343v67c59 3 77 14 77 58v419h-10c-67 0 -89 -58 -125 -149h-78zM531 825l-138 -169h-136l-138 169h95l111 -80l111 80h95z" />
    <glyph glyph-name="Thorn.sc" horiz-adv-x="631" 
d="M292 412v-220h9c69 0 120 32 120 115c0 76 -59 105 -124 105h-5zM292 481h58c172 0 261 -66 261 -175c0 -125 -93 -176 -264 -176h-55v-5c0 -44 25 -54 100 -58v-67h-360v68c59 3 66 13 66 57v358c0 44 -7 54 -66 57v68h326v-68c-60 -3 -66 -13 -66 -55v-4z" />
    <glyph glyph-name="Uacute.sc" horiz-adv-x="699" 
d="M286 483v-246c0 -85 18 -144 106 -144c70 0 126 27 126 152v238c0 44 -17 54 -75 57v68h231v-68c-58 -3 -66 -13 -66 -57v-267c0 -154 -109 -226 -246 -226c-176 0 -272 77 -272 226v267c0 44 -7 54 -65 57v68h324v-68c-58 -3 -63 -13 -63 -57zM399 816h184l-155 -160
h-97z" />
    <glyph glyph-name="Ubreve.sc" horiz-adv-x="699" 
d="M286 483v-246c0 -85 18 -144 106 -144c70 0 126 27 126 152v238c0 44 -17 54 -75 57v68h231v-68c-58 -3 -66 -13 -66 -57v-267c0 -154 -109 -226 -246 -226c-176 0 -272 77 -272 226v267c0 44 -7 54 -65 57v68h324v-68c-58 -3 -63 -13 -63 -57zM376 653
c-101 0 -159 64 -159 170h70c9 -62 52 -78 89 -78s80 16 89 78h70c0 -106 -58 -170 -159 -170z" />
    <glyph glyph-name="Ucircumflex.sc" horiz-adv-x="699" 
d="M286 483v-246c0 -85 18 -144 106 -144c70 0 126 27 126 152v238c0 44 -17 54 -75 57v68h231v-68c-58 -3 -66 -13 -66 -57v-267c0 -154 -109 -226 -246 -226c-176 0 -272 77 -272 226v267c0 44 -7 54 -65 57v68h324v-68c-58 -3 -63 -13 -63 -57zM444 816l138 -169h-95
l-111 80l-111 -80h-95l138 169h136z" />
    <glyph glyph-name="Udieresis.sc" horiz-adv-x="699" 
d="M286 483v-246c0 -85 18 -144 106 -144c70 0 126 27 126 152v238c0 44 -17 54 -75 57v68h231v-68c-58 -3 -66 -13 -66 -57v-267c0 -154 -109 -226 -246 -226c-176 0 -272 77 -272 226v267c0 44 -7 54 -65 57v68h324v-68c-58 -3 -63 -13 -63 -57zM175 741c0 48 40 88 89 88
s90 -40 90 -88s-41 -88 -90 -88s-89 40 -89 88zM395 741c0 48 41 88 88 88c51 0 91 -40 91 -88s-40 -88 -91 -88c-47 0 -88 40 -88 88z" />
    <glyph glyph-name="Ugrave.sc" horiz-adv-x="699" 
d="M286 483v-246c0 -85 18 -144 106 -144c70 0 126 27 126 152v238c0 44 -17 54 -75 57v68h231v-68c-58 -3 -66 -13 -66 -57v-267c0 -154 -109 -226 -246 -226c-176 0 -272 77 -272 226v267c0 44 -7 54 -65 57v68h324v-68c-58 -3 -63 -13 -63 -57zM188 816h184l67 -160h-96z
" />
    <glyph glyph-name="Uhungarumlaut.sc" horiz-adv-x="699" 
d="M286 483v-246c0 -85 18 -144 106 -144c70 0 126 27 126 152v238c0 44 -17 54 -75 57v68h231v-68c-58 -3 -66 -13 -66 -57v-267c0 -154 -109 -226 -246 -226c-176 0 -272 77 -272 226v267c0 44 -7 54 -65 57v68h324v-68c-58 -3 -63 -13 -63 -57zM307 816h158l-137 -160
h-88zM502 816h158l-137 -160h-88z" />
    <glyph glyph-name="Umacron.sc" horiz-adv-x="699" 
d="M286 483v-246c0 -85 18 -144 106 -144c70 0 126 27 126 152v238c0 44 -17 54 -75 57v68h231v-68c-58 -3 -66 -13 -66 -57v-267c0 -154 -109 -226 -246 -226c-176 0 -272 77 -272 226v267c0 44 -7 54 -65 57v68h324v-68c-58 -3 -63 -13 -63 -57zM222 676v101h308v-101
h-308z" />
    <glyph glyph-name="Uogonek.sc" horiz-adv-x="699" 
d="M286 483v-246c0 -85 18 -144 106 -144c70 0 126 27 126 152v238c0 44 -17 54 -75 57v68h231v-68c-58 -3 -66 -13 -66 -57v-267c0 -108 -53 -176 -132 -207c-53 -29 -79 -65 -79 -102c0 -22 12 -40 43 -40c20 0 41 3 70 19l19 -27c-45 -50 -88 -74 -145 -74
c-52 0 -96 30 -96 83c0 52 34 92 81 122h-7c-176 0 -272 77 -272 226v267c0 44 -7 54 -65 57v68h324v-68c-58 -3 -63 -13 -63 -57z" />
    <glyph glyph-name="Uring.sc" horiz-adv-x="699" 
d="M286 483v-246c0 -85 18 -144 106 -144c70 0 126 27 126 152v238c0 44 -17 54 -75 57v68h231v-68c-58 -3 -66 -13 -66 -57v-267c0 -154 -109 -226 -246 -226c-176 0 -272 77 -272 226v267c0 44 -7 54 -65 57v68h324v-68c-58 -3 -63 -13 -63 -57zM273 748
c0 57 47 101 113 101s113 -44 113 -101s-47 -101 -113 -101s-113 44 -113 101zM432 748c0 25 -16 44 -46 44s-46 -19 -46 -44s16 -44 46 -44s46 19 46 44z" />
    <glyph glyph-name="Utilde.sc" horiz-adv-x="699" 
d="M286 483v-246c0 -85 18 -144 106 -144c70 0 126 27 126 152v238c0 44 -17 54 -75 57v68h231v-68c-58 -3 -66 -13 -66 -57v-267c0 -154 -109 -226 -246 -226c-176 0 -272 77 -272 226v267c0 44 -7 54 -65 57v68h324v-68c-58 -3 -63 -13 -63 -57zM517 823l60 -12
c-54 -126 -83 -149 -141 -149c-56 0 -99 60 -136 60c-29 0 -46 -25 -65 -55l-60 12c54 126 82 149 141 149c65 0 98 -60 136 -60c28 0 46 24 65 55z" />
    <glyph glyph-name="Wacute.sc" horiz-adv-x="921" 
d="M674 254l73 193c11 29 14 46 14 55c0 25 -6 35 -57 38v68h205v-68c-24 -4 -42 -8 -52 -32l-198 -510h-65l-120 321l-127 -321h-67l-219 510c-9 21 -25 28 -49 32v68h306v-68c-33 -4 -46 -15 -46 -38c0 -9 3 -24 12 -46l83 -209l69 178l-29 83c-8 18 -19 28 -43 32v68h294
v-68c-51 -3 -57 -13 -57 -38c0 -9 2 -23 14 -59zM505 816h184l-155 -160h-97z" />
    <glyph glyph-name="Wcircumflex.sc" horiz-adv-x="921" 
d="M674 254l73 193c11 29 14 46 14 55c0 25 -6 35 -57 38v68h205v-68c-24 -4 -42 -8 -52 -32l-198 -510h-65l-120 321l-127 -321h-67l-219 510c-9 21 -25 28 -49 32v68h306v-68c-33 -4 -46 -15 -46 -38c0 -9 3 -24 12 -46l83 -209l69 178l-29 83c-8 18 -19 28 -43 32v68h294
v-68c-51 -3 -57 -13 -57 -38c0 -9 2 -23 14 -59zM568 816l138 -169h-95l-111 80l-111 -80h-95l138 169h136z" />
    <glyph glyph-name="Wgrave.sc" horiz-adv-x="921" 
d="M674 254l73 193c11 29 14 46 14 55c0 25 -6 35 -57 38v68h205v-68c-24 -4 -42 -8 -52 -32l-198 -510h-65l-120 321l-127 -321h-67l-219 510c-9 21 -25 28 -49 32v68h306v-68c-33 -4 -46 -15 -46 -38c0 -9 3 -24 12 -46l83 -209l69 178l-29 83c-8 18 -19 28 -43 32v68h294
v-68c-51 -3 -57 -13 -57 -38c0 -9 2 -23 14 -59zM294 816h184l67 -160h-96z" />
    <glyph glyph-name="Wdieresis.sc" horiz-adv-x="921" 
d="M674 254l73 193c11 29 14 46 14 55c0 25 -6 35 -57 38v68h205v-68c-24 -4 -42 -8 -52 -32l-198 -510h-65l-120 321l-127 -321h-67l-219 510c-9 21 -25 28 -49 32v68h306v-68c-33 -4 -46 -15 -46 -38c0 -9 3 -24 12 -46l83 -209l69 178l-29 83c-8 18 -19 28 -43 32v68h294
v-68c-51 -3 -57 -13 -57 -38c0 -9 2 -23 14 -59zM293 741c0 48 40 88 89 88s90 -40 90 -88s-41 -88 -90 -88s-89 40 -89 88zM513 741c0 48 41 88 88 88c51 0 91 -40 91 -88s-40 -88 -91 -88c-47 0 -88 40 -88 88z" />
    <glyph glyph-name="Yacute.sc" horiz-adv-x="644" 
d="M377 297l82 152c14 26 23 44 23 57c0 23 -19 33 -55 34v68h205v-68c-25 -4 -39 -9 -51 -32l-162 -293v-90c0 -44 13 -55 72 -58v-67h-330v67c58 3 72 14 72 58v91l-172 292c-13 23 -25 28 -49 32v68h315v-68c-43 -1 -53 -11 -53 -34c0 -16 8 -32 21 -57zM372 816h184
l-155 -160h-97z" />
    <glyph glyph-name="Ycircumflex.sc" horiz-adv-x="644" 
d="M377 297l82 152c14 26 23 44 23 57c0 23 -19 33 -55 34v68h205v-68c-25 -4 -39 -9 -51 -32l-162 -293v-90c0 -44 13 -55 72 -58v-67h-330v67c58 3 72 14 72 58v91l-172 292c-13 23 -25 28 -49 32v68h315v-68c-43 -1 -53 -11 -53 -34c0 -16 8 -32 21 -57zM417 816
l138 -169h-95l-111 80l-111 -80h-95l138 169h136z" />
    <glyph glyph-name="Ydieresis.sc" horiz-adv-x="644" 
d="M377 297l82 152c14 26 23 44 23 57c0 23 -19 33 -55 34v68h205v-68c-25 -4 -39 -9 -51 -32l-162 -293v-90c0 -44 13 -55 72 -58v-67h-330v67c58 3 72 14 72 58v91l-172 292c-13 23 -25 28 -49 32v68h315v-68c-43 -1 -53 -11 -53 -34c0 -16 8 -32 21 -57zM150 741
c0 48 40 88 89 88s90 -40 90 -88s-41 -88 -90 -88s-89 40 -89 88zM370 741c0 48 41 88 88 88c51 0 91 -40 91 -88s-40 -88 -91 -88c-47 0 -88 40 -88 88z" />
    <glyph glyph-name="Ygrave.sc" horiz-adv-x="644" 
d="M377 297l82 152c14 26 23 44 23 57c0 23 -19 33 -55 34v68h205v-68c-25 -4 -39 -9 -51 -32l-162 -293v-90c0 -44 13 -55 72 -58v-67h-330v67c58 3 72 14 72 58v91l-172 292c-13 23 -25 28 -49 32v68h315v-68c-43 -1 -53 -11 -53 -34c0 -16 8 -32 21 -57zM161 816h184
l67 -160h-96z" />
    <glyph glyph-name="Zacute.sc" horiz-adv-x="591" 
d="M251 69h93c60 0 80 10 151 143h75l-32 -212h-514v47l308 491h-91c-72 0 -81 -52 -116 -118h-71v188h501v-49zM334 816h184l-155 -160h-97z" />
    <glyph glyph-name="Zcaron.sc" horiz-adv-x="591" 
d="M251 69h93c60 0 80 10 151 143h75l-32 -212h-514v47l308 491h-91c-72 0 -81 -52 -116 -118h-71v188h501v-49zM527 825l-138 -169h-136l-138 169h95l111 -80l111 80h95z" />
    <glyph glyph-name="Zdotaccent.sc" horiz-adv-x="591" 
d="M251 69h93c60 0 80 10 151 143h75l-32 -212h-514v47l308 491h-91c-72 0 -81 -52 -116 -118h-71v188h501v-49zM322 648c-64 0 -103 44 -103 95s39 95 103 95s102 -44 102 -95s-38 -95 -102 -95z" />
    <glyph glyph-name="ampersand.sc" horiz-adv-x="683" 
d="M12 159c0 92 63 136 152 165c-23 29 -51 72 -51 126c0 104 81 168 211 168c116 0 195 -48 195 -132c0 -74 -68 -115 -146 -139l130 -152c8 18 13 36 13 55c0 23 -10 32 -40 32v65h190v-65c-61 0 -79 -14 -92 -62c-7 -24 -18 -48 -32 -70l33 -38c29 -33 48 -44 89 -44v-68
h-203c-18 12 -33 24 -47 36c-53 -29 -114 -46 -174 -46c-133 0 -228 66 -228 169zM323 79c14 0 28 2 42 5l-26 32l-144 170c-16 -20 -25 -46 -25 -74c0 -76 59 -133 153 -133zM275 503c0 -37 32 -79 63 -115l4 -5c27 25 40 63 40 110c0 36 -21 64 -55 64
c-35 0 -52 -22 -52 -54z" />
    <glyph glyph-name="caron.Slovak" horiz-adv-x="500" 
d="M360 766l-93 -205h-76l14 205h155z" />
    <glyph glyph-name="cedilla.alt" horiz-adv-x="500" 
d="M193 -44h38c74 0 112 -29 112 -78c0 -74 -95 -111 -195 -111l-11 49c72 0 115 12 115 39c0 25 -38 34 -85 36z" />
    <glyph glyph-name="grave.cap" horiz-adv-x="500" 
d="M121 909h185l72 -158h-101z" />
    <glyph glyph-name="acute.cap" horiz-adv-x="500" 
d="M193 909h185l-156 -158h-101z" />
    <glyph glyph-name="circumflex.cap" horiz-adv-x="500" 
d="M318 918l138 -169h-95l-111 80l-111 -80h-95l138 169h136z" />
    <glyph glyph-name="tilde.cap" horiz-adv-x="500" 
d="M391 901l60 -12c-54 -126 -83 -149 -141 -149c-56 0 -99 60 -136 60c-29 0 -46 -25 -65 -55l-60 12c54 126 82 149 141 149c65 0 98 -60 136 -60c28 0 46 24 65 55z" />
    <glyph glyph-name="macron.cap" horiz-adv-x="500" 
d="M91 758v106h318v-106h-318z" />
    <glyph glyph-name="breve.cap" horiz-adv-x="500" 
d="M250 746c-101 0 -159 64 -159 170h70c9 -62 52 -78 89 -78s80 16 89 78h70c0 -106 -58 -170 -159 -170z" />
    <glyph glyph-name="dotaccent.cap" horiz-adv-x="500" 
d="M250 743c-64 0 -103 44 -103 95s39 95 103 95s102 -44 102 -95s-38 -95 -102 -95z" />
    <glyph glyph-name="dieresis.cap" horiz-adv-x="500" 
d="M50 831c0 48 40 88 89 88s90 -40 90 -88s-41 -88 -90 -88s-89 40 -89 88zM270 831c0 48 41 88 88 88c51 0 91 -40 91 -88s-40 -88 -91 -88c-47 0 -88 40 -88 88z" />
    <glyph glyph-name="ring.cap" horiz-adv-x="500" 
d="M137 840c0 57 47 101 113 101s113 -44 113 -101s-47 -101 -113 -101s-113 44 -113 101zM296 840c0 25 -16 44 -46 44s-46 -19 -46 -44s16 -44 46 -44s46 19 46 44z" />
    <glyph glyph-name="hungarumlaut.cap" horiz-adv-x="500" 
d="M112 909h158l-137 -158h-88zM307 909h158l-137 -158h-88z" />
    <glyph glyph-name="caron.cap" horiz-adv-x="500" 
d="M456 921l-138 -169h-136l-138 169h95l111 -80l111 80h95z" />
    <glyph glyph-name="exclamdown.cap" horiz-adv-x="336" 
d="M66 608c0 56 46 103 101 103c57 0 102 -47 102 -103c0 -59 -45 -106 -102 -106c-55 0 -101 47 -101 106zM212 461l59 -461h-206l59 461h88z" />
    <glyph glyph-name="questiondown.cap" horiz-adv-x="480" 
d="M186 122c0 -44 25 -63 61 -63c50 0 68 37 68 82v53h110c28 -14 39 -39 39 -66c0 -81 -81 -138 -218 -138c-140 0 -220 55 -220 167c0 81 41 130 117 173c69 38 81 68 81 106v26h54c33 -19 62 -56 62 -103c0 -43 -17 -83 -61 -117c-48 -38 -93 -68 -93 -120zM354 607
c0 -59 -45 -106 -101 -106c-57 0 -102 47 -102 106c0 56 45 103 102 103c56 0 101 -47 101 -103z" />
    <glyph glyph-name="exclam.sc" horiz-adv-x="305" 
d="M255 608l-60 -383h-85l-60 383h205zM54 86c0 54 44 97 98 97c55 0 99 -43 99 -97c0 -53 -44 -96 -99 -96c-54 0 -98 43 -98 96z" />
    <glyph glyph-name="exclamdown.sc" horiz-adv-x="305" 
d="M195 383l60 -383h-205l60 383h85zM54 522c0 53 44 96 98 96c55 0 99 -43 99 -96c0 -54 -44 -97 -99 -97c-54 0 -98 43 -98 97z" />
    <glyph glyph-name="question.sc" horiz-adv-x="433" 
d="M264 507c0 34 -20 46 -47 46c-42 0 -56 -32 -56 -68v-50h-103c-28 13 -38 37 -38 62c0 72 71 121 199 121s199 -47 199 -144c0 -70 -35 -114 -103 -149c-64 -32 -73 -56 -73 -84v-21h-52c-34 18 -61 47 -61 91c0 34 13 68 51 94c50 34 84 61 84 102zM108 86
c0 54 44 97 98 97c55 0 99 -43 99 -97c0 -53 -44 -96 -99 -96c-54 0 -98 43 -98 96z" />
    <glyph glyph-name="questiondown.sc" horiz-adv-x="433" 
d="M169 101c0 -34 20 -46 47 -46c42 0 56 32 56 68v50h103c28 -13 38 -37 38 -62c0 -72 -71 -121 -199 -121s-199 47 -199 144c0 70 35 114 103 149c64 32 73 56 73 84v21h52c34 -18 61 -47 61 -91c0 -34 -13 -68 -51 -94c-50 -34 -84 -61 -84 -102zM325 522
c0 -54 -44 -97 -98 -97c-55 0 -99 43 -99 97c0 53 44 96 99 96c54 0 98 -43 98 -96z" />
    <glyph glyph-name="guilsinglleft.cap" horiz-adv-x="338" 
d="M35 341v10l181 200h87l-113 -205l113 -205h-87z" />
    <glyph glyph-name="guilsinglright.cap" horiz-adv-x="338" 
d="M303 351v-10l-179 -200h-89l114 205l-114 205h89z" />
    <glyph glyph-name="guillemotleft.cap" horiz-adv-x="564" 
d="M35 341v10l181 200h87l-113 -205l113 -205h-87zM260 341v10l181 200h88l-114 -205l114 -205h-88z" />
    <glyph glyph-name="guillemotright.cap" horiz-adv-x="564" 
d="M303 351v-10l-179 -200h-89l114 205l-114 205h89zM529 351v-10l-180 -200h-88l114 205l-114 205h88z" />
    <glyph glyph-name="slash.cap" horiz-adv-x="442" 
d="M410 770l-272 -871h-107l272 871h107z" />
    <glyph glyph-name="backslash.cap" horiz-adv-x="442" 
d="M302 -101l-270 871h107l270 -871h-107z" />
    <glyph glyph-name="bar.cap" horiz-adv-x="302" 
d="M202 770v-871h-102v871h102z" />
    <glyph glyph-name="brokenbar.cap" horiz-adv-x="302" 
d="M202 770v-371h-102v371h102zM202 270v-371h-102v371h102z" />
    <glyph glyph-name="slash.sc" horiz-adv-x="429" 
d="M404 692l-272 -804h-107l272 804h107z" />
    <glyph glyph-name="backslash.sc" horiz-adv-x="429" 
d="M297 -112l-272 804h107l272 -804h-107z" />
    <glyph glyph-name="bar.sc" horiz-adv-x="302" 
d="M202 692v-804h-102v804h102z" />
    <glyph glyph-name="brokenbar.sc" horiz-adv-x="302" 
d="M202 225v-337h-102v337h102zM202 692v-337h-102v337h102z" />
    <glyph glyph-name="periodcentered.cap" horiz-adv-x="315" 
d="M50 355c0 63 48 108 107 108c60 0 108 -45 108 -108s-48 -107 -108 -107c-59 0 -107 44 -107 107z" />
    <glyph glyph-name="bullet.cap" horiz-adv-x="422" 
d="M50 359c0 91 73 165 161 165c89 0 161 -74 161 -165c0 -89 -72 -164 -161 -164c-88 0 -161 75 -161 164z" />
    <glyph glyph-name="hyphen.cap" horiz-adv-x="360" 
d="M310 297h-260v116h260v-116z" />
    <glyph glyph-name="endash.cap" horiz-adv-x="580" 
d="M530 312h-480v86h480v-86z" />
    <glyph glyph-name="emdash.cap" horiz-adv-x="1000" 
d="M950 398v-86h-900v86h900z" />
    <glyph glyph-name="parenleft.cap" horiz-adv-x="388" 
d="M60 334c0 166 81 322 212 436h96c-128 -137 -160 -284 -160 -436s32 -299 160 -436h-96c-131 114 -212 270 -212 436z" />
    <glyph glyph-name="parenright.cap" horiz-adv-x="388" 
d="M328 334c0 -166 -81 -322 -212 -436h-96c128 137 160 284 160 436s-32 299 -160 436h96c131 -114 212 -270 212 -436z" />
    <glyph glyph-name="bracketleft.cap" horiz-adv-x="357" 
d="M209 658v-647c0 -52 33 -55 113 -60v-52h-237v871h237v-52c-80 -5 -113 -8 -113 -60z" />
    <glyph glyph-name="bracketright.cap" horiz-adv-x="357" 
d="M148 11v647c0 52 -33 55 -113 60v52h237v-871h-237v52c80 5 113 8 113 60z" />
    <glyph glyph-name="braceleft.cap" horiz-adv-x="393" 
d="M50 317v36c48 10 83 36 83 100v189c0 79 67 128 225 128v-41c-47 -6 -95 -31 -95 -98v-184c0 -68 -24 -92 -91 -112c67 -20 91 -44 91 -112v-183c0 -67 48 -92 95 -98v-42c-158 0 -225 49 -225 128v189c0 64 -35 90 -83 100z" />
    <glyph glyph-name="braceright.cap" horiz-adv-x="393" 
d="M343 353v-36c-48 -10 -83 -36 -83 -100v-189c0 -79 -67 -128 -225 -128v42c47 6 95 31 95 98v183c0 68 24 92 91 112c-67 20 -91 44 -91 112v184c0 67 -48 92 -95 98v41c158 0 225 -49 225 -128v-189c0 -64 35 -90 83 -100z" />
    <glyph glyph-name="parenleft.sc" horiz-adv-x="389" 
d="M60 290c0 153 78 297 210 402h99c-128 -126 -161 -262 -161 -402s33 -276 161 -402h-99c-132 105 -210 249 -210 402z" />
    <glyph glyph-name="parenright.sc" horiz-adv-x="389" 
d="M329 290c0 -153 -78 -297 -210 -402h-99c128 126 161 262 161 402s-33 276 -161 402h99c132 -105 210 -249 210 -402z" />
    <glyph glyph-name="bracketleft.sc" horiz-adv-x="357" 
d="M209 580v-579c0 -52 33 -55 113 -60v-52h-237v803h237v-52c-80 -5 -113 -8 -113 -60z" />
    <glyph glyph-name="bracketright.sc" horiz-adv-x="357" 
d="M148 1v579c0 52 -33 55 -113 60v52h237v-803h-237v52c80 5 113 8 113 60z" />
    <glyph glyph-name="braceleft.sc" horiz-adv-x="383" 
d="M162 290c67 -20 91 -44 91 -112v-150c0 -67 48 -92 95 -98v-42c-158 0 -225 49 -225 128v156c0 64 -35 90 -83 100v36c48 10 83 36 83 100v156c0 79 67 128 225 128v-42c-47 -6 -95 -31 -95 -98v-150c0 -68 -24 -92 -91 -112z" />
    <glyph glyph-name="braceright.sc" horiz-adv-x="383" 
d="M221 290c-67 20 -91 44 -91 112v150c0 67 -48 92 -95 98v42c158 0 225 -49 225 -128v-156c0 -64 35 -90 83 -100v-36c-48 -10 -83 -36 -83 -100v-156c0 -79 -67 -128 -225 -128v42c47 6 95 31 95 98v150c0 68 24 92 91 112z" />
    <glyph glyph-name="at.cap" horiz-adv-x="907" 
d="M606 145c-99 0 -122 71 -107 152h-5c-36 -75 -92 -152 -169 -152c-59 0 -105 49 -105 129c0 135 109 286 257 286c43 0 73 -21 87 -40l80 30h56l-35 -94l-51 -179c-11 -39 -4 -74 26 -74c68 0 136 78 136 234c0 144 -111 272 -290 272c-217 0 -352 -163 -352 -390
c0 -219 157 -322 343 -322c115 0 186 24 270 69l18 -33c-70 -60 -166 -102 -302 -102c-224 0 -413 142 -413 383c0 255 181 447 436 447c235 0 371 -155 371 -324c0 -213 -141 -292 -251 -292zM392 240c46 0 111 109 137 236c-8 21 -16 34 -36 34c-74 0 -131 -127 -131 -220
c0 -31 9 -50 30 -50z" />
    <glyph glyph-name="florin.op" horiz-adv-x="555" 
d="M45 259l8 62h90l3 27c23 211 101 319 260 319c72 0 149 -22 149 -93c0 -30 -13 -56 -47 -67h-64c0 58 -3 110 -40 110c-27 0 -38 -28 -41 -58l-26 -238h114l-5 -62h-116l-12 -115c-23 -211 -101 -319 -260 -319c-72 0 -149 22 -149 93c0 30 13 56 47 67h64
c0 -58 3 -110 40 -110c27 0 38 28 41 58l35 326h-91z" />
    <glyph glyph-name="Euro.op" horiz-adv-x="683" 
d="M28 359v54h87c37 156 163 254 317 254c85 0 149 -20 196 -63v-152h-86c-21 92 -46 146 -119 146c-74 0 -109 -82 -119 -185h187l-7 -54h-183v-16c0 -15 0 -31 1 -45h175l-8 -55h-163c13 -103 50 -179 130 -179c64 0 106 44 136 158h82l-12 -180
c-52 -35 -139 -52 -218 -52c-169 0 -286 97 -314 253h-82v55h76v17c0 15 0 29 2 44h-78z" />
    <glyph glyph-name="dollar.op" horiz-adv-x="575" 
d="M179 -113l19 109c-64 10 -117 31 -151 57l-11 156h92c10 -75 38 -120 83 -142l32 175l-16 5c-122 36 -184 98 -184 204c0 136 102 216 245 216c10 0 21 -1 31 -1l18 97h55l-19 -103c54 -10 97 -27 129 -50v-142h-78c-8 52 -26 95 -64 118l-31 -169l31 -9
c105 -32 179 -92 179 -205c0 -147 -117 -213 -263 -213c-8 0 -16 0 -24 1l-18 -104h-55zM299 226l-4 1l-32 -175c9 -1 18 -1 28 -1c58 0 101 30 101 87c0 39 -21 68 -93 88zM183 526c0 -49 28 -73 85 -90l9 -3l31 171c-10 2 -21 3 -32 3c-62 0 -93 -38 -93 -81z" />
    <glyph glyph-name="sterling.op" horiz-adv-x="672" 
d="M98 313v55h92l1 37c6 170 88 262 234 262c102 0 186 -31 186 -123c0 -38 -21 -62 -42 -71h-99v59c0 50 -12 79 -45 79c-31 0 -43 -32 -47 -73l-15 -170h146v-55h-151l-3 -36c-4 -46 -12 -90 -22 -114c45 -14 119 -29 170 -29c59 0 78 20 78 81l42 10
c10 -20 17 -46 17 -83c0 -93 -53 -152 -154 -152c-85 0 -157 45 -199 80c-34 -53 -98 -80 -161 -80c-74 0 -119 42 -119 107c0 70 48 109 112 109c19 0 43 -3 65 -12l4 119h-90zM121 44c39 0 56 31 58 85c-17 10 -37 19 -60 19c-34 0 -50 -22 -50 -51c0 -35 21 -53 52 -53z
" />
    <glyph glyph-name="yen.op" horiz-adv-x="682" 
d="M101 315v55h72l-109 186c-14 25 -27 31 -54 36v65h327v-65c-50 -2 -62 -12 -62 -37c0 -18 8 -34 21 -58l98 -182l99 182c14 26 23 43 23 58c0 25 -20 35 -64 37v65h220v-65c-27 -5 -41 -11 -55 -36l-105 -186h83v-55h-114l-36 -65h150v-54h-159v-66c0 -50 17 -62 81 -65
v-65h-346v65c64 3 82 15 82 65v66h-152v54h143l-38 65h-105z" />
    <glyph glyph-name="florin.lt" 
d="M95 289l8 62h93l5 42c23 211 101 319 260 319c72 0 149 -22 149 -93c0 -30 -13 -56 -47 -67h-64c0 58 -3 110 -40 110c-27 0 -38 -28 -41 -58l-28 -253h111l-5 -62h-112l-16 -145c-23 -211 -101 -319 -260 -319c-72 0 -149 22 -149 93c0 30 13 56 47 67h64
c0 -58 3 -110 40 -110c27 0 38 28 41 58l38 356h-94z" />
    <glyph glyph-name="Euro.lt" 
d="M12 383v58h64c35 166 153 271 300 271c80 0 141 -21 186 -67v-162h-94c-20 98 -32 155 -101 155c-75 0 -100 -87 -107 -197h166l-8 -58h-160v-17v-47h153l-8 -59h-142c9 -110 36 -191 110 -191c66 0 94 47 122 168h90l-12 -192c-49 -37 -131 -55 -206 -55
c-161 0 -269 103 -294 270h-59v59h54v18c0 15 0 31 2 46h-56z" />
    <glyph glyph-name="dollar.lt" 
d="M188 -113l20 110c-67 11 -123 33 -158 60l-11 167h97c10 -79 40 -128 85 -152l34 188l-15 5c-129 39 -194 103 -194 217c0 145 108 230 259 230c10 0 21 0 31 -1l19 103h55l-20 -109c58 -9 105 -29 140 -53v-153h-82c-9 58 -29 105 -71 130l-33 -183l36 -11
c117 -37 189 -97 189 -218c0 -157 -123 -227 -277 -227c-11 0 -21 1 -31 1l-18 -104h-55zM317 242l-10 3l-34 -189c11 -1 23 -2 35 -2c61 0 106 33 106 93c0 43 -22 73 -97 95zM194 562c0 -53 30 -78 89 -96l9 -3l33 183c-10 2 -21 3 -33 3c-65 0 -98 -42 -98 -87z" />
    <glyph glyph-name="cent.lt" 
d="M221 -117l21 116c-116 27 -195 120 -195 263c0 186 132 307 298 308l20 107h58l-20 -111c89 -12 153 -54 153 -137c0 -40 -20 -59 -48 -70h-76v44c0 53 -13 82 -42 95l-66 -365c16 -5 33 -7 51 -7c70 0 112 34 148 80l44 -23c-35 -129 -123 -193 -251 -193
c-6 0 -12 0 -18 1l-19 -108h-58zM211 327c0 -75 21 -131 60 -165l63 345c-69 0 -123 -60 -123 -180z" />
    <glyph glyph-name="sterling.lt" 
d="M87 334v58h83v39c0 181 78 281 221 281c95 0 173 -33 173 -128c0 -43 -23 -69 -43 -79h-99v63c0 53 -1 84 -27 84c-29 0 -34 -31 -37 -77l-14 -183h127v-58h-131l-2 -38c-4 -49 -12 -97 -22 -123c42 -16 90 -32 145 -32c50 0 66 25 66 81l44 11c9 -21 16 -49 16 -89
c0 -99 -50 -154 -144 -154c-70 0 -129 48 -168 85c-32 -56 -77 -85 -148 -85c-83 0 -125 45 -125 114s49 114 108 114c18 0 42 -3 60 -11v127h-83zM111 50c35 0 53 31 55 88c-16 11 -32 18 -53 18c-30 0 -48 -21 -48 -52c0 -37 19 -54 46 -54z" />
    <glyph glyph-name="yen.lt" 
d="M72 341v59h67l-90 196c-12 26 -25 32 -49 37v69h313v-69c-44 -2 -56 -12 -56 -39c0 -18 9 -38 19 -64l77 -200l83 203c11 28 20 46 20 61c0 27 -18 37 -57 39v69h201v-69c-24 -5 -39 -11 -50 -37l-85 -196h76v-59h-102l-29 -68h131v-57h-139v-79c0 -53 18 -65 85 -68v-69
h-366v69c66 3 85 15 85 68v79h-134v57h126l-32 68h-94z" />
    <glyph glyph-name="florin.ot" 
d="M97 259l8 62h90l3 27c23 211 101 319 260 319c72 0 149 -22 149 -93c0 -30 -13 -56 -47 -67h-64c0 58 -3 110 -40 110c-27 0 -38 -28 -41 -58l-26 -238h114l-5 -62h-116l-12 -115c-23 -211 -101 -319 -260 -319c-72 0 -149 22 -149 93c0 30 13 56 47 67h64
c0 -58 3 -110 40 -110c27 0 38 28 41 58l35 326h-91z" />
    <glyph glyph-name="Euro.ot" 
d="M17 359v54h67c33 156 146 254 290 254c79 0 139 -20 183 -63v-152h-88c-19 92 -36 146 -95 146c-68 0 -94 -82 -101 -185h154l-7 -54h-149v-16v-45h142l-8 -55h-131c9 -103 36 -179 108 -179c55 0 87 44 115 158h84l-11 -180c-49 -35 -130 -52 -204 -52
c-158 0 -263 97 -287 253h-62v55h57v17c0 15 0 29 2 44h-59z" />
    <glyph glyph-name="dollar.ot" 
d="M191 -113l19 109c-64 10 -117 31 -151 57l-11 156h92c10 -75 38 -120 83 -142l32 175l-16 5c-122 36 -184 98 -184 204c0 136 102 216 245 216c10 0 21 -1 31 -1l18 97h55l-19 -103c54 -10 97 -27 129 -50v-142h-78c-8 52 -26 95 -64 118l-31 -169l31 -9
c105 -32 179 -92 179 -205c0 -147 -117 -213 -263 -213c-8 0 -16 0 -24 1l-18 -104h-55zM311 226l-4 1l-32 -175c9 -1 18 -1 28 -1c58 0 101 30 101 87c0 39 -21 68 -93 88zM195 526c0 -49 28 -73 85 -90l9 -3l31 171c-10 2 -21 3 -32 3c-62 0 -93 -38 -93 -81z" />
    <glyph glyph-name="sterling.ot" 
d="M85 313v55h80v27c0 180 88 272 224 272c95 0 173 -31 173 -123c0 -38 -20 -62 -39 -71h-92v59c0 50 -11 79 -38 79c-33 0 -39 -32 -42 -73l-14 -170h130v-55h-134l-3 -36c-4 -46 -11 -90 -21 -114c42 -14 93 -29 141 -29c54 0 72 20 72 81l42 10c9 -20 16 -46 16 -83
c0 -93 -49 -152 -143 -152c-79 0 -131 45 -170 80c-32 -53 -98 -80 -156 -80c-69 0 -111 42 -111 107c0 70 45 109 104 109c18 0 40 -3 61 -12v119h-80zM108 46c35 0 50 32 52 83c-15 10 -33 19 -54 19c-30 0 -44 -22 -44 -51c0 -35 18 -51 46 -51z" />
    <glyph glyph-name="yen.ot" 
d="M82 314v56h61l-94 186c-13 25 -25 31 -49 36v65h306v-65c-45 -2 -56 -12 -56 -37c0 -18 8 -37 18 -59l85 -182l86 182c12 26 20 44 20 59c0 25 -19 35 -58 37v65h199v-65c-24 -5 -38 -11 -50 -36l-90 -186h70v-56h-97l-31 -65h128v-54h-135v-65c0 -50 17 -62 81 -65v-65
h-346v65c64 3 82 15 82 65v65h-130v54h122l-33 65h-89z" />
    <glyph glyph-name="zero.op" horiz-adv-x="664" 
d="M242 304c0 -134 17 -249 90 -249s90 115 90 249s-17 249 -90 249s-90 -115 -90 -249zM39 304c0 188 115 314 293 314s293 -126 293 -314s-115 -314 -293 -314s-293 126 -293 314z" />
    <glyph glyph-name="one.op" horiz-adv-x="444" 
d="M266 618h57v-482c0 -61 6 -66 102 -72v-64h-391v64c101 6 104 11 104 72v281h-104v63l36 7c98 19 140 51 196 131z" />
    <glyph glyph-name="two.op" horiz-adv-x="548" 
d="M188 144h173c65 0 84 18 114 72h49l-20 -216h-484v60l98 94c98 94 185 154 185 238c0 53 -31 91 -97 91c-71 0 -117 -44 -148 -77l-36 37c49 92 140 175 266 175c127 0 198 -69 198 -173c0 -132 -145 -204 -298 -301z" />
    <glyph glyph-name="three.op" horiz-adv-x="530" 
d="M301 300c120 -6 205 -71 205 -188c0 -145 -141 -217 -276 -217c-141 0 -210 53 -210 124c0 37 22 60 43 70h95c0 -89 31 -134 93 -134c55 0 82 44 82 106c0 93 -42 157 -166 157l-12 44c106 45 142 94 142 142c0 47 -28 82 -86 82c-60 0 -100 -34 -135 -68l-38 32
c46 93 129 168 250 168c110 0 183 -61 183 -150c0 -97 -86 -151 -170 -168z" />
    <glyph glyph-name="four.op" horiz-adv-x="642" 
d="M114 154h212v304zM501 -93h-175v178h-312v54l334 469h153v-454h127v-69h-127v-178z" />
    <glyph glyph-name="five.op" horiz-adv-x="524" 
d="M258 -45c56 0 89 38 89 93c0 101 -120 150 -285 163l63 397h333v-171h-304l-10 -67c195 -12 346 -83 346 -252c0 -143 -118 -223 -260 -223c-141 0 -210 53 -210 124c0 37 22 60 43 70h95c0 -89 31 -134 100 -134z" />
    <glyph glyph-name="six.op" horiz-adv-x="618" 
d="M505 657c-192 -26 -252 -122 -274 -263c34 41 86 68 161 68c104 0 192 -73 192 -212c0 -177 -128 -260 -261 -260c-166 0 -284 117 -284 306c0 228 167 414 447 417zM282 368c-22 0 -39 -4 -55 -10c-2 -22 -3 -42 -3 -62c0 -114 24 -236 108 -236c57 0 90 53 90 143
s-41 165 -140 165z" />
    <glyph glyph-name="seven.op" horiz-adv-x="528" 
d="M388 440h-217c-46 0 -69 -24 -92 -90h-60l44 258h466v-46l-311 -656h-125z" />
    <glyph glyph-name="eight.op" horiz-adv-x="592" 
d="M524 549c0 -80 -59 -127 -130 -141l14 -6c82 -36 144 -95 144 -192c0 -138 -103 -220 -259 -220c-161 0 -261 69 -261 174c0 84 59 132 137 148l-8 5c-66 42 -108 89 -108 182c0 127 96 213 238 213c145 0 233 -62 233 -163zM331 240l-126 52c-24 -19 -38 -59 -38 -105
c0 -76 48 -129 126 -129c65 0 114 32 114 89c0 44 -30 73 -76 93zM270 464l79 -35c24 20 47 62 47 111c0 61 -40 104 -105 104c-60 0 -95 -36 -95 -86c0 -44 26 -73 74 -94z" />
    <glyph glyph-name="nine.op" horiz-adv-x="618" 
d="M105 -49c192 26 252 122 274 263c-34 -41 -86 -68 -161 -68c-104 0 -192 73 -192 212c0 177 128 260 261 260c166 0 284 -117 284 -306c0 -228 -167 -414 -447 -417zM328 240c22 0 39 4 55 10c2 22 3 42 3 62c0 114 -24 236 -108 236c-57 0 -90 -53 -90 -143
s41 -165 140 -165z" />
    <glyph glyph-name="zero.lt" 
d="M228 351c0 -189 19 -286 72 -286s72 97 72 286s-19 287 -72 287s-72 -98 -72 -287zM575 351c0 -209 -97 -360 -275 -360s-275 151 -275 360s97 361 275 361s275 -152 275 -361z" />
    <glyph glyph-name="one.lt" 
d="M355 711h57v-570c0 -61 42 -72 139 -72v-69h-472v69c108 0 148 11 148 72v369h-148v63l41 4c124 14 183 55 235 134z" />
    <glyph glyph-name="two.lt" 
d="M195 148h171c65 0 87 6 138 94h49l-22 -242h-515v57l199 190c82 77 110 138 110 211c0 77 -44 112 -113 112c-65 0 -103 -33 -137 -65l-37 41c52 93 136 166 265 166c134 0 219 -69 219 -192c0 -143 -146 -254 -327 -372z" />
    <glyph glyph-name="three.lt" 
d="M343 394c124 -6 209 -70 209 -187c0 -145 -142 -217 -283 -217c-156 0 -240 68 -240 147c0 41 24 68 47 79h110v-36c0 -83 35 -127 100 -127c54 0 86 36 86 103c0 93 -55 157 -152 157h-21l-14 43c111 45 145 90 145 138c0 47 -29 82 -89 82c-63 0 -105 -34 -140 -68
l-40 36c49 93 134 168 265 168c109 0 185 -61 185 -158c0 -89 -80 -143 -168 -160z" />
    <glyph glyph-name="four.lt" 
d="M113 260h192v292zM305 137v44h-285v64l307 457h153v-442h97v-79h-97v-44c0 -52 12 -65 80 -68v-69h-336v69c68 3 81 16 81 68z" />
    <glyph glyph-name="five.lt" 
d="M503 702v-170h-320l-11 -67c221 -2 373 -73 373 -247c0 -149 -112 -227 -261 -227c-157 0 -242 65 -242 146c0 39 24 69 47 80h111v-28c0 -91 33 -133 102 -133c62 0 92 40 92 91c0 95 -94 156 -308 156l66 399h351z" />
    <glyph glyph-name="six.lt" 
d="M499 657c-196 -26 -259 -122 -282 -263c36 37 92 73 168 73c106 0 194 -78 194 -217c0 -177 -130 -260 -266 -260c-169 0 -289 117 -289 306c0 228 151 417 455 417zM269 368c-22 0 -39 -4 -56 -10c-2 -22 -3 -42 -3 -62c0 -114 27 -236 112 -236c58 0 93 53 93 143
s-45 165 -146 165z" />
    <glyph glyph-name="seven.lt" 
d="M445 530h-267c-46 0 -69 -24 -92 -90h-60l44 262h516v-46l-301 -656h-138z" />
    <glyph glyph-name="eight.lt" 
d="M543 549c0 -80 -61 -124 -137 -138l14 -6c101 -44 152 -98 152 -195c0 -139 -109 -220 -270 -220c-168 0 -274 63 -274 174c0 84 61 129 143 145l-8 5c-68 30 -113 92 -113 178c0 139 101 220 251 220c149 0 242 -62 242 -163zM340 237l-131 52c-24 -19 -40 -56 -40 -102
c0 -76 51 -129 133 -129c67 0 117 32 117 89c0 44 -30 70 -79 90zM277 467l82 -35c26 20 49 59 49 108c0 61 -41 104 -107 104c-65 0 -101 -36 -101 -86c0 -44 27 -70 77 -91z" />
    <glyph glyph-name="nine.lt" 
d="M101 45c196 26 259 122 282 263c-36 -37 -92 -73 -168 -73c-106 0 -194 78 -194 217c0 177 130 260 266 260c169 0 289 -117 289 -306c0 -228 -151 -417 -455 -417zM331 334c22 0 39 4 56 10c2 22 3 42 3 62c0 114 -27 236 -112 236c-58 0 -93 -53 -93 -143
s45 -165 146 -165z" />
    <glyph glyph-name="zero.ot" 
d="M300 55c61 0 74 115 74 249s-13 249 -74 249s-74 -115 -74 -249s13 -249 74 -249zM300 -10c-178 0 -275 126 -275 314s97 314 275 314s275 -126 275 -314s-97 -314 -275 -314z" />
    <glyph glyph-name="one.ot" 
d="M355 618h57v-477c0 -61 42 -72 139 -72v-69h-472v69c108 0 148 11 148 72v276h-148v63l41 4c124 14 183 55 235 134z" />
    <glyph glyph-name="two.ot" 
d="M198 144h186c66 0 85 18 116 72h50l-20 -216h-503v60l100 94c100 94 192 154 192 238c0 53 -32 91 -99 91c-73 0 -120 -44 -151 -77l-37 37c50 92 143 175 271 175c130 0 202 -69 202 -173c0 -132 -151 -204 -307 -301z" />
    <glyph glyph-name="three.ot" 
d="M324 300c124 -6 211 -71 211 -188c0 -145 -145 -217 -284 -217c-145 0 -216 53 -216 124c0 37 23 60 44 70h98c0 -89 32 -134 98 -134c57 0 86 44 86 106c0 93 -42 157 -175 157l-12 44c109 45 149 92 149 142c0 49 -30 85 -91 85c-64 0 -103 -37 -139 -71l-39 32
c47 93 132 168 257 168c113 0 188 -61 188 -150c0 -97 -88 -151 -175 -168z" />
    <glyph glyph-name="four.ot" 
d="M98 154h208v304zM481 -93h-175v178h-294v54l316 469h153v-454h109v-69h-109v-178z" />
    <glyph glyph-name="five.ot" 
d="M293 -45c57 0 91 38 91 93c0 101 -124 150 -292 163l64 397h350v-171h-320l-11 -67c201 -12 356 -83 356 -252c0 -143 -121 -223 -267 -223s-216 53 -216 124c0 37 23 60 45 70h92c0 -89 37 -134 108 -134z" />
    <glyph glyph-name="six.ot" 
d="M493 657c-192 -26 -252 -122 -274 -263c34 41 86 68 161 68c104 0 192 -73 192 -212c0 -177 -128 -260 -261 -260c-166 0 -284 117 -284 306c0 228 167 414 447 417zM270 368c-22 0 -39 -4 -55 -10c-2 -22 -3 -42 -3 -62c0 -114 24 -236 108 -236c57 0 90 53 90 143
s-41 165 -140 165z" />
    <glyph glyph-name="seven.ot" 
d="M435 440h-252c-46 0 -69 -24 -92 -90h-60l44 258h501v-46l-311 -656h-125z" />
    <glyph glyph-name="eight.ot" 
d="M531 549c0 -80 -60 -127 -133 -141l14 -6c84 -36 148 -95 148 -192c0 -138 -106 -220 -265 -220c-164 0 -267 69 -267 174c0 84 60 132 140 148l-8 5c-67 42 -110 89 -110 182c0 127 98 213 244 213c147 0 237 -62 237 -163zM333 240l-128 52c-24 -19 -37 -59 -37 -105
c0 -76 48 -129 127 -129c66 0 116 32 116 89c0 44 -30 73 -78 93zM272 464l80 -35c25 20 46 62 46 111c0 61 -39 104 -104 104c-62 0 -98 -36 -98 -86c0 -44 27 -73 76 -94z" />
    <glyph glyph-name="nine.ot" 
d="M106 -49c192 26 252 122 274 263c-34 -41 -86 -68 -161 -68c-104 0 -192 73 -192 212c0 177 128 260 261 260c166 0 284 -117 284 -306c0 -228 -167 -414 -447 -417zM329 240c22 0 39 4 55 10c2 22 3 42 3 62c0 114 -24 236 -108 236c-57 0 -90 -53 -90 -143
s41 -165 140 -165z" />
    <glyph glyph-name="uni2153" unicode="&#x2153;" horiz-adv-x="947" 
d="M228 748h50v-363c0 -39 11 -42 73 -46v-52h-296v52c73 4 75 7 75 46v218h-75v48l28 6c79 17 108 43 145 91zM230 0l449 741h77l-450 -741h-76zM757 182c80 -1 135 -46 135 -116c0 -96 -89 -143 -197 -143c-113 0 -164 43 -164 95c0 30 17 46 32 53h87v-25
c0 -48 17 -78 51 -78c33 0 50 25 50 71c0 59 -28 92 -81 92h-18l-10 30c64 26 84 47 84 80c0 27 -19 48 -55 48c-41 0 -66 -22 -84 -45l-36 25c29 66 92 120 186 120c79 0 132 -39 132 -107c0 -58 -49 -91 -112 -100z" />
    <glyph glyph-name="uni2154" unicode="&#x2154;" horiz-adv-x="986" 
d="M173 395h110c39 0 45 5 77 50h41l-13 -158h-363v47l126 110c58 50 89 86 89 138c0 40 -24 66 -69 66c-41 0 -75 -27 -96 -53l-34 35c32 62 102 118 198 118c85 0 144 -48 144 -131c0 -99 -106 -164 -210 -222zM269 0l449 741h77l-450 -741h-76zM796 182
c80 -1 135 -46 135 -116c0 -96 -89 -143 -197 -143c-113 0 -164 43 -164 95c0 30 17 46 32 53h87v-25c0 -48 17 -78 51 -78c33 0 50 25 50 71c0 59 -28 92 -81 92h-18l-10 30c64 26 84 47 84 80c0 27 -19 48 -55 48c-41 0 -66 -22 -84 -45l-36 25c29 66 92 120 186 120
c79 0 132 -39 132 -107c0 -58 -49 -91 -112 -100z" />
    </font>
</defs>
</svg>
