<?xml version="1.0" standalone="no"?>
<!DOCTYPE svg PUBLIC "-//W3C//DTD SVG 1.1//EN" "http://www.w3.org/Graphics/SVG/1.1/DTD/svg11.dtd" >
<svg xmlns="http://www.w3.org/2000/svg" xmlns:xlink="http://www.w3.org/1999/xlink" version="1.1">
<metadata>
Created by FontForge 20170731 at Sat Jan  1 08:00:02 2005
 By Aleksey,,,
[c] Copyright 2000-2003, The Font Bureau, Inc. Designed by Cyrus Highsmith, Tobias Frere-Jones, and Font Bureau. All rights reserved.
</metadata>
<defs>
<font id="BentonSans-Regular" horiz-adv-x="749" >
  <font-face 
    font-family="BentonSans"
    font-weight="500"
    font-stretch="normal"
    units-per-em="1000"
    panose-1="2 0 6 3 0 0 0 0 0 0"
    ascent="800"
    descent="-200"
    x-height="528"
    cap-height="740"
    bbox="-94 -205 1352 956"
    underline-thickness="20"
    underline-position="-173"
    unicode-range="U+0020-FFFD"
  />
<missing-glyph horiz-adv-x="500" 
 />
    <glyph glyph-name=".notdef" unicode="&#xfffd;" horiz-adv-x="500" 
 />
    <glyph glyph-name=".null" horiz-adv-x="0" 
 />
    <glyph glyph-name="nonmarkingreturn" horiz-adv-x="333" 
 />
    <glyph glyph-name="space" unicode=" " horiz-adv-x="234" 
 />
    <glyph glyph-name="exclam" unicode="!" horiz-adv-x="321" 
d="M134 208l-26 532h107l-25 -532h-56zM110 0v103h103v-103h-103z" />
    <glyph glyph-name="quotedbl" unicode="&#x22;" horiz-adv-x="415" 
d="M272 485l-17 196v59h81v-59l-17 -196h-47zM95 485l-17 196v59h82v-59l-17 -196h-48z" />
    <glyph glyph-name="numbersign" unicode="#" horiz-adv-x="718" 
d="M111 0l44 211h-115v69h130l37 180h-124v69h139l44 211h79l-44 -211h177l44 211h79l-44 -211h120v-69h-134l-38 -180h129v-69h-143l-45 -211h-79l44 211h-176l-45 -211h-79zM249 280h177l37 180h-176z" />
    <glyph glyph-name="dollar" unicode="$" horiz-adv-x="654" 
d="M295 -5q-89 7 -148 47.5t-91 96.5l64 42q35 -52 76 -81t102 -35v286q-51 15 -84.5 28.5t-68 36.5t-51.5 57.5t-17 80.5q0 80 58.5 133.5t159.5 59.5v72h62v-74q134 -13 205 -126l-63 -47q-29 46 -61 70.5t-83 30.5v-258q55 -15 90.5 -29.5t73 -39t56 -61.5t18.5 -88
q0 -85 -62.5 -140.5t-173.5 -62.5v-87h-62v88zM298 675q-68 -4 -102.5 -35t-34.5 -79q0 -51 34.5 -79.5t102.5 -49.5v243zM355 65q154 11 154 125q0 59 -39 90t-115 55v-270z" />
    <glyph glyph-name="percent" unicode="%" horiz-adv-x="995" 
d="M231 299q-82 0 -127.5 61t-45.5 163q0 104 47 166t127 62q79 0 125 -61t46 -164q0 -102 -46 -164.5t-126 -62.5zM238 0l442 740h78l-442 -740h-78zM764 -10q-81 0 -126.5 61.5t-45.5 162.5q0 104 47 166t127 62q79 0 125 -61t46 -164q0 -101 -46.5 -164t-126.5 -63z
M232 365q45 0 70 44t25 115q0 75 -25 118t-71 43q-47 0 -71.5 -43.5t-24.5 -115.5q0 -75 25 -118t72 -43zM765 55q46 0 71 44.5t25 116.5q0 75 -25 117.5t-72 42.5t-71.5 -43.5t-24.5 -115.5q0 -75 25 -118.5t72 -43.5z" />
    <glyph glyph-name="ampersand" unicode="&#x26;" horiz-adv-x="725" 
d="M284 -14q-120 0 -184.5 53.5t-64.5 143.5q0 76 46.5 129.5t126.5 95.5q-50 89 -50 169q0 74 47 125.5t133 51.5q78 0 120 -41.5t42 -104.5q0 -72 -48.5 -122t-136.5 -94q16 -25 64 -86q66 -85 119 -138q57 78 73 204h80q-21 -151 -94 -249q74 -57 147 -57v-76
q-114 4 -202 74q-91 -78 -218 -78zM283 444q67 35 102.5 71t35.5 87q0 35 -21.5 58.5t-61.5 23.5q-46 0 -71.5 -27.5t-25.5 -74.5q0 -66 42 -138zM290 59q91 0 155 52q-55 52 -134 151q-45 57 -68 91q-120 -70 -120 -161q0 -65 42.5 -99t124.5 -34z" />
    <glyph glyph-name="quotesingle" unicode="'" horiz-adv-x="239" 
d="M95 485l-17 196v59h82v-59l-17 -196h-48z" />
    <glyph glyph-name="parenleft" unicode="(" horiz-adv-x="399" 
d="M310 -205q-251 211 -251 480q0 141 63 258t188 222l39 -43q-197 -187 -197 -437q0 -253 199 -439z" />
    <glyph glyph-name="parenright" unicode=")" horiz-adv-x="399" 
d="M89 -205l-41 41q93 88 145.5 200t52.5 239q0 251 -197 437l40 43q125 -105 187.5 -222t62.5 -258q0 -270 -250 -480z" />
    <glyph glyph-name="asterisk" unicode="*" horiz-adv-x="508" 
d="M177 343l-57 33l102 148l-180 -12v62l181 -13l-103 148l57 34l77 -163l77 163l57 -34l-102 -148l180 13v-62l-180 12l102 -148l-56 -33l-78 163z" />
    <glyph glyph-name="plus" unicode="+" horiz-adv-x="638" 
d="M282 77v220h-216v72h216v220h74v-220h217v-72h-217v-220h-74z" />
    <glyph glyph-name="comma" unicode="," horiz-adv-x="271" 
d="M96 -105l27 105h-39v105h103v-93l-51 -117h-40z" />
    <glyph glyph-name="hyphen" unicode="-" horiz-adv-x="357" 
d="M62 280v68h233v-68h-233z" />
    <glyph glyph-name="period" unicode="." horiz-adv-x="271" 
d="M84 0v105h103v-105h-103z" />
    <glyph glyph-name="slash" unicode="/" horiz-adv-x="566" 
d="M23 0l430 740h90l-430 -740h-90z" />
    <glyph glyph-name="zero" unicode="0" horiz-adv-x="661" 
d="M331 -14q-131 0 -205 104t-74 280t74 280t205 104t204 -104t73 -280t-73 -280t-204 -104zM331 63q90 0 140 79t50 228q0 148 -50.5 227t-139.5 79q-92 0 -141.5 -78.5t-49.5 -227.5q0 -148 51 -227.5t140 -79.5z" />
    <glyph glyph-name="one" unicode="1" horiz-adv-x="437" 
d="M54 0v78h139v570q-64 -34 -137 -34v78q93 3 141 48h82v-662h124v-78h-349z" />
    <glyph glyph-name="two" unicode="2" horiz-adv-x="592" 
d="M44 0v16q0 87 52.5 165.5t190.5 166.5q87 56 121.5 97t34.5 98q0 61 -37 97t-102 36q-114 0 -181 -122l-68 42q87 158 253 158q102 0 161.5 -56.5t59.5 -148.5q0 -74 -40.5 -130.5t-145.5 -122.5q-187 -119 -200 -218h390v-78h-489z" />
    <glyph glyph-name="three" unicode="3" horiz-adv-x="597" 
d="M287 -14q-83 0 -150.5 35t-110.5 100l64 48q74 -106 197 -106q78 0 123 37t45 103q0 78 -53.5 115t-174.5 37h-30v73h35q111 0 158 32.5t47 96.5q0 118 -147 118q-103 0 -174 -84l-57 53q94 109 238 109q112 0 169.5 -52t57.5 -133q0 -69 -38 -114.5t-106 -60.5
q162 -32 162 -192q0 -95 -69.5 -155t-185.5 -60z" />
    <glyph glyph-name="four" unicode="4" horiz-adv-x="619" 
d="M387 0v171h-357v67l337 502h105v-492h125v-77h-125v-171h-85zM127 248h260v389h-2z" />
    <glyph glyph-name="five" unicode="5" horiz-adv-x="587" 
d="M285 -14q-80 0 -145 34t-106 92l59 54q82 -103 190 -103q86 0 131 51.5t45 128.5q0 83 -44 127.5t-117 44.5q-102 0 -163 -86l-63 22l29 389h402l-7 -79h-324l-18 -236q57 64 161 64t167.5 -66t63.5 -176q0 -115 -70.5 -188t-190.5 -73z" />
    <glyph glyph-name="six" unicode="6" horiz-adv-x="619" 
d="M322 -14q-121 0 -195.5 94.5t-74.5 276.5q0 177 85 287t215 110q108 0 181 -58l-44 -65q-61 46 -140 46q-95 0 -152 -85.5t-59 -219.5q90 94 206 94q111 0 172 -63t61 -169q0 -108 -72 -178t-183 -70zM327 61q76 0 120.5 45.5t44.5 125.5q0 73 -39.5 116t-121.5 43
q-56 0 -107.5 -27.5t-83.5 -70.5q10 -117 60 -174.5t127 -57.5z" />
    <glyph glyph-name="seven" unicode="7" horiz-adv-x="547" 
d="M112 0l306 661h-375v79h467v-74l-308 -666h-90z" />
    <glyph glyph-name="eight" unicode="8" horiz-adv-x="613" 
d="M307 -16q-125 0 -198 55.5t-73 141.5q0 72 48 121t142 89q-79 37 -117.5 78t-38.5 105q0 73 64.5 127.5t172.5 54.5q109 0 172 -54t63 -128q0 -62 -38.5 -103t-118.5 -77q99 -43 145 -89.5t46 -123.5q0 -85 -72.5 -141t-196.5 -56zM311 426q81 36 113.5 66t32.5 77
q0 46 -38.5 79.5t-111.5 33.5q-72 0 -111.5 -32.5t-39.5 -77.5q0 -48 34.5 -78.5t120.5 -67.5zM307 57q81 0 131.5 35t50.5 94q0 55 -44.5 93t-143.5 79q-95 -43 -136 -81t-41 -91q0 -57 51 -93t132 -36z" />
    <glyph glyph-name="nine" unicode="9" horiz-adv-x="619" 
d="M267 -14q-114 0 -189 64l43 65q68 -53 149 -53q94 0 151 86t59 220q-90 -94 -206 -94q-111 0 -171.5 63t-60.5 169q0 108 72 178t183 70q120 0 194.5 -94.5t74.5 -276.5q0 -177 -84.5 -287t-214.5 -110zM288 349q56 0 107 27.5t83 70.5q-9 117 -59 174t-127 57
q-76 0 -120.5 -45t-44.5 -125q0 -73 39 -116t122 -43z" />
    <glyph glyph-name="colon" unicode=":" horiz-adv-x="275" 
d="M86 422v106h103v-106h-103zM86 0v105h103v-105h-103z" />
    <glyph glyph-name="semicolon" unicode=";" horiz-adv-x="275" 
d="M86 422v106h103v-106h-103zM97 -105l28 105h-39v105h103v-92l-52 -118h-40z" />
    <glyph glyph-name="less" unicode="&#x3c;" horiz-adv-x="638" 
d="M582 68l-529 227v58l529 227v-77l-432 -179l432 -179v-77z" />
    <glyph glyph-name="equal" unicode="=" horiz-adv-x="638" 
d="M66 405v69h505v-69h-505zM66 177v69h505v-69h-505z" />
    <glyph glyph-name="greater" unicode="&#x3e;" horiz-adv-x="638" 
d="M58 68v77l432 179l-432 179v77l529 -227v-58z" />
    <glyph glyph-name="question" unicode="?" horiz-adv-x="549" 
d="M213 207q-3 32 -3 67q0 53 22 88.5t71 64.5q63 39 86 65.5t23 75.5q0 50 -37 79t-101 29q-105 0 -178 -96l-59 49q99 125 243 125q101 0 160 -50t59 -131q0 -66 -32 -106t-94 -76q-61 -35 -75.5 -67t-14.5 -117h-70zM197 0v103h102v-103h-102z" />
    <glyph glyph-name="at" unicode="@" horiz-adv-x="868" 
d="M431 -14q-170 0 -277 106.5t-107 276.5t109.5 277.5t278.5 107.5q168 0 277 -105t109 -269q0 -103 -48.5 -164t-125.5 -61q-97 0 -121 76q-76 -71 -164 -71q-67 0 -107 40.5t-40 118.5q0 116 58 193t148 77q74 0 127 -53l7 45h70l-44 -296q-6 -37 13.5 -60t60.5 -23
q52 0 85 45.5t33 130.5q0 146 -95 238t-243 92q-149 0 -243.5 -94.5t-94.5 -244.5q0 -149 94 -244t241 -95q109 0 201 52l21 -36q-99 -60 -223 -60zM379 217q68 0 131 60l30 199q-46 53 -115 53q-61 0 -100 -59.5t-39 -143.5q0 -109 93 -109z" />
    <glyph glyph-name="A" unicode="A" horiz-adv-x="680" 
d="M32 0l262 743h92l262 -743h-91l-73 212h-294l-73 -212h-85zM217 289h240l-118 347h-2z" />
    <glyph glyph-name="B" unicode="B" horiz-adv-x="691" 
d="M91 0v740h265q122 0 187.5 -47t65.5 -138q0 -72 -38 -115t-99 -56v-2q73 -14 117 -58.5t44 -121.5q0 -94 -67 -148t-189 -54h-286zM178 417h170q175 0 175 124q0 64 -41.5 92.5t-131.5 28.5h-172v-245zM178 77h193q175 0 175 131q0 133 -193 133h-175v-264z" />
    <glyph glyph-name="C" unicode="C" horiz-adv-x="705" 
d="M369 -14q-143 0 -228.5 103.5t-85.5 283.5q0 172 87 276.5t227 104.5q217 0 274 -227l-84 -23q-25 87 -69 128t-122 41q-103 0 -163.5 -81t-60.5 -218q0 -146 60.5 -227t165.5 -81q155 0 201 179l83 -19q-28 -113 -100 -176.5t-185 -63.5z" />
    <glyph glyph-name="D" unicode="D" horiz-adv-x="715" 
d="M91 0v740h195q181 0 277 -92t96 -276q0 -185 -97 -278.5t-276 -93.5h-195zM179 79h118q137 0 205.5 70.5t68.5 222.5q0 147 -69.5 217t-206.5 70h-116v-580z" />
    <glyph glyph-name="E" unicode="E" horiz-adv-x="609" 
d="M91 0v740h454v-81h-366v-231h272v-79h-272v-269h387v-80h-475z" />
    <glyph glyph-name="F" unicode="F" horiz-adv-x="569" 
d="M91 0v740h444v-81h-356v-238h262v-79h-262v-342h-88z" />
    <glyph glyph-name="G" unicode="G" horiz-adv-x="730" 
d="M364 -14q-146 0 -227.5 107t-81.5 280q0 174 87.5 277.5t227.5 103.5q216 0 274 -229l-82 -21q-26 90 -71 129.5t-122 39.5q-95 0 -160 -75t-65 -222q0 -150 63 -230.5t165 -80.5q88 0 141 57t54 158h-170v74h255v-354h-77v111h-2q-25 -53 -77.5 -89t-131.5 -36z" />
    <glyph glyph-name="H" unicode="H" horiz-adv-x="739" 
d="M91 0v740h88v-310h381v310h88v-740h-88v349h-381v-349h-88z" />
    <glyph glyph-name="I" unicode="I" horiz-adv-x="290" 
d="M101 0v740h88v-740h-88z" />
    <glyph glyph-name="J" unicode="J" horiz-adv-x="505" 
d="M212 -14q-118 0 -188 97l59 50q51 -70 126 -70q125 0 125 143v534h88v-540q0 -103 -55.5 -158.5t-154.5 -55.5z" />
    <glyph glyph-name="K" unicode="K" horiz-adv-x="678" 
d="M91 0v740h88v-382l335 382h106l-254 -282l289 -458h-101l-246 391l-129 -141v-250h-88z" />
    <glyph glyph-name="L" unicode="L" horiz-adv-x="569" 
d="M91 0v740h88v-660h356v-80h-444z" />
    <glyph glyph-name="M" unicode="M" horiz-adv-x="878" 
d="M91 0v740h115l233 -629h2l229 629h117v-740h-87v599h-2q-6 -24 -45 -136l-177 -463h-79l-177 463q-32 86 -46 139h-2v-602h-81z" />
    <glyph glyph-name="N" unicode="N" 
d="M91 0v740h93l389 -585h2v585h83v-740h-79l-403 601h-2v-601h-83z" />
    <glyph glyph-name="O" unicode="O" 
d="M375 -14q-140 0 -230 104.5t-90 279.5t90 279.5t230 104.5t229 -104t89 -280t-89 -280t-229 -104zM375 65q103 0 166.5 81.5t63.5 223.5t-63.5 223t-166.5 81q-104 0 -167.5 -81t-63.5 -223t63.5 -223.5t167.5 -81.5z" />
    <glyph glyph-name="P" unicode="P" horiz-adv-x="649" 
d="M91 0v740h251q125 0 196 -52t71 -158q0 -112 -74 -164.5t-199 -52.5h-157v-313h-88zM179 391h162q91 0 136 31.5t45 104.5q0 70 -45 101.5t-137 31.5h-161v-269z" />
    <glyph glyph-name="Q" unicode="Q" 
d="M550 -188q-109 0 -166 49t-59 130q-120 16 -195 118.5t-75 260.5q0 174 91 279t229 105q137 0 227.5 -105t90.5 -279q0 -161 -78 -263.5t-201 -116.5q7 -59 46.5 -80.5t115.5 -21.5h51v-76h-77zM375 64q102 0 165.5 82t63.5 224t-63 223t-166 81q-104 0 -168 -81
t-64 -223t64 -224t168 -82z" />
    <glyph glyph-name="R" unicode="R" horiz-adv-x="677" 
d="M91 0v740h254q127 0 195 -53t68 -154q0 -167 -172 -203l182 -330h-96l-177 319h-167v-319h-87zM178 397h162q91 0 136 30t45 103q0 70 -45 100t-137 30h-161v-263z" />
    <glyph glyph-name="S" unicode="S" horiz-adv-x="657" 
d="M334 -14q-104 0 -177 52t-103 141l74 33q55 -148 210 -148q79 0 126 32t47 90q0 55 -39 88t-147 67q-131 40 -188.5 84t-57.5 133q0 85 66.5 140.5t171.5 55.5q100 0 165 -45t96 -121l-70 -39q-56 125 -192 125q-69 0 -109.5 -30.5t-40.5 -78.5q0 -57 40 -86t155 -65
q123 -38 180 -85.5t57 -136.5q0 -92 -73 -149t-191 -57z" />
    <glyph glyph-name="T" unicode="T" horiz-adv-x="623" 
d="M267 0v659h-235v81h559v-81h-236v-659h-88z" />
    <glyph glyph-name="U" unicode="U" horiz-adv-x="717" 
d="M359 -13q-137 0 -206 74t-69 195v484h88v-472q0 -93 46.5 -147.5t141.5 -54.5q94 0 140 53t46 147v474h87v-482q0 -121 -71 -196t-203 -75z" />
    <glyph glyph-name="V" unicode="V" horiz-adv-x="666" 
d="M292 -3l-260 743h90l212 -625h2l213 625h85l-260 -743h-82z" />
    <glyph glyph-name="W" unicode="W" horiz-adv-x="931" 
d="M233 0l-197 740h89l109 -429q32 -121 43 -181h2q15 79 42 180l103 430h89l106 -433q36 -149 41 -177h2q8 40 41 174l108 436h84l-196 -740h-81l-149 619h-2l-153 -619h-81z" />
    <glyph glyph-name="X" unicode="X" horiz-adv-x="670" 
d="M32 0l254 395l-223 345h101l175 -275l172 275h93l-221 -344l255 -396h-96l-209 326l-210 -326h-91z" />
    <glyph glyph-name="Y" unicode="Y" horiz-adv-x="631" 
d="M271 0v324l-249 416h94l201 -341l200 341h92l-250 -416v-324h-88z" />
    <glyph glyph-name="Z" unicode="Z" horiz-adv-x="630" 
d="M40 0v62l433 604h-405v74h513v-64l-430 -603h430v-73h-541z" />
    <glyph glyph-name="bracketleft" unicode="[" horiz-adv-x="399" 
d="M84 -200v940h271v-64h-184v-812h184v-64h-271z" />
    <glyph glyph-name="backslash" unicode="\" horiz-adv-x="556" 
d="M448 0l-430 740h90l430 -740h-90z" />
    <glyph glyph-name="bracketright" unicode="]" horiz-adv-x="399" 
d="M43 -200v64h184v811h-184v65h271v-940h-271z" />
    <glyph glyph-name="asciicircum" unicode="^" horiz-adv-x="518" 
d="M98 582l129 161h63l129 -161h-52l-109 94l-108 -94h-52z" />
    <glyph glyph-name="underscore" unicode="_" horiz-adv-x="500" 
d="M0 -132v67h500v-67h-500z" />
    <glyph glyph-name="grave" unicode="`" horiz-adv-x="500" 
d="M278 585l-142 158h105l94 -158h-57z" />
    <glyph glyph-name="a" unicode="a" horiz-adv-x="553" 
d="M193 -8q-69 0 -109 35t-40 98q0 84 82 138.5t271 81.5v24q0 98 -100 98q-99 0 -191 -80l-45 54q107 98 245 98q176 0 176 -176v-233q0 -93 15 -130h-88q-12 38 -12 73q-87 -81 -204 -81zM218 60q100 0 179 77v148q-145 -23 -206.5 -59t-61.5 -88q0 -38 23.5 -58t65.5 -20
z" />
    <glyph glyph-name="b" unicode="b" horiz-adv-x="599" 
d="M327 -8q-92 0 -165 76v-68h-86v740h86v-286q76 85 174 85q95 0 155 -70.5t60 -203.5t-61.5 -203t-162.5 -70zM315 62q71 0 110.5 50t39.5 152q0 98 -41 149.5t-108 51.5q-80 0 -154 -81v-242q71 -80 153 -80z" />
    <glyph glyph-name="c" unicode="c" horiz-adv-x="536" 
d="M281 -11q-98 0 -166.5 73t-68.5 202q0 135 72 205t170 70q146 0 207 -148l-73 -30q-40 105 -136 105q-64 0 -108.5 -49t-44.5 -153q0 -96 41.5 -149.5t109.5 -53.5q51 0 84 24.5t58 81.5l71 -28q-34 -72 -85 -111t-131 -39z" />
    <glyph glyph-name="d" unicode="d" horiz-adv-x="599" 
d="M262 -8q-95 0 -155 69t-60 202t62 204.5t163 71.5q96 0 164 -78v279h86v-610q0 -94 16 -130h-90q-12 34 -12 75q-76 -83 -174 -83zM283 63q79 0 153 81v242q-71 80 -152 80q-71 0 -111 -51t-40 -153q0 -97 41.5 -148t108.5 -51z" />
    <glyph glyph-name="e" unicode="e" horiz-adv-x="552" 
d="M285 -11q-100 0 -169.5 72t-69.5 203q0 69 21.5 123.5t56.5 86.5t76.5 48.5t84.5 16.5q99 0 159.5 -70.5t60.5 -208.5v-18h-373q2 -86 46.5 -134.5t112.5 -48.5q54 0 90.5 21t68.5 65l50 -44q-78 -112 -215 -112zM134 309h289q-5 73 -40.5 115.5t-98.5 42.5
q-57 0 -99 -40t-51 -118z" />
    <glyph glyph-name="f" unicode="f" horiz-adv-x="344" 
d="M117 0v457h-92v71h92v71q0 143 159 143q8 0 27 -1.5t22 -1.5v-70q-12 3 -37 3q-85 0 -85 -74v-70h116v-71h-116v-457h-86z" />
    <glyph glyph-name="g" unicode="g" horiz-adv-x="575" 
d="M272 -203q-255 0 -255 131q0 80 96 117q-45 21 -45 67q0 47 66 85q-81 52 -81 152q0 83 60.5 136.5t154.5 53.5t156 -55q54 41 125 49v-76q-51 0 -95 -17q27 -38 27 -91q0 -85 -60 -136.5t-153 -51.5q-40 0 -84 13q-37 -17 -37 -41q0 -17 16 -25t57 -12l108 -9
q202 -14 202 -137q0 -73 -70 -113t-188 -40zM269 224q61 0 96.5 33t35.5 90q0 58 -35 91.5t-98 33.5q-61 0 -97 -34t-36 -91t36.5 -90t97.5 -33zM283 -138q78 0 123 22t45 58t-32 53t-114 23l-100 7l-30 3q-78 -28 -78 -87q0 -40 44.5 -59.5t141.5 -19.5z" />
    <glyph glyph-name="h" unicode="h" horiz-adv-x="588" 
d="M76 0v740h87v-291q92 90 198 90q75 0 115.5 -41.5t40.5 -116.5v-381h-86v362q0 53 -23.5 78t-73.5 25q-81 0 -171 -85v-380h-87z" />
    <glyph glyph-name="i" unicode="i" horiz-adv-x="250" 
d="M80 641v84h90v-84h-90zM82 0v528h86v-528h-86z" />
    <glyph glyph-name="j" unicode="j" horiz-adv-x="250" 
d="M80 641v84h90v-84h-90zM46 -201q-24 0 -52 4v65q18 -4 34 -4q54 0 54 61v603h86v-609q0 -58 -27.5 -89t-94.5 -31z" />
    <glyph glyph-name="k" unicode="k" horiz-adv-x="540" 
d="M76 0v740h86v-476l236 264h98l-173 -189l192 -339h-92l-156 275l-105 -113v-162h-86z" />
    <glyph glyph-name="l" unicode="l" horiz-adv-x="250" 
d="M82 0v740h86v-740h-86z" />
    <glyph glyph-name="m" unicode="m" horiz-adv-x="917" 
d="M76 0v528h86v-80q91 91 190 91q115 0 145 -93q95 93 195 93q78 0 115.5 -42t37.5 -116v-381h-86v362q0 54 -20.5 78.5t-71.5 24.5q-73 0 -163 -85v-380h-86v362q0 54 -20.5 78.5t-71.5 24.5q-72 0 -164 -85v-380h-86z" />
    <glyph glyph-name="n" unicode="n" horiz-adv-x="588" 
d="M76 0v528h87v-79q92 90 198 90q75 0 115.5 -41.5t40.5 -116.5v-381h-86v362q0 53 -23.5 78t-73.5 25q-81 0 -171 -85v-380h-87z" />
    <glyph glyph-name="o" unicode="o" horiz-adv-x="583" 
d="M292 -11q-103 0 -174.5 72.5t-71.5 202.5t71 202.5t175 72.5q103 0 174 -72.5t71 -202.5t-71 -202.5t-174 -72.5zM292 62q74 0 116 55t42 147q0 87 -41 144t-117 57q-75 0 -117 -55t-42 -146q0 -89 41 -145.5t118 -56.5z" />
    <glyph glyph-name="p" unicode="p" horiz-adv-x="599" 
d="M76 -200v728h86v-73q76 84 174 84q95 0 155 -70.5t60 -203.5t-61.5 -203t-162.5 -70q-92 0 -165 76v-268h-86zM315 62q71 0 110.5 50t39.5 152q0 98 -41 149.5t-108 51.5q-80 0 -154 -81v-242q71 -80 153 -80z" />
    <glyph glyph-name="q" unicode="q" horiz-adv-x="599" 
d="M436 -200v275q-76 -83 -174 -83q-95 0 -155 69t-60 202t62 204.5t163 71.5q92 0 164 -77v66h86v-728h-86zM283 63q79 0 153 81v242q-71 80 -152 80q-71 0 -111 -51t-40 -153q0 -97 41.5 -148t108.5 -51z" />
    <glyph glyph-name="r" unicode="r" horiz-adv-x="400" 
d="M76 0v528h86v-98h2q70 109 204 109h11l-6 -80q-3 1 -25 1q-124 0 -186 -119v-341h-86z" />
    <glyph glyph-name="s" unicode="s" horiz-adv-x="512" 
d="M254 -10q-69 0 -125.5 24.5t-90.5 65.5l52 52q68 -73 165 -73q127 0 127 83q0 38 -31.5 57.5t-104.5 36.5q-97 23 -143 56t-46 103q0 62 50.5 103t134.5 41q121 0 202 -76l-45 -57q-68 63 -153 63q-54 0 -80.5 -20t-26.5 -51q0 -35 29 -53t96 -33q52 -13 83 -23.5
t61 -29.5t43.5 -46.5t13.5 -67.5q0 -74 -59 -114.5t-152 -40.5z" />
    <glyph glyph-name="t" unicode="t" horiz-adv-x="377" 
d="M261 -7q-81 0 -114 32t-33 103v329h-92v71h92v188h86v-188h137v-71h-137v-310q0 -44 18 -64t64 -20q30 0 54 7v-71q-30 -6 -75 -6z" />
    <glyph glyph-name="u" unicode="u" horiz-adv-x="588" 
d="M227 -10q-75 0 -115.5 41t-40.5 116v381h86v-363q0 -53 23.5 -78t73.5 -25q81 0 171 85v381h87v-528h-87v79q-91 -89 -198 -89z" />
    <glyph glyph-name="v" unicode="v" horiz-adv-x="515" 
d="M214 -2l-194 530h92l148 -428h2l146 428h86l-193 -530h-87z" />
    <glyph glyph-name="w" unicode="w" horiz-adv-x="752" 
d="M183 0l-161 528h89l69 -248q31 -110 46 -176h2q22 90 46 177l67 247h75l69 -252q22 -76 44 -172h2q26 101 46 170l72 254h81l-161 -528h-80l-112 413h-2l-113 -413h-79z" />
    <glyph glyph-name="x" unicode="x" horiz-adv-x="518" 
d="M27 0l188 273l-175 255h94l129 -193l128 193h91l-176 -254l187 -274h-93l-142 210l-141 -210h-90z" />
    <glyph glyph-name="y" unicode="y" horiz-adv-x="533" 
d="M106 -203q-56 0 -99 13l20 69q34 -9 78 -9q40 0 62.5 17.5t38.5 57.5l20 52l-204 531h91l155 -427h2l155 427h87l-226 -588q-29 -75 -68 -109t-112 -34z" />
    <glyph glyph-name="z" unicode="z" horiz-adv-x="510" 
d="M39 0v52l309 406h-285v70h393v-54l-310 -405h325v-69h-432z" />
    <glyph glyph-name="braceleft" unicode="{" horiz-adv-x="391" 
d="M276 -200q-132 0 -132 138v180q0 70 -25.5 95t-85.5 25v64q60 0 85.5 25t25.5 95v180q0 138 132 138h77v-64h-44q-78 0 -78 -77v-184q0 -69 -20.5 -99t-64.5 -45v-2q44 -15 64.5 -45t20.5 -99v-184q0 -77 78 -77h44v-64h-77z" />
    <glyph glyph-name="bar" unicode="|" horiz-adv-x="355" 
d="M135 -200v940h84v-940h-84z" />
    <glyph glyph-name="braceright" unicode="}" horiz-adv-x="391" 
d="M38 -200v64h44q78 0 78 77v189q0 68 20 96t65 43v2q-45 15 -65 43t-20 96v189q0 80 -75 80h-44l-3 61h82q67 0 97 -33t30 -100v-185q0 -70 25.5 -95t85.5 -25v-64q-60 0 -85.5 -25t-25.5 -95v-185q0 -67 -30 -100t-97 -33h-82z" />
    <glyph glyph-name="asciitilde" unicode="~" horiz-adv-x="508" 
d="M328 407q-32 0 -80 28t-66 28q-22 0 -31.5 -12.5t-9.5 -41.5h-53q0 119 92 119q32 0 80 -28t67 -28q41 0 41 54h51q0 -119 -91 -119z" />
    <glyph glyph-name="nbspace" unicode="&#xa0;" horiz-adv-x="117" 
 />
    <glyph glyph-name="exclamdown" unicode="&#xa1;" horiz-adv-x="321" 
d="M108 637v103h103v-103h-103zM106 0l25 532h56l26 -532h-107z" />
    <glyph glyph-name="cent" unicode="&#xa2;" horiz-adv-x="538" 
d="M171 17q-57 32 -91 95.5t-34 151.5q0 134 72 204.5t170 70.5q19 0 28 -1l28 100h54l-31 -111q85 -31 129 -136l-70 -30q-30 74 -82 96l-108 -391q21 -7 48 -7q50 0 84.5 25t61.5 83l68 -28q-70 -150 -217 -150q-31 0 -61 8l-35 -126h-55zM298 467h-12q-65 0 -111.5 -49.5
t-46.5 -153.5q0 -121 66 -175z" />
    <glyph glyph-name="sterling" unicode="&#xa3;" horiz-adv-x="624" 
d="M218 354h-130v64h94q-46 83 -46 145q0 85 53 138t144 53q99 0 147 -53.5t58 -134.5l-80 -12q-12 126 -125 126q-53 0 -82.5 -31.5t-29.5 -84.5q0 -24 9.5 -53t16 -42t26.5 -51h173v-64h-142q29 -65 29 -131q0 -60 -17 -108q23 -19 37 -29t36 -19t42 -9q47 0 67 29.5
t24 98.5h78q-5 -200 -160 -200q-72 0 -156 72q-52 -72 -143 -72q-45 0 -79.5 27t-34.5 76q0 52 33 83.5t87 31.5q48 0 106 -40q3 23 3 52q0 64 -38 138zM234 101q-52 45 -87 45q-26 0 -41 -15t-15 -40q0 -23 15 -36.5t39 -13.5q62 0 89 60z" />
    <glyph glyph-name="currency" unicode="&#xa4;" horiz-adv-x="721" 
d="M138 411h-117v65h124q21 137 96 207.5t178 70.5q99 0 156.5 -54.5t84.5 -154.5l-79 -25q-24 83 -58 120t-104 37q-72 0 -122 -50.5t-67 -150.5h214v-65h-221q-1 -11 -1 -35q0 -9 0.5 -26t0.5 -25h221v-66h-213q33 -197 190 -197q69 0 108.5 40.5t61.5 126.5l79 -23
q-60 -220 -250 -220q-106 0 -179 69t-95 204h-125v66h117q-1 16 -1 48q0 26 1 38z" />
    <glyph glyph-name="yen" unicode="&#xa5;" horiz-adv-x="629" 
d="M270 0v117h-189v64h189v88h-189v64h186l-243 407h94l198 -336l197 336h92l-245 -407h189v-64h-191v-88h191v-64h-191v-117h-88z" />
    <glyph glyph-name="brokenbar" unicode="&#xa6;" horiz-adv-x="355" 
d="M135 331v409h84v-409h-84zM135 -200v409h84v-409h-84z" />
    <glyph glyph-name="section" unicode="&#xa7;" horiz-adv-x="540" 
d="M270 -200q-164 0 -201 145l70 24q15 -51 43 -76t85 -25q53 0 77 23.5t24 60.5q0 35 -26.5 63.5t-96.5 68.5q-108 63 -149.5 104t-41.5 103q0 99 122 162q-51 38 -71 70t-20 75q0 64 50.5 110t134.5 46q169 0 204 -145l-72 -26q-29 104 -129 104q-53 0 -79.5 -24.5
t-26.5 -60.5q0 -34 27.5 -62.5t99.5 -69.5q108 -63 149.5 -104t41.5 -103q0 -101 -121 -163q50 -37 68 -68.5t18 -75.5q0 -65 -48 -110.5t-132 -45.5zM310 136q99 46 99 115q0 40 -30.5 69t-129.5 88q-3 1 -6.5 3t-7.5 4l-6 3q-98 -46 -98 -115q0 -40 30.5 -69t129.5 -88
q8 -3 19 -10z" />
    <glyph glyph-name="dieresis" unicode="&#xa8;" horiz-adv-x="510" 
d="M301 583v94h89v-94h-89zM119 583v94h88v-94h-88z" />
    <glyph glyph-name="copyright" unicode="&#xa9;" horiz-adv-x="864" 
d="M432 -14q-161 0 -271.5 111.5t-110.5 271.5q0 161 111 273t272 112q160 0 270.5 -111.5t110.5 -271.5q0 -161 -111 -273t-271 -112zM433 32q139 0 235 98t96 239t-96.5 240t-235.5 99q-140 0 -236 -98t-96 -239t96.5 -240t236.5 -99zM430 155q-80 0 -128 60.5t-48 160.5
q0 97 48 157t129 60q123 0 157 -133l-54 -14q-14 49 -38 72.5t-65 23.5q-53 0 -85 -45.5t-32 -120.5q0 -78 31.5 -123t86.5 -45q80 0 106 102q51 -14 56 -14q-37 -141 -164 -141z" />
    <glyph glyph-name="ordfeminine" unicode="&#xaa;" horiz-adv-x="421" 
d="M157 367q-50 0 -79 25t-29 70q0 60 57.5 98t189.5 56v16q0 67 -67 67q-72 0 -132 -55l-37 37q74 71 176 71q126 0 126 -124v-161q0 -63 13 -92h-70q-8 24 -9 50q-64 -58 -139 -58zM174 421q66 0 122 53v100q-102 -15 -141.5 -41t-39.5 -62q0 -50 59 -50z" />
    <glyph glyph-name="guillemotleft" unicode="&#xab;" horiz-adv-x="542" 
d="M403 0l-153 265l153 263h86l-149 -263l149 -265h-86zM192 0l-151 265l151 263h87l-147 -263l147 -265h-87z" />
    <glyph glyph-name="logicalnot" unicode="&#xac;" horiz-adv-x="760" 
d="M180 170l-27 -2v72l31 -2l6 100l-180 -15v93l180 -15l-6 102l-31 -2v72l27 -2l-2 26h72l-2 -30l101 -7l-15 180h93l-15 -180l101 7l-2 30h72l-2 -26l27 2v-72l-31 2l-7 -102l180 15v-93l-180 15l7 -100l31 2v-72l-27 2l2 -28h-72l2 32l-101 6l15 -180h-93l15 180l-101 -6
l2 -32h-72zM516 506l-104 6v-111h110zM349 401v111l-105 -6l-6 -105h111zM412 338v-110l104 6l6 104h-110zM244 234l105 -6v110h-111z" />
    <glyph glyph-name="registered" unicode="&#xae;" horiz-adv-x="864" 
d="M432 -14q-161 0 -271.5 111.5t-110.5 271.5q0 161 111 273t272 112q160 0 270.5 -111.5t110.5 -271.5q0 -161 -111 -273t-271 -112zM433 32q139 0 235 98t96 239t-96.5 240t-235.5 99q-140 0 -236 -98t-96 -239t96.5 -240t236.5 -99zM291 167v421h148q72 0 111.5 -31
t39.5 -89q0 -93 -93 -116l100 -185h-64l-95 178h-88v-178h-59zM350 392h86q95 0 95 73q0 70 -96 70h-85v-143z" />
    <glyph glyph-name="macron" unicode="&#xaf;" horiz-adv-x="500" 
d="M104 618v69h292v-69h-292z" />
    <glyph glyph-name="degree" unicode="&#xb0;" horiz-adv-x="405" 
d="M203 466q-63 0 -104.5 41t-41.5 103t41.5 102.5t104.5 40.5q62 0 103.5 -40.5t41.5 -102.5t-41.5 -103t-103.5 -41zM203 517q38 0 62.5 26t24.5 67t-24.5 66.5t-62.5 25.5q-39 0 -63.5 -25.5t-24.5 -66.5t25 -67t63 -26z" />
    <glyph glyph-name="plusminus" unicode="&#xb1;" horiz-adv-x="881" 
d="M117 0v457h-92v71h92v71q0 68 38 105.5t114 37.5q9 0 27 -1.5t21 -1.5v-70q-9 2 -35 2q-79 0 -79 -74v-69h213v68q0 69 38.5 107.5t113.5 38.5q8 0 25.5 -1.5t21.5 -1.5v-70q-8 2 -35 2q-78 0 -78 -74v-69h109v-71h-109v-457h-86v457h-213v-457h-86zM714 0v740h86v-740
h-86z" />
    <glyph glyph-name="twosuperior" unicode="&#xb2;" horiz-adv-x="452" 
d="M65 276v20q0 55 32.5 104t118.5 104q49 32 69 55.5t20 54.5q0 33 -19.5 52.5t-54.5 19.5q-64 0 -106 -79l-56 33q56 110 164 110q67 0 106 -37t39 -97q0 -48 -26.5 -84.5t-93.5 -76.5q-100 -61 -110 -115h232v-64h-315z" />
    <glyph glyph-name="threesuperior" unicode="&#xb3;" horiz-adv-x="452" 
d="M224 267q-112 0 -171 97l51 39q45 -72 117 -72q44 0 68 21.5t24 56.5q0 43 -29 64t-96 21h-28v56h31q113 0 113 71q0 30 -19.5 47.5t-58.5 17.5q-59 0 -107 -56l-47 43q66 77 158 77q73 0 110.5 -34.5t37.5 -87.5q0 -78 -77 -105q88 -27 88 -114q0 -64 -45 -103t-120 -39
z" />
    <glyph glyph-name="acute" unicode="&#xb4;" horiz-adv-x="500" 
d="M165 585l94 158h105l-142 -158h-57z" />
    <glyph glyph-name="paragraph" unicode="&#xb6;" horiz-adv-x="623" 
d="M301 -200v533q-119 2 -181 53t-62 149q0 90 60.5 147.5t168.5 57.5h251v-940h-68v870h-100v-870h-69z" />
    <glyph glyph-name="periodcentered" unicode="&#xb7;" horiz-adv-x="273" 
d="M84 269v105h105v-105h-105z" />
    <glyph glyph-name="cedilla" unicode="&#xb8;" horiz-adv-x="500" 
d="M253 -196q-73 0 -128 36l20 33q45 -30 100 -30q69 0 69 45q0 34 -40 34q-25 0 -50 -20l-31 15l26 83h47l-15 -52q23 15 56 15q29 0 50 -18t21 -50q0 -45 -35 -68t-90 -23z" />
    <glyph glyph-name="onesuperior" unicode="&#xb9;" horiz-adv-x="406" 
d="M92 275v63h84v324q-35 -15 -82 -15v63q63 1 89 29h66v-401h75v-63h-232z" />
    <glyph glyph-name="ordmasculine" unicode="&#xba;" horiz-adv-x="436" 
d="M218 367q-73 0 -124 50.5t-51 141.5q0 93 50.5 143t124.5 50t124.5 -50t50.5 -143q0 -91 -51 -141.5t-124 -50.5zM218 420q50 0 79 39t29 101q0 59 -28 99.5t-80 40.5q-50 0 -79 -39t-29 -101q0 -60 27.5 -100t80.5 -40z" />
    <glyph glyph-name="guillemotright" unicode="&#xbb;" horiz-adv-x="542" 
d="M263 0l148 265l-148 263h86l152 -263l-152 -265h-86zM53 0l148 265l-148 263h87l152 -263l-152 -265h-87z" />
    <glyph glyph-name="onequarter" unicode="&#xbc;" horiz-adv-x="958" 
d="M92 275v63h84v324q-35 -15 -82 -15v63q63 1 89 29h66v-401h75v-63h-232zM230 0l443 740h78l-443 -740h-78zM751 0v109h-213v48l207 309h79v-295h75v-62h-75v-109h-73zM620 171h132v199z" />
    <glyph glyph-name="onehalf" unicode="&#xbd;" horiz-adv-x="995" 
d="M92 275v63h84v324q-35 -15 -82 -15v63q63 1 89 29h66v-401h75v-63h-232zM230 0l443 740h78l-443 -740h-78zM608 0v21q0 55 32 103.5t119 103.5q49 32 69 55.5t20 54.5q0 33 -19.5 52.5t-55.5 19.5q-64 0 -106 -79l-55 34q57 109 163 109q67 0 106 -36.5t39 -97.5
q0 -47 -26.5 -83.5t-93.5 -76.5q-101 -63 -109 -116h232v-64h-315z" />
    <glyph glyph-name="threequarters" unicode="&#xbe;" horiz-adv-x="987" 
d="M224 267q-112 0 -171 97l51 39q45 -72 117 -72q44 0 68 21.5t24 56.5q0 43 -29 64t-96 21h-28v56h31q113 0 113 71q0 30 -19.5 47.5t-58.5 17.5q-59 0 -107 -56l-47 43q66 77 158 77q73 0 110.5 -34.5t37.5 -87.5q0 -78 -77 -105q88 -27 88 -114q0 -64 -45 -103t-120 -39
zM260 0l442 740h78l-442 -740h-78zM780 0v109h-213v48l207 309h79v-295h75v-62h-75v-109h-73zM649 171h132v199z" />
    <glyph glyph-name="questiondown" unicode="&#xbf;" horiz-adv-x="549" 
d="M250 637v103h102v-103h-102zM269 -14q-101 0 -160 50t-59 131q0 66 32 106t94 76q61 35 75.5 67t14.5 117h70q3 -31 3 -67q0 -53 -22 -88.5t-70 -64.5q-63 -38 -86.5 -65t-23.5 -76q0 -50 37 -79t101 -29q105 0 178 96l59 -49q-99 -125 -243 -125z" />
    <glyph glyph-name="Agrave" unicode="&#xc0;" horiz-adv-x="680" 
d="M32 0l262 743h92l262 -743h-91l-73 212h-294l-73 -212h-85zM217 289h240l-118 347h-2zM315 786l-142 158h105l94 -158h-57z" />
    <glyph glyph-name="Aacute" unicode="&#xc1;" horiz-adv-x="680" 
d="M32 0l262 743h92l262 -743h-91l-73 212h-294l-73 -212h-85zM217 289h240l-118 347h-2zM309 786l94 158h105l-142 -158h-57z" />
    <glyph glyph-name="Acircumflex" unicode="&#xc2;" horiz-adv-x="680" 
d="M32 0l262 743h92l262 -743h-91l-73 212h-294l-73 -212h-85zM217 289h240l-118 347h-2zM179 783l129 161h63l129 -161h-52l-109 94l-108 -94h-52z" />
    <glyph glyph-name="Atilde" unicode="&#xc3;" horiz-adv-x="680" 
d="M32 0l262 743h92l262 -743h-91l-73 212h-294l-73 -212h-85zM217 289h240l-118 347h-2zM415 781q-32 0 -80 28t-66 28q-22 0 -31.5 -12.5t-9.5 -41.5h-53q0 119 92 119q32 0 80 -28t67 -28q41 0 41 54h51q0 -119 -91 -119z" />
    <glyph glyph-name="Adieresis" unicode="&#xc4;" horiz-adv-x="680" 
d="M32 0l262 743h92l262 -743h-91l-73 212h-294l-73 -212h-85zM217 289h240l-118 347h-2zM386 784v94h89v-94h-89zM204 784v94h88v-94h-88z" />
    <glyph glyph-name="Aring" unicode="&#xc5;" horiz-adv-x="680" 
d="M394 721l254 -721h-91l-73 212h-294l-73 -212h-85l254 721q-41 26 -41 79q0 40 27 66.5t68 26.5t68 -26.5t27 -66.5q0 -53 -41 -79zM340 745q23 0 37.5 15.5t14.5 39.5q0 23 -15 38.5t-37 15.5t-37 -15.5t-15 -38.5q0 -24 14.5 -39.5t37.5 -15.5zM217 289h240l-118 347
h-2z" />
    <glyph glyph-name="AE" unicode="&#xc6;" horiz-adv-x="1010" 
d="M25 0l421 740h499v-81h-365v-231h271v-79h-271v-269h386v-80h-473v228h-250l-129 -228h-89zM287 306h206v362h-1z" />
    <glyph glyph-name="Ccedilla" unicode="&#xc7;" horiz-adv-x="705" 
d="M370 -196q-74 0 -129 36l21 33q45 -30 99 -30q69 0 69 45q0 34 -40 34q-25 0 -50 -20l-30 15l21 71q-126 14 -201 116.5t-75 268.5q0 171 87.5 276t226.5 105q217 0 274 -227l-84 -23q-25 88 -69 131.5t-122 43.5q-103 0 -163.5 -83.5t-60.5 -221.5q0 -146 61 -230
t165 -84q153 0 201 185l83 -19q-27 -111 -96.5 -174t-178.5 -66l-12 -38q23 15 56 15q30 0 50.5 -18t20.5 -50q0 -45 -35 -68t-89 -23z" />
    <glyph glyph-name="Egrave" unicode="&#xc8;" horiz-adv-x="609" 
d="M91 0v740h454v-81h-366v-231h272v-79h-272v-269h387v-80h-475zM313 786l-142 158h105l94 -158h-57z" />
    <glyph glyph-name="Eacute" unicode="&#xc9;" horiz-adv-x="609" 
d="M91 0v740h454v-81h-366v-231h272v-79h-272v-269h387v-80h-475zM266 786l94 158h105l-142 -158h-57z" />
    <glyph glyph-name="Ecircumflex" unicode="&#xca;" horiz-adv-x="609" 
d="M91 0v740h454v-81h-366v-231h272v-79h-272v-269h387v-80h-475zM157 783l129 161h63l129 -161h-52l-109 94l-108 -94h-52z" />
    <glyph glyph-name="Edieresis" unicode="&#xcb;" horiz-adv-x="609" 
d="M91 0v740h454v-81h-366v-231h272v-79h-272v-269h387v-80h-475zM369 784v94h89v-94h-89zM187 784v94h88v-94h-88z" />
    <glyph glyph-name="Igrave" unicode="&#xcc;" horiz-adv-x="290" 
d="M101 0v740h88v-740h-88zM126 786l-142 158h105l94 -158h-57z" />
    <glyph glyph-name="Iacute" unicode="&#xcd;" horiz-adv-x="290" 
d="M101 0v740h88v-740h-88zM116 786l94 158h105l-142 -158h-57z" />
    <glyph glyph-name="Icircumflex" unicode="&#xce;" horiz-adv-x="290" 
d="M101 0v740h88v-740h-88zM-16 783l129 161h63l129 -161h-52l-109 94l-108 -94h-52z" />
    <glyph glyph-name="Idieresis" unicode="&#xcf;" horiz-adv-x="290" 
d="M101 0v740h88v-740h-88zM191 784v94h89v-94h-89zM9 784v94h88v-94h-88z" />
    <glyph glyph-name="Eth" unicode="&#xd0;" horiz-adv-x="715" 
d="M91 0v352h-80v72h80v316h195q181 0 277 -92.5t96 -277.5q0 -183 -97 -276.5t-276 -93.5h-195zM179 79h118q137 0 205.5 70.5t68.5 222.5q0 147 -69.5 217t-206.5 70h-116v-235h158v-72h-158v-273z" />
    <glyph glyph-name="Ntilde" unicode="&#xd1;" 
d="M91 0v740h93l389 -585h2v585h83v-740h-79l-403 601h-2v-601h-83zM457 781q-32 0 -80 28t-66 28q-22 0 -31.5 -12.5t-9.5 -41.5h-53q0 119 92 119q32 0 80 -28t67 -28q41 0 41 54h51q0 -119 -91 -119z" />
    <glyph glyph-name="Ograve" unicode="&#xd2;" 
d="M375 -14q-140 0 -230 104.5t-90 279.5t90 279.5t230 104.5t229 -104t89 -280t-89 -280t-229 -104zM375 65q103 0 166.5 81.5t63.5 223.5t-63.5 223t-166.5 81q-104 0 -167.5 -81t-63.5 -223t63.5 -223.5t167.5 -81.5zM358 786l-142 158h105l94 -158h-57z" />
    <glyph glyph-name="Oacute" unicode="&#xd3;" 
d="M375 -14q-140 0 -230 104.5t-90 279.5t90 279.5t230 104.5t229 -104t89 -280t-89 -280t-229 -104zM375 65q103 0 166.5 81.5t63.5 223.5t-63.5 223t-166.5 81q-104 0 -167.5 -81t-63.5 -223t63.5 -223.5t167.5 -81.5zM330 786l94 158h105l-142 -158h-57z" />
    <glyph glyph-name="Ocircumflex" unicode="&#xd4;" 
d="M375 -14q-140 0 -230 104.5t-90 279.5t90 279.5t230 104.5t229 -104t89 -280t-89 -280t-229 -104zM375 65q103 0 166.5 81.5t63.5 223.5t-63.5 223t-166.5 81q-104 0 -167.5 -81t-63.5 -223t63.5 -223.5t167.5 -81.5zM213 783l129 161h63l129 -161h-52l-109 94l-108 -94
h-52z" />
    <glyph glyph-name="Otilde" unicode="&#xd5;" 
d="M375 -14q-140 0 -230 104.5t-90 279.5t90 279.5t230 104.5t229 -104t89 -280t-89 -280t-229 -104zM375 65q103 0 166.5 81.5t63.5 223.5t-63.5 223t-166.5 81q-104 0 -167.5 -81t-63.5 -223t63.5 -223.5t167.5 -81.5zM448 781q-32 0 -80 28t-66 28q-22 0 -31.5 -12.5
t-9.5 -41.5h-53q0 119 92 119q32 0 80 -28t67 -28q41 0 41 54h51q0 -119 -91 -119z" />
    <glyph glyph-name="Odieresis" unicode="&#xd6;" 
d="M375 -14q-140 0 -230 104.5t-90 279.5t90 279.5t230 104.5t229 -104t89 -280t-89 -280t-229 -104zM375 65q103 0 166.5 81.5t63.5 223.5t-63.5 223t-166.5 81q-104 0 -167.5 -81t-63.5 -223t63.5 -223.5t167.5 -81.5zM420 784v94h89v-94h-89zM238 784v94h88v-94h-88z" />
    <glyph glyph-name="multiply" unicode="&#xd7;" horiz-adv-x="638" 
d="M149 97l-51 52l169 169l-169 169l51 51l169 -170l169 170l51 -51l-169 -169l170 -169l-51 -51l-169 170z" />
    <glyph glyph-name="Oslash" unicode="&#xd8;" 
d="M618 632q75 -104 75 -262q0 -176 -89 -280t-229 -104q-118 0 -203 76l-65 -82l-49 36l73 92q-76 103 -76 262q0 175 90 279.5t230 104.5q119 0 201 -76l66 82l48 -36zM187 174l339 438q-59 64 -151 64q-104 0 -168.5 -82t-64.5 -224q0 -118 45 -196zM561 565l-340 -437
q62 -65 154 -65q103 0 167 82.5t64 224.5q0 117 -45 195z" />
    <glyph glyph-name="Ugrave" unicode="&#xd9;" horiz-adv-x="717" 
d="M359 -13q-137 0 -206 74t-69 195v484h88v-472q0 -93 46.5 -147.5t141.5 -54.5q94 0 140 53t46 147v474h87v-482q0 -121 -71 -196t-203 -75zM348 786l-142 158h105l94 -158h-57z" />
    <glyph glyph-name="Uacute" unicode="&#xda;" horiz-adv-x="717" 
d="M359 -13q-137 0 -206 74t-69 195v484h88v-472q0 -93 46.5 -147.5t141.5 -54.5q94 0 140 53t46 147v474h87v-482q0 -121 -71 -196t-203 -75zM305 786l94 158h105l-142 -158h-57z" />
    <glyph glyph-name="Ucircumflex" unicode="&#xdb;" horiz-adv-x="717" 
d="M359 -13q-137 0 -206 74t-69 195v484h88v-472q0 -93 46.5 -147.5t141.5 -54.5q94 0 140 53t46 147v474h87v-482q0 -121 -71 -196t-203 -75zM197 783l129 161h63l129 -161h-52l-109 94l-108 -94h-52z" />
    <glyph glyph-name="Udieresis" unicode="&#xdc;" horiz-adv-x="717" 
d="M359 -13q-137 0 -206 74t-69 195v484h88v-472q0 -93 46.5 -147.5t141.5 -54.5q94 0 140 53t46 147v474h87v-482q0 -121 -71 -196t-203 -75zM404 784v94h89v-94h-89zM222 784v94h88v-94h-88z" />
    <glyph glyph-name="Yacute" unicode="&#xdd;" horiz-adv-x="631" 
d="M271 0v324l-249 416h94l201 -341l200 341h92l-250 -416v-324h-88zM233 794l94 158h105l-142 -158h-57z" />
    <glyph glyph-name="Thorn" unicode="&#xde;" horiz-adv-x="653" 
d="M91 0v740h88v-135h162q125 -1 196.5 -53t71.5 -158q0 -113 -75 -166t-199 -53h-156v-175h-88zM179 255h160q91 0 136 31.5t45 104.5q0 70 -45 101t-137 31h-159v-268z" />
    <glyph glyph-name="germandbls" unicode="&#xdf;" horiz-adv-x="626" 
d="M382 -11q-104 0 -159 60l47 52q46 -43 111 -43q54 0 86.5 39.5t32.5 105.5q0 87 -58.5 126t-173.5 44v65q84 1 124 34t40 88q0 51 -35 79t-97 28q-138 0 -138 -153v-514h-86v510q0 111 60.5 170.5t165.5 59.5q98 0 155 -46t57 -129q0 -57 -34.5 -97t-94.5 -57
q86 -12 141 -61.5t55 -142.5q0 -100 -53.5 -159t-145.5 -59z" />
    <glyph glyph-name="agrave" unicode="&#xe0;" horiz-adv-x="553" 
d="M193 -8q-69 0 -109 35t-40 98q0 84 82 138.5t271 81.5v24q0 98 -100 98q-99 0 -191 -80l-45 54q107 98 245 98q176 0 176 -176v-233q0 -93 15 -130h-88q-12 38 -12 73q-87 -81 -204 -81zM218 60q100 0 179 77v148q-145 -23 -206.5 -59t-61.5 -88q0 -38 23.5 -58t65.5 -20
zM276 585l-142 158h105l94 -158h-57z" />
    <glyph glyph-name="aacute" unicode="&#xe1;" horiz-adv-x="553" 
d="M193 -8q-69 0 -109 35t-40 98q0 84 82 138.5t271 81.5v24q0 98 -100 98q-99 0 -191 -80l-45 54q107 98 245 98q176 0 176 -176v-233q0 -93 15 -130h-88q-12 38 -12 73q-87 -81 -204 -81zM218 60q100 0 179 77v148q-145 -23 -206.5 -59t-61.5 -88q0 -38 23.5 -58t65.5 -20
zM237 585l94 158h105l-142 -158h-57z" />
    <glyph glyph-name="acircumflex" unicode="&#xe2;" horiz-adv-x="553" 
d="M193 -8q-69 0 -109 35t-40 98q0 84 82 138.5t271 81.5v24q0 98 -100 98q-99 0 -191 -80l-45 54q107 98 245 98q176 0 176 -176v-233q0 -93 15 -130h-88q-12 38 -12 73q-87 -81 -204 -81zM218 60q100 0 179 77v148q-145 -23 -206.5 -59t-61.5 -88q0 -38 23.5 -58t65.5 -20
zM122 582l129 161h63l129 -161h-52l-109 94l-108 -94h-52z" />
    <glyph glyph-name="atilde" unicode="&#xe3;" horiz-adv-x="553" 
d="M193 -8q-69 0 -109 35t-40 98q0 84 82 138.5t271 81.5v24q0 98 -100 98q-99 0 -191 -80l-45 54q107 98 245 98q176 0 176 -176v-233q0 -93 15 -130h-88q-12 38 -12 73q-87 -81 -204 -81zM218 60q100 0 179 77v148q-145 -23 -206.5 -59t-61.5 -88q0 -38 23.5 -58t65.5 -20
zM355 580q-32 0 -80 28t-66 28q-22 0 -31.5 -12.5t-9.5 -41.5h-53q0 119 92 119q32 0 80 -28t67 -28q41 0 41 54h51q0 -119 -91 -119z" />
    <glyph glyph-name="adieresis" unicode="&#xe4;" horiz-adv-x="553" 
d="M193 -8q-69 0 -109 35t-40 98q0 84 82 138.5t271 81.5v24q0 98 -100 98q-99 0 -191 -80l-45 54q107 98 245 98q176 0 176 -176v-233q0 -93 15 -130h-88q-12 38 -12 73q-87 -81 -204 -81zM218 60q100 0 179 77v148q-145 -23 -206.5 -59t-61.5 -88q0 -38 23.5 -58t65.5 -20
zM334 583v94h89v-94h-89zM152 583v94h88v-94h-88z" />
    <glyph glyph-name="aring" unicode="&#xe5;" horiz-adv-x="553" 
d="M193 -8q-69 0 -109 35t-40 98q0 84 82 138.5t271 81.5v24q0 98 -100 98q-99 0 -191 -80l-45 54q107 98 245 98q176 0 176 -176v-233q0 -93 15 -130h-88q-12 38 -12 73q-87 -81 -204 -81zM218 60q100 0 179 77v148q-145 -23 -206.5 -59t-61.5 -88q0 -38 23.5 -58t65.5 -20
zM289 577q-41 0 -68 27t-27 68q0 40 27 66.5t68 26.5t68 -26.5t27 -66.5q0 -41 -27 -68t-68 -27zM289 617q23 0 37.5 15.5t14.5 39.5q0 23 -15 38.5t-37 15.5t-37 -15.5t-15 -38.5q0 -24 14.5 -39.5t37.5 -15.5z" />
    <glyph glyph-name="ae" unicode="&#xe6;" horiz-adv-x="894" 
d="M192 -11q-69 0 -109 35t-40 98q0 85 82 140.5t271 82.5v24q0 98 -100 98q-99 0 -191 -80l-44 54q107 98 244 98q123 0 150 -101q26 44 72 72.5t100 28.5q96 0 158 -71t62 -208v-15h-372q2 -89 46.5 -137.5t112.5 -48.5q54 0 90 21t68 65l50 -44q-78 -112 -215 -112
q-135 0 -196 112q-107 -112 -239 -112zM477 309h288q-5 73 -40.5 115.5t-98.5 42.5q-57 0 -98.5 -40t-50.5 -118zM217 58q104 0 193 93q-15 44 -15 100q0 29 1 36q-144 -24 -206 -61.5t-62 -90.5q0 -37 23.5 -57t65.5 -20z" />
    <glyph glyph-name="ccedilla" unicode="&#xe7;" horiz-adv-x="536" 
d="M281 -196q-74 0 -129 36l21 33q45 -30 99 -30q69 0 69 45q0 34 -40 34q-25 0 -50 -20l-30 15l22 76q-85 13 -141 83.5t-56 187.5q0 135 72 205t170 70q146 0 207 -148l-73 -30q-22 56 -54 83t-82 27q-64 0 -108.5 -51.5t-44.5 -155.5q0 -96 41.5 -152.5t109.5 -56.5
q50 0 83 26.5t59 85.5l71 -28q-67 -144 -206 -149l-13 -42q23 15 56 15q30 0 50.5 -18t20.5 -50q0 -45 -35 -68t-89 -23z" />
    <glyph glyph-name="egrave" unicode="&#xe8;" horiz-adv-x="552" 
d="M285 -11q-100 0 -169.5 72t-69.5 203q0 69 21.5 123.5t56.5 86.5t76.5 48.5t84.5 16.5q99 0 159.5 -70.5t60.5 -208.5v-18h-373q2 -86 46.5 -134.5t112.5 -48.5q54 0 90.5 21t68.5 65l50 -44q-78 -112 -215 -112zM134 309h289q-5 73 -40.5 115.5t-98.5 42.5
q-57 0 -99 -40t-51 -118zM264 585l-142 158h105l94 -158h-57z" />
    <glyph glyph-name="eacute" unicode="&#xe9;" horiz-adv-x="552" 
d="M285 -11q-100 0 -169.5 72t-69.5 203q0 69 21.5 123.5t56.5 86.5t76.5 48.5t84.5 16.5q99 0 159.5 -70.5t60.5 -208.5v-18h-373q2 -86 46.5 -134.5t112.5 -48.5q54 0 90.5 21t68.5 65l50 -44q-78 -112 -215 -112zM134 309h289q-5 73 -40.5 115.5t-98.5 42.5
q-57 0 -99 -40t-51 -118zM239 585l94 158h105l-142 -158h-57z" />
    <glyph glyph-name="ecircumflex" unicode="&#xea;" horiz-adv-x="552" 
d="M285 -11q-100 0 -169.5 72t-69.5 203q0 69 21.5 123.5t56.5 86.5t76.5 48.5t84.5 16.5q99 0 159.5 -70.5t60.5 -208.5v-18h-373q2 -86 46.5 -134.5t112.5 -48.5q54 0 90.5 21t68.5 65l50 -44q-78 -112 -215 -112zM134 309h289q-5 73 -40.5 115.5t-98.5 42.5
q-57 0 -99 -40t-51 -118zM122 582l129 161h63l129 -161h-52l-109 94l-108 -94h-52z" />
    <glyph glyph-name="edieresis" unicode="&#xeb;" horiz-adv-x="552" 
d="M285 -11q-100 0 -169.5 72t-69.5 203q0 69 21.5 123.5t56.5 86.5t76.5 48.5t84.5 16.5q99 0 159.5 -70.5t60.5 -208.5v-18h-373q2 -86 46.5 -134.5t112.5 -48.5q54 0 90.5 21t68.5 65l50 -44q-78 -112 -215 -112zM134 309h289q-5 73 -40.5 115.5t-98.5 42.5
q-57 0 -99 -40t-51 -118zM325 583v94h89v-94h-89zM143 583v94h88v-94h-88z" />
    <glyph glyph-name="igrave" unicode="&#xec;" horiz-adv-x="250" 
d="M82 0v528h86v-528h-86zM106 585l-142 158h105l94 -158h-57z" />
    <glyph glyph-name="iacute" unicode="&#xed;" horiz-adv-x="250" 
d="M82 0v528h86v-528h-86zM100 585l94 158h105l-142 -158h-57z" />
    <glyph glyph-name="icircumflex" unicode="&#xee;" horiz-adv-x="250" 
d="M82 0v528h86v-528h-86zM-36 582l129 161h63l129 -161h-52l-109 94l-108 -94h-52z" />
    <glyph glyph-name="idieresis" unicode="&#xef;" horiz-adv-x="250" 
d="M82 0v528h86v-528h-86zM171 583v94h89v-94h-89zM-11 583v94h88v-94h-88z" />
    <glyph glyph-name="eth" unicode="&#xf0;" horiz-adv-x="583" 
d="M292 -11q-107 0 -176 72t-69 193q0 122 65.5 190.5t165.5 68.5q47 0 91.5 -23.5t71.5 -63.5q-25 102 -84 169l-103 -40l-26 54l86 33q-27 26 -74 56l42 53q59 -34 102 -75l97 39l25 -55l-80 -33q110 -137 110 -364q0 -125 -69 -199.5t-175 -74.5zM292 60q73 0 115.5 53.5
t42.5 142.5q0 84 -42.5 136.5t-115.5 52.5q-74 0 -116.5 -51t-42.5 -139q0 -86 42 -140.5t117 -54.5z" />
    <glyph glyph-name="ntilde" unicode="&#xf1;" horiz-adv-x="588" 
d="M76 0v528h87v-79q92 90 198 90q75 0 115.5 -41.5t40.5 -116.5v-381h-86v362q0 53 -23.5 78t-73.5 25q-81 0 -171 -85v-380h-87zM375 580q-32 0 -80 28t-66 28q-22 0 -31.5 -12.5t-9.5 -41.5h-53q0 119 92 119q32 0 80 -28t67 -28q41 0 41 54h51q0 -119 -91 -119z" />
    <glyph glyph-name="ograve" unicode="&#xf2;" horiz-adv-x="583" 
d="M292 -11q-103 0 -174.5 72.5t-71.5 202.5t71 202.5t175 72.5q103 0 174 -72.5t71 -202.5t-71 -202.5t-174 -72.5zM292 62q74 0 116 55t42 147q0 87 -41 144t-117 57q-75 0 -117 -55t-42 -146q0 -89 41 -145.5t118 -56.5zM276 585l-142 158h105l94 -158h-57z" />
    <glyph glyph-name="oacute" unicode="&#xf3;" horiz-adv-x="583" 
d="M292 -11q-103 0 -174.5 72.5t-71.5 202.5t71 202.5t175 72.5q103 0 174 -72.5t71 -202.5t-71 -202.5t-174 -72.5zM292 62q74 0 116 55t42 147q0 87 -41 144t-117 57q-75 0 -117 -55t-42 -146q0 -89 41 -145.5t118 -56.5zM248 585l94 158h105l-142 -158h-57z" />
    <glyph glyph-name="ocircumflex" unicode="&#xf4;" horiz-adv-x="583" 
d="M292 -11q-103 0 -174.5 72.5t-71.5 202.5t71 202.5t175 72.5q103 0 174 -72.5t71 -202.5t-71 -202.5t-174 -72.5zM292 62q74 0 116 55t42 147q0 87 -41 144t-117 57q-75 0 -117 -55t-42 -146q0 -89 41 -145.5t118 -56.5zM131 582l129 161h63l129 -161h-52l-109 94
l-108 -94h-52z" />
    <glyph glyph-name="otilde" unicode="&#xf5;" horiz-adv-x="583" 
d="M292 -11q-103 0 -174.5 72.5t-71.5 202.5t71 202.5t175 72.5q103 0 174 -72.5t71 -202.5t-71 -202.5t-174 -72.5zM292 62q74 0 116 55t42 147q0 87 -41 144t-117 57q-75 0 -117 -55t-42 -146q0 -89 41 -145.5t118 -56.5zM367 580q-32 0 -80 28t-66 28q-22 0 -31.5 -12.5
t-9.5 -41.5h-53q0 119 92 119q32 0 80 -28t67 -28q41 0 41 54h51q0 -119 -91 -119z" />
    <glyph glyph-name="odieresis" unicode="&#xf6;" horiz-adv-x="583" 
d="M292 -11q-103 0 -174.5 72.5t-71.5 202.5t71 202.5t175 72.5q103 0 174 -72.5t71 -202.5t-71 -202.5t-174 -72.5zM292 62q74 0 116 55t42 147q0 87 -41 144t-117 57q-75 0 -117 -55t-42 -146q0 -89 41 -145.5t118 -56.5zM337 583v94h89v-94h-89zM155 583v94h88v-94h-88z
" />
    <glyph glyph-name="divide" unicode="&#xf7;" horiz-adv-x="638" 
d="M270 467v92h94v-92h-94zM66 297v72h507v-72h-507zM270 106v92h94v-92h-94z" />
    <glyph glyph-name="oslash" unicode="&#xf8;" horiz-adv-x="583" 
d="M475 457q62 -75 62 -193q0 -130 -71 -202.5t-174 -72.5q-80 0 -141 44l-54 -68l-42 36l55 69q-64 75 -64 194q0 130 71 202.5t175 72.5q80 0 142 -44l52 66l43 -36zM162 132l226 301q-40 35 -96 35q-75 0 -118 -56.5t-43 -147.5q0 -77 31 -132zM422 392l-227 -300
q40 -34 97 -34q75 0 117.5 57t42.5 149q0 76 -30 128z" />
    <glyph glyph-name="ugrave" unicode="&#xf9;" horiz-adv-x="588" 
d="M227 -10q-75 0 -115.5 41t-40.5 116v381h86v-363q0 -53 23.5 -78t73.5 -25q81 0 171 85v381h87v-528h-87v79q-91 -89 -198 -89zM280 585l-142 158h105l94 -158h-57z" />
    <glyph glyph-name="uacute" unicode="&#xfa;" horiz-adv-x="588" 
d="M227 -10q-75 0 -115.5 41t-40.5 116v381h86v-363q0 -53 23.5 -78t73.5 -25q81 0 171 85v381h87v-528h-87v79q-91 -89 -198 -89zM247 585l94 158h105l-142 -158h-57z" />
    <glyph glyph-name="ucircumflex" unicode="&#xfb;" horiz-adv-x="588" 
d="M227 -10q-75 0 -115.5 41t-40.5 116v381h86v-363q0 -53 23.5 -78t73.5 -25q81 0 171 85v381h87v-528h-87v79q-91 -89 -198 -89zM131 582l129 161h63l129 -161h-52l-109 94l-108 -94h-52z" />
    <glyph glyph-name="udieresis" unicode="&#xfc;" horiz-adv-x="588" 
d="M227 -10q-75 0 -115.5 41t-40.5 116v381h86v-363q0 -53 23.5 -78t73.5 -25q81 0 171 85v381h87v-528h-87v79q-91 -89 -198 -89zM339 583v94h89v-94h-89zM157 583v94h88v-94h-88z" />
    <glyph glyph-name="yacute" unicode="&#xfd;" horiz-adv-x="533" 
d="M106 -203q-56 0 -99 13l20 69q34 -9 78 -9q40 0 62.5 17.5t38.5 57.5l20 52l-204 531h91l155 -427h2l155 427h87l-226 -588q-29 -75 -68 -109t-112 -34zM184 585l94 158h105l-142 -158h-57z" />
    <glyph glyph-name="thorn" unicode="&#xfe;" horiz-adv-x="599" 
d="M76 -200v940h86v-285q76 84 174 84q95 0 155 -70.5t60 -203.5t-61.5 -203t-162.5 -70q-92 0 -165 76v-268h-86zM315 62q71 0 110.5 50t39.5 152q0 98 -41 149.5t-108 51.5q-80 0 -154 -81v-242q71 -80 153 -80z" />
    <glyph glyph-name="ydieresis" unicode="&#xff;" horiz-adv-x="533" 
d="M106 -203q-56 0 -99 13l20 69q34 -9 78 -9q40 0 62.5 17.5t38.5 57.5l20 52l-204 531h91l155 -427h2l155 427h87l-226 -588q-29 -75 -68 -109t-112 -34zM315 583v94h89v-94h-89zM133 583v94h88v-94h-88z" />
    <glyph glyph-name="dotlessi" unicode="&#x131;" horiz-adv-x="250" 
d="M82 0v528h86v-528h-86z" />
    <glyph glyph-name="Lslash" unicode="&#x141;" horiz-adv-x="569" 
d="M92 0v342l-85 -22v71l85 23v326h88v-303l155 42v-72l-155 -41v-286h355v-80h-443z" />
    <glyph glyph-name="lslash" unicode="&#x142;" horiz-adv-x="304" 
d="M109 0v337l-88 -23v67l88 24v335h86v-313l90 24v-67l-90 -24v-360h-86z" />
    <glyph glyph-name="OE" unicode="&#x152;" horiz-adv-x="1121" 
d="M375 -14q-138 0 -229 105t-91 279t91 279t229 105q78 0 138.5 -37.5t96.5 -103.5v127h447v-81h-366v-231h272v-79h-272v-269h386v-80h-467v129q-36 -66 -96.5 -104.5t-138.5 -38.5zM375 65q102 0 165.5 81.5t63.5 223.5t-63 223t-166 81q-104 0 -168 -81t-64 -223
t64 -223.5t168 -81.5z" />
    <glyph glyph-name="oe" unicode="&#x153;" horiz-adv-x="947" 
d="M290 -11q-103 0 -173.5 72.5t-70.5 202.5t70.5 202.5t173.5 72.5q67 0 119.5 -35t79.5 -95q24 57 77 93.5t115 36.5q96 0 158 -71t62 -208v-15h-371q1 -89 45 -137.5t113 -48.5q54 0 89.5 21t67.5 65l51 -44q-78 -112 -215 -112q-63 0 -117 35t-77 92
q-28 -58 -79.5 -92.5t-117.5 -34.5zM531 309h288q-5 73 -40.5 115.5t-98.5 42.5q-57 0 -98.5 -40t-50.5 -118zM290 61q74 0 115.5 55t41.5 148q0 87 -40.5 144t-116.5 57q-74 0 -115.5 -55t-41.5 -146q0 -89 40 -146t117 -57z" />
    <glyph glyph-name="Scaron" unicode="&#x160;" horiz-adv-x="657" 
d="M334 -14q-104 0 -177 52t-103 141l74 33q55 -148 210 -148q79 0 126 32t47 90q0 55 -39 88t-147 67q-131 40 -188.5 84t-57.5 133q0 85 66.5 140.5t171.5 55.5q100 0 165 -45t96 -121l-70 -39q-56 125 -192 125q-69 0 -109.5 -30.5t-40.5 -78.5q0 -57 40 -86t155 -65
q123 -38 180 -85.5t57 -136.5q0 -92 -73 -149t-191 -57zM296 795l-129 161h53l108 -94l108 94h52l-129 -161h-63z" />
    <glyph glyph-name="scaron" unicode="&#x161;" horiz-adv-x="512" 
d="M254 -10q-69 0 -125.5 24.5t-90.5 65.5l52 52q68 -73 165 -73q127 0 127 83q0 38 -31.5 57.5t-104.5 36.5q-97 23 -143 56t-46 103q0 62 50.5 103t134.5 41q121 0 202 -76l-45 -57q-68 63 -153 63q-54 0 -80.5 -20t-26.5 -51q0 -35 29 -53t96 -33q52 -13 83 -23.5
t61 -29.5t43.5 -46.5t13.5 -67.5q0 -74 -59 -114.5t-152 -40.5zM224 586l-129 161h53l108 -94l108 94h52l-129 -161h-63z" />
    <glyph glyph-name="Ydieresis" unicode="&#x178;" horiz-adv-x="631" 
d="M271 0v324l-249 416h94l201 -341l200 341h92l-250 -416v-324h-88zM362 784v94h89v-94h-89zM180 784v94h88v-94h-88z" />
    <glyph glyph-name="Zcaron" unicode="&#x17d;" horiz-adv-x="630" 
d="M40 0v62l433 604h-405v74h513v-64l-430 -603h430v-73h-541zM285 795l-129 161h53l108 -94l108 94h52l-129 -161h-63z" />
    <glyph glyph-name="zcaron" unicode="&#x17e;" horiz-adv-x="510" 
d="M39 0v52l309 406h-285v70h393v-54l-310 -405h325v-69h-432zM224 586l-129 161h53l108 -94l108 94h52l-129 -161h-63z" />
    <glyph glyph-name="florin" unicode="&#x192;" horiz-adv-x="349" 
d="M-94 -198l9 65q14 -2 36 -2q86 0 96 79l64 465h-92l9 67h92l16 123q19 143 178 143q9 0 27.5 -1.5t22.5 -1.5l-10 -67q-14 2 -36 2q-87 0 -96 -74l-16 -124h116l-9 -67h-116l-65 -473q-19 -137 -177 -137q-25 0 -49 3z" />
    <glyph glyph-name="circumflex" unicode="&#x2c6;" horiz-adv-x="518" 
d="M98 582l129 161h63l129 -161h-52l-109 94l-108 -94h-52z" />
    <glyph glyph-name="caron" unicode="&#x2c7;" horiz-adv-x="518" 
d="M227 586l-129 161h53l108 -94l108 94h52l-129 -161h-63z" />
    <glyph glyph-name="breve" unicode="&#x2d8;" horiz-adv-x="500" 
d="M250 579q-69 0 -110 45.5t-45 122.5h52q12 -104 103 -104t103 104h52q-4 -77 -45 -122.5t-110 -45.5z" />
    <glyph glyph-name="dotaccent" unicode="&#x2d9;" horiz-adv-x="500" 
d="M200 589v90h100v-90h-100z" />
    <glyph glyph-name="ring" unicode="&#x2da;" horiz-adv-x="540" 
d="M270 577q-41 0 -68 27t-27 68q0 40 27 66.5t68 26.5t68 -26.5t27 -66.5q0 -41 -27 -68t-68 -27zM270 617q23 0 37.5 15.5t14.5 39.5q0 23 -15 38.5t-37 15.5t-37 -15.5t-15 -38.5q0 -24 14.5 -39.5t37.5 -15.5z" />
    <glyph glyph-name="ogonek" unicode="&#x2db;" horiz-adv-x="500" 
d="M253 -187q-46 0 -71.5 20.5t-25.5 56.5q0 58 82 110h54q-69 -48 -69 -96q0 -47 51 -47q41 0 93 25l18 -31q-71 -38 -132 -38z" />
    <glyph glyph-name="tilde" unicode="&#x2dc;" horiz-adv-x="508" 
d="M328 580q-32 0 -80 28t-66 28q-22 0 -31.5 -12.5t-9.5 -41.5h-53q0 119 92 119q32 0 80 -28t67 -28q41 0 41 54h51q0 -119 -91 -119z" />
    <glyph glyph-name="hungarumlaut" unicode="&#x2dd;" horiz-adv-x="509" 
d="M242 585l100 158h106l-147 -158h-59zM76 585l97 158h106l-145 -158h-58z" />
    <glyph glyph-name="Delta" unicode="&#x394;" horiz-adv-x="589" 
d="M415 638v87h88v-87h-88zM117 0v457h-92v71h92v71q0 68 38 105.5t114 37.5q9 0 26.5 -1.5t21.5 -1.5v-70q-9 2 -35 2q-79 0 -79 -74v-69h110v-71h-110v-457h-86zM380 -201q-24 0 -52 4v65q16 -4 35 -4q53 0 53 61v603h86v-609q0 -58 -28 -89t-94 -31z" />
    <glyph glyph-name="Omega" unicode="&#x3a9;" horiz-adv-x="760" 
d="M180 170l-27 -2v72l31 -2l6 100l-180 -15v93l180 -15l-6 102l-31 -2v72l27 -2l-2 26h72l-2 -30l101 -7l-15 180h93l-15 -180l101 7l-2 30h72l-2 -26l27 2v-72l-31 2l-7 -102l180 15v-93l-180 15l7 -100l31 2v-72l-27 2l2 -28h-72l2 32l-101 6l15 -180h-93l15 180l-101 -6
l2 -32h-72zM516 506l-104 6v-111h110zM349 401v111l-105 -6l-6 -105h111zM412 338v-110l104 6l6 104h-110zM244 234l105 -6v110h-111z" />
    <glyph glyph-name="mu" unicode="&#x3bc;" horiz-adv-x="593" 
d="M76 -200v728h86v-363q0 -104 98 -104q79 0 171 85v382h86v-528h-86v85q-89 -87 -177 -92q-64 -2 -92 29v-222h-86z" />
    <glyph glyph-name="pi" unicode="&#x3c0;" horiz-adv-x="864" 
d="M432 -14q-161 0 -271.5 111.5t-110.5 271.5q0 161 111 273t272 112q160 0 270.5 -111.5t110.5 -271.5q0 -161 -111 -273t-271 -112zM433 32q139 0 235 98t96 239t-96.5 240t-235.5 99q-140 0 -236 -98t-96 -239t96.5 -240t236.5 -99zM303 161v421h148q151 0 151 -119
q0 -63 -41 -94t-115 -31h-84v-177h-59zM362 389h87q94 0 94 71q0 70 -95 70h-86v-141z" />
    <glyph glyph-name="endash" unicode="&#x2013;" horiz-adv-x="645" 
d="M65 275v76h515v-76h-515z" />
    <glyph glyph-name="emdash" unicode="&#x2014;" horiz-adv-x="928" 
d="M65 275v76h798v-76h-798z" />
    <glyph glyph-name="quoteleft" unicode="&#x2018;" horiz-adv-x="271" 
d="M85 530v97l52 113h40l-28 -105h36v-105h-100z" />
    <glyph glyph-name="quoteright" unicode="&#x2019;" horiz-adv-x="271" 
d="M94 530l27 105h-36v105h100v-97l-51 -113h-40z" />
    <glyph glyph-name="quotesinglbase" unicode="&#x201a;" horiz-adv-x="271" 
d="M94 -105l27 105h-36v105h100v-96l-51 -114h-40z" />
    <glyph glyph-name="quotedblleft" unicode="&#x201c;" horiz-adv-x="465" 
d="M280 530v97l52 113h39l-27 -105h36v-105h-100zM85 530v97l52 113h40l-28 -105h36v-105h-100z" />
    <glyph glyph-name="quotedblright" unicode="&#x201d;" horiz-adv-x="465" 
d="M289 530l27 105h-36v105h100v-97l-52 -113h-39zM94 530l27 105h-36v105h100v-97l-51 -113h-40z" />
    <glyph glyph-name="quotedblbase" unicode="&#x201e;" horiz-adv-x="465" 
d="M289 -105l27 105h-36v105h100v-96l-52 -114h-39zM94 -105l27 105h-36v105h100v-96l-51 -114h-40z" />
    <glyph glyph-name="dagger" unicode="&#x2020;" horiz-adv-x="566" 
d="M236 -200l15 613l-206 -11v82l206 -13l-15 269h93l-15 -269l206 13v-82l-206 11l15 -613h-93z" />
    <glyph glyph-name="daggerdbl" unicode="&#x2021;" horiz-adv-x="566" 
d="M236 -200l15 233l-196 -13v80l196 -12l-11 184l11 180l-196 -11v79l196 -12l-15 232h93l-15 -232l196 12v-79l-196 11l11 -180l-11 -184l196 12v-80l-196 13l15 -233h-93z" />
    <glyph glyph-name="bullet" unicode="&#x2022;" horiz-adv-x="463" 
d="M231 229q-53 0 -87 34.5t-34 86.5q0 53 34 87.5t87 34.5t87.5 -34.5t34.5 -87.5t-34.5 -87t-87.5 -34z" />
    <glyph glyph-name="ellipsis" unicode="&#x2026;" horiz-adv-x="812" 
d="M625 0v105h103v-105h-103zM354 0v105h103v-105h-103zM84 0v105h103v-105h-103z" />
    <glyph glyph-name="perthousand" unicode="&#x2030;" horiz-adv-x="1411" 
d="M231 299q-82 0 -127.5 61t-45.5 163q0 104 47 166t127 62q79 0 125 -61t46 -164q0 -102 -46 -164.5t-126 -62.5zM238 0l442 740h78l-442 -740h-78zM1180 -10q-81 0 -126.5 61.5t-45.5 162.5q0 104 47 166t126 62t125 -61t46 -164q0 -101 -46 -164t-126 -63zM764 -10
q-81 0 -126.5 61.5t-45.5 162.5q0 104 47 166t127 62q79 0 125 -61t46 -164q0 -101 -46.5 -164t-126.5 -63zM232 365q45 0 70 44t25 115q0 75 -25 118t-71 43q-47 0 -71.5 -43.5t-24.5 -115.5q0 -75 25 -118t72 -43zM1180 55q46 0 71 44.5t25 116.5q0 75 -25 117.5t-71 42.5
q-47 0 -72 -44t-25 -115q0 -75 25.5 -118.5t71.5 -43.5zM765 55q46 0 71 44.5t25 116.5q0 75 -25 117.5t-72 42.5t-71.5 -43.5t-24.5 -115.5q0 -75 25 -118.5t72 -43.5z" />
    <glyph glyph-name="guilsinglleft" unicode="&#x2039;" horiz-adv-x="333" 
d="M192 0l-151 265l151 263h87l-147 -263l147 -265h-87z" />
    <glyph glyph-name="guilsinglright" unicode="&#x203a;" horiz-adv-x="333" 
d="M53 0l148 265l-148 263h87l152 -263l-152 -265h-87z" />
    <glyph glyph-name="fraction" unicode="&#x2044;" horiz-adv-x="480" 
d="M-16 0l434 740h78l-433 -740h-79z" />
    <glyph glyph-name="Euro" unicode="&#x20ac;" horiz-adv-x="721" 
d="M138 411h-117v65h124q21 137 96 207.5t178 70.5q99 0 156.5 -54.5t84.5 -154.5l-79 -25q-24 83 -58 120t-104 37q-72 0 -122 -50.5t-67 -150.5h214v-65h-221q-1 -11 -1 -35q0 -9 0.5 -26t0.5 -25h221v-66h-213q33 -197 190 -197q69 0 108.5 40.5t61.5 126.5l79 -23
q-60 -220 -250 -220q-106 0 -179 69t-95 204h-125v66h117q-1 16 -1 48q0 26 1 38z" />
    <glyph glyph-name="trademark" unicode="&#x2122;" horiz-adv-x="885" 
d="M422 317v423h84l118 -340l119 340h84v-423h-63v322l-115 -322h-53l-115 321v-321h-59zM158 317v368h-128v55h321v-55h-129v-368h-64z" />
    <glyph glyph-name="partialdiff" unicode="&#x2202;" horiz-adv-x="760" 
d="M180 170l-27 -2v72l31 -2l6 100l-180 -15v93l180 -15l-6 102l-31 -2v72l27 -2l-2 26h72l-2 -30l101 -7l-15 180h93l-15 -180l101 7l-2 30h72l-2 -26l27 2v-72l-31 2l-7 -102l180 15v-93l-180 15l7 -100l31 2v-72l-27 2l2 -28h-72l2 32l-101 6l15 -180h-93l15 180l-101 -6
l2 -32h-72zM516 506l-104 6v-111h110zM349 401v111l-105 -6l-6 -105h111zM412 338v-110l104 6l6 104h-110zM244 234l105 -6v110h-111z" />
    <glyph glyph-name="product" unicode="&#x220f;" horiz-adv-x="543" 
d="M271 291q-97 0 -164 67.5t-67 164.5q0 98 67.5 165.5t164.5 67.5t164 -67t67 -164q0 -98 -67.5 -166t-164.5 -68zM272 324q82 0 139.5 58t57.5 141q0 84 -57.5 142.5t-140.5 58.5q-82 0 -139 -58t-57 -141q0 -84 57 -142.5t140 -58.5zM185 400v257h91q44 0 68 -19.5
t24 -55.5q0 -57 -53 -71l60 -111l-44 1l-57 105h-48v-106h-41zM226 539h48q55 0 55 42q0 39 -56 39h-47v-81z" />
    <glyph glyph-name="summation" unicode="&#x2211;" horiz-adv-x="760" 
d="M180 170l-27 -2v72l31 -2l6 100l-180 -15v93l180 -15l-6 102l-31 -2v72l27 -2l-2 26h72l-2 -30l101 -7l-15 180h93l-15 -180l101 7l-2 30h72l-2 -26l27 2v-72l-31 2l-7 -102l180 15v-93l-180 15l7 -100l31 2v-72l-27 2l2 -28h-72l2 32l-101 6l15 -180h-93l15 180l-101 -6
l2 -32h-72zM516 506l-104 6v-111h110zM349 401v111l-105 -6l-6 -105h111zM412 338v-110l104 6l6 104h-110zM244 234l105 -6v110h-111z" />
    <glyph glyph-name="minus" unicode="&#x2212;" horiz-adv-x="638" 
d="M66 297v72h507v-72h-507z" />
    <glyph glyph-name="radical" unicode="&#x221a;" horiz-adv-x="598" 
d="M215 -2l-192 527h95l142 -411h2l217 625h95l-269 -741h-90z" />
    <glyph glyph-name="infinity" unicode="&#x221e;" horiz-adv-x="881" 
d="M713 638v87h88v-87h-88zM117 0v457h-92v71h92v71q0 68 38 105.5t114 37.5q9 0 27 -1.5t21 -1.5v-70q-9 2 -35 2q-79 0 -79 -74v-69h213v68q0 69 38.5 107.5t113.5 38.5q8 0 25.5 -1.5t21.5 -1.5v-70q-8 2 -35 2q-78 0 -78 -74v-69h109v-71h-109v-457h-86v457h-213v-457
h-86zM714 0v528h86v-528h-86z" />
    <glyph glyph-name="integral" unicode="&#x222b;" horiz-adv-x="760" 
d="M180 170l-27 -2v72l31 -2l6 100l-180 -15v93l180 -15l-6 102l-31 -2v72l27 -2l-2 26h72l-2 -30l101 -7l-15 180h93l-15 -180l101 7l-2 30h72l-2 -26l27 2v-72l-31 2l-7 -102l180 15v-93l-180 15l7 -100l31 2v-72l-27 2l2 -28h-72l2 32l-101 6l15 -180h-93l15 180l-101 -6
l2 -32h-72zM516 506l-104 6v-111h110zM349 401v111l-105 -6l-6 -105h111zM412 338v-110l104 6l6 104h-110zM244 234l105 -6v110h-111z" />
    <glyph glyph-name="approxequal" unicode="&#x2248;" horiz-adv-x="760" 
d="M180 170l-27 -2v72l31 -2l6 100l-180 -15v93l180 -15l-6 102l-31 -2v72l27 -2l-2 26h72l-2 -30l101 -7l-15 180h93l-15 -180l101 7l-2 30h72l-2 -26l27 2v-72l-31 2l-7 -102l180 15v-93l-180 15l7 -100l31 2v-72l-27 2l2 -28h-72l2 32l-101 6l15 -180h-93l15 180l-101 -6
l2 -32h-72zM516 506l-104 6v-111h110zM349 401v111l-105 -6l-6 -105h111zM412 338v-110l104 6l6 104h-110zM244 234l105 -6v110h-111z" />
    <glyph glyph-name="notequal" unicode="&#x2260;" horiz-adv-x="645" 
d="M117 0v457h-92v71h92v71q0 68 38 105.5t114 37.5q9 0 27 -1.5t21 -1.5v-69q-18 2 -35 2q-79 0 -79 -74v-70h213v69q0 145 158 145q9 0 27.5 -1.5t22.5 -1.5v-70q-14 3 -37 3q-85 0 -85 -74v-70h116v-71h-116v-457h-86v457h-213v-457h-86z" />
    <glyph glyph-name="lessequal" unicode="&#x2264;" horiz-adv-x="760" 
d="M180 170l-27 -2v72l31 -2l6 100l-180 -15v93l180 -15l-6 102l-31 -2v72l27 -2l-2 26h72l-2 -30l101 -7l-15 180h93l-15 -180l101 7l-2 30h72l-2 -26l27 2v-72l-31 2l-7 -102l180 15v-93l-180 15l7 -100l31 2v-72l-27 2l2 -28h-72l2 32l-101 6l15 -180h-93l15 180l-101 -6
l2 -32h-72zM516 506l-104 6v-111h110zM349 401v111l-105 -6l-6 -105h111zM412 338v-110l104 6l6 104h-110zM244 234l105 -6v110h-111z" />
    <glyph glyph-name="greaterequal" unicode="&#x2265;" horiz-adv-x="760" 
d="M180 170l-27 -2v72l31 -2l6 100l-180 -15v93l180 -15l-6 102l-31 -2v72l27 -2l-2 26h72l-2 -30l101 -7l-15 180h93l-15 -180l101 7l-2 30h72l-2 -26l27 2v-72l-31 2l-7 -102l180 15v-93l-180 15l7 -100l31 2v-72l-27 2l2 -28h-72l2 32l-101 6l15 -180h-93l15 180l-101 -6
l2 -32h-72zM516 506l-104 6v-111h110zM349 401v111l-105 -6l-6 -105h111zM412 338v-110l104 6l6 104h-110zM244 234l105 -6v110h-111z" />
    <glyph glyph-name="lozenge" unicode="&#x25ca;" horiz-adv-x="760" 
d="M180 170l-27 -2v72l31 -2l6 100l-180 -15v93l180 -15l-6 102l-31 -2v72l27 -2l-2 26h72l-2 -30l101 -7l-15 180h93l-15 -180l101 7l-2 30h72l-2 -26l27 2v-72l-31 2l-7 -102l180 15v-93l-180 15l7 -100l31 2v-72l-27 2l2 -28h-72l2 32l-101 6l15 -180h-93l15 180l-101 -6
l2 -32h-72zM516 506l-104 6v-111h110zM349 401v111l-105 -6l-6 -105h111zM412 338v-110l104 6l6 104h-110zM244 234l105 -6v110h-111z" />
    <glyph glyph-name="fi" unicode="&#xfb01;" horiz-adv-x="591" 
d="M415 638v87h88v-87h-88zM117 0v457h-92v71h92v71q0 68 38 105.5t114 37.5q9 0 26.5 -1.5t21.5 -1.5v-70q-9 2 -35 2q-79 0 -79 -74v-69h110v-71h-110v-457h-86zM416 0v528h86v-528h-86z" />
    <glyph glyph-name="fl" unicode="&#xfb02;" horiz-adv-x="589" 
d="M117 0v457h-92v71h92v71q0 68 38 105.5t114 37.5q9 0 26.5 -1.5t21.5 -1.5v-70q-9 2 -35 2q-79 0 -79 -74v-69h110v-71h-110v-457h-86zM416 0v740h86v-740h-86z" />
    <glyph glyph-name="NUL" horiz-adv-x="0" 
 />
    <glyph glyph-name="apple" horiz-adv-x="760" 
d="M180 170l-27 -2v72l31 -2l6 100l-180 -15v93l180 -15l-6 102l-31 -2v72l27 -2l-2 26h72l-2 -30l101 -7l-15 180h93l-15 -180l101 7l-2 30h72l-2 -26l27 2v-72l-31 2l-7 -102l180 15v-93l-180 15l7 -100l31 2v-72l-27 2l2 -28h-72l2 32l-101 6l15 -180h-93l15 180l-101 -6
l2 -32h-72zM516 506l-104 6v-111h110zM349 401v111l-105 -6l-6 -105h111zM412 338v-110l104 6l6 104h-110zM244 234l105 -6v110h-111z" />
  </font>
</defs>
</svg>
