<?xml version="1.0" standalone="no"?>
<!DOCTYPE svg PUBLIC "-//W3C//DTD SVG 1.1//EN" "http://www.w3.org/Graphics/SVG/1.1/DTD/svg11.dtd" >
<svg xmlns="http://www.w3.org/2000/svg" xmlns:xlink="http://www.w3.org/1999/xlink" version="1.1">
<metadata>
Created by FontForge 20170731 at Sat Jan  1 08:00:02 2005
 By Aleksey,,,
[c] Copyright 2000-2003, The Font Bureau, Inc. Designed by Cyrus Highsmith, Tobias Frere-Jones, and Font Bureau. All rights reserved.
</metadata>
<defs>
<font id="BentonSans-Book" horiz-adv-x="760" >
  <font-face 
    font-family="BentonSans"
    font-weight="500"
    font-stretch="normal"
    units-per-em="1000"
    panose-1="2 0 6 3 0 0 0 0 0 0"
    ascent="800"
    descent="-200"
    x-height="527"
    cap-height="740"
    bbox="-96 -205 1317 955"
    underline-thickness="20"
    underline-position="-173"
    unicode-range="U+0020-FFFD"
  />
<missing-glyph horiz-adv-x="500" 
 />
    <glyph glyph-name=".notdef" unicode="&#xfffd;" horiz-adv-x="500" 
 />
    <glyph glyph-name=".null" horiz-adv-x="0" 
 />
    <glyph glyph-name="nonmarkingreturn" horiz-adv-x="333" 
 />
    <glyph glyph-name="space" unicode=" " horiz-adv-x="226" 
 />
    <glyph glyph-name="exclam" unicode="!" horiz-adv-x="313" 
d="M137 202l-23 538h86l-22 -538h-41zM114 0v93h87v-93h-87z" />
    <glyph glyph-name="quotedbl" unicode="&#x22;" horiz-adv-x="405" 
d="M270 489l-17 196v55h70v-55l-17 -196h-36zM99 489l-17 196v55h69v-55l-17 -196h-35z" />
    <glyph glyph-name="numbersign" unicode="#" horiz-adv-x="708" 
d="M115 0l45 217h-116v57h128l40 192h-125v57h137l46 217h64l-45 -217h191l46 217h64l-46 -217h120v-57h-131l-41 -192h129v-57h-140l-46 -217h-64l45 217h-191l-46 -217h-64zM236 274h192l40 192h-191z" />
    <glyph glyph-name="dollar" unicode="$" horiz-adv-x="647" 
d="M295 -4q-89 6 -147.5 46.5t-88.5 93.5l53 35q35 -54 78.5 -83t106.5 -34v305q-51 15 -83.5 29t-66 37t-50 56.5t-16.5 78.5q0 77 57.5 129.5t156.5 56.5v73h55v-74q135 -13 202 -125l-53 -38q-31 48 -63.5 72.5t-87.5 29.5v-273q55 -16 88.5 -29.5t72 -38.5t57 -62
t18.5 -88q0 -84 -62.5 -137.5t-171.5 -60.5v-88h-55v89zM297 686q-73 -4 -110.5 -37.5t-37.5 -83.5q0 -56 38 -86t110 -53v260zM348 55q167 9 167 133q0 65 -42.5 98t-124.5 58v-289z" />
    <glyph glyph-name="percent" unicode="%" horiz-adv-x="970" 
d="M228 306q-79 0 -122.5 60t-43.5 160q0 103 45.5 164t121.5 61t120.5 -60t44.5 -161q0 -100 -44.5 -162t-121.5 -62zM232 0l442 740h64l-442 -740h-64zM742 -10q-79 0 -122.5 60t-43.5 160q0 103 45 163.5t122 60.5q76 0 120.5 -59.5t44.5 -161.5q0 -99 -44.5 -161
t-121.5 -62zM229 362q48 0 75 46.5t27 119.5q0 76 -27 121.5t-76 45.5t-76 -46.5t-27 -118.5q0 -77 27.5 -122.5t76.5 -45.5zM742 45q49 0 75.5 47t26.5 120q0 76 -26.5 121.5t-75.5 45.5t-76 -46.5t-27 -119.5q0 -77 27 -122.5t76 -45.5z" />
    <glyph glyph-name="ampersand" unicode="&#x26;" horiz-adv-x="721" 
d="M285 -14q-120 0 -182.5 53t-62.5 144q0 135 174 227q-51 88 -51 170q0 72 45 123t127 51q74 0 114.5 -40t40.5 -102q0 -71 -49 -121t-138 -96q24 -36 68 -93q75 -96 128 -148q62 82 78 216h67q-20 -154 -98 -254q78 -63 150 -63v-63q-105 4 -195 78q-92 -82 -216 -82z
M275 439q72 37 111 75.5t39 92.5q0 38 -22.5 63t-67.5 25q-50 0 -77 -30.5t-27 -81.5q0 -69 44 -144zM289 46q98 0 167 61q-61 58 -141 160q-54 67 -73 96q-131 -76 -131 -175q0 -68 45.5 -105t132.5 -37z" />
    <glyph glyph-name="quotesingle" unicode="'" horiz-adv-x="233" 
d="M99 489l-17 196v55h69v-55l-17 -196h-35z" />
    <glyph glyph-name="parenleft" unicode="(" horiz-adv-x="397" 
d="M312 -205q-249 209 -249 478t249 478l31 -35q-204 -188 -204 -443q0 -129 54 -242.5t151 -201.5z" />
    <glyph glyph-name="parenright" unicode=")" horiz-adv-x="397" 
d="M85 -205l-32 34q97 89 151.5 202t54.5 242q0 128 -54.5 241t-150.5 202l31 35q250 -210 250 -478t-250 -478z" />
    <glyph glyph-name="asterisk" unicode="*" horiz-adv-x="508" 
d="M175 353l-50 29l104 151l-183 -13v55l184 -13l-105 151l50 30l79 -167l79 167l50 -30l-104 -151l183 13v-55l-183 13l104 -151l-50 -29l-79 166z" />
    <glyph glyph-name="plus" unicode="+" horiz-adv-x="636" 
d="M287 75v224h-221v60h221v224h62v-224h222v-60h-222v-224h-62z" />
    <glyph glyph-name="comma" unicode="," horiz-adv-x="268" 
d="M100 -101l24 101h-33v94h86v-85l-45 -110h-32z" />
    <glyph glyph-name="hyphen" unicode="-" horiz-adv-x="357" 
d="M66 284v60h225v-60h-225z" />
    <glyph glyph-name="period" unicode="." horiz-adv-x="268" 
d="M91 0v94h86v-94h-86z" />
    <glyph glyph-name="slash" unicode="/" horiz-adv-x="549" 
d="M23 0l430 740h73l-430 -740h-73z" />
    <glyph glyph-name="zero" unicode="0" horiz-adv-x="653" 
d="M327 -14q-129 0 -200.5 104t-71.5 280t71.5 280t200.5 104q128 0 199 -104t71 -280t-71 -280t-199 -104zM327 48q95 0 147.5 83.5t52.5 238.5q0 154 -54 237.5t-146 83.5q-95 0 -148 -83t-53 -238q0 -154 54 -238t147 -84z" />
    <glyph glyph-name="one" unicode="1" horiz-adv-x="432" 
d="M60 0v64h139v599q-64 -34 -137 -34v63q93 3 141 48h66v-676h126v-64h-335z" />
    <glyph glyph-name="two" unicode="2" horiz-adv-x="587" 
d="M48 0v16q0 86 54.5 163.5t193.5 166.5q86 55 121 99t35 102q0 66 -39.5 105t-111.5 39q-119 0 -184 -128l-56 33q82 158 243 158q99 0 158 -56.5t59 -146.5q0 -75 -42 -131t-149 -124q-196 -124 -204 -232h398v-64h-476z" />
    <glyph glyph-name="three" unicode="3" horiz-adv-x="591" 
d="M284 -14q-81 0 -147 36t-107 102l53 38q76 -114 202 -114q81 0 128.5 41t47.5 110q0 84 -55 123.5t-183 39.5h-28v61h34q115 0 165.5 34.5t50.5 104.5q0 59 -38.5 94t-118.5 35q-103 0 -176 -90l-49 41q93 112 229 112q110 0 166 -53t56 -132q0 -71 -39 -116.5
t-107 -58.5q163 -34 163 -195q0 -93 -67.5 -153t-179.5 -60z" />
    <glyph glyph-name="four" unicode="4" horiz-adv-x="606" 
d="M389 0v179h-356v53l337 508h87v-498h125v-63h-125v-179h-68zM113 242h276v415h-2z" />
    <glyph glyph-name="five" unicode="5" horiz-adv-x="582" 
d="M283 -14q-78 0 -141.5 36t-102.5 97l51 41q78 -112 192 -112q90 0 137.5 56.5t47.5 137.5q0 88 -46.5 136t-122.5 48q-104 0 -169 -93l-53 20l29 387h391l-6 -65h-326l-20 -257q59 69 164 69q102 0 165.5 -66t63.5 -176q0 -113 -69 -186t-185 -73z" />
    <glyph glyph-name="six" unicode="6" horiz-adv-x="611" 
d="M318 -14q-116 0 -189.5 94.5t-73.5 276.5q0 172 81.5 284.5t208.5 112.5q105 0 177 -56l-37 -54q-61 48 -142 48q-99 0 -158.5 -93t-60.5 -235q91 99 211 99q113 0 172 -63t59 -168q0 -106 -69 -176t-179 -70zM321 47q81 0 128.5 48.5t47.5 135.5q0 78 -42 124.5
t-128 46.5q-59 0 -112 -30t-88 -79q11 -123 63.5 -184.5t130.5 -61.5z" />
    <glyph glyph-name="seven" unicode="7" horiz-adv-x="549" 
d="M119 0l312 675h-381v65h455v-61l-313 -679h-73z" />
    <glyph glyph-name="eight" unicode="8" horiz-adv-x="607" 
d="M304 -15q-122 0 -193 55.5t-71 138.5q0 74 48.5 122.5t147.5 91.5q-82 37 -122 78t-40 105q0 72 63 125.5t167 53.5q106 0 167.5 -53t61.5 -126q0 -62 -39.5 -102.5t-124.5 -78.5q103 -45 150.5 -92.5t47.5 -123.5q0 -82 -71.5 -138t-191.5 -56zM307 422q87 38 122 69.5
t35 81.5q0 49 -41 85.5t-119 36.5q-75 0 -118 -35.5t-43 -83.5q0 -50 37 -82.5t127 -71.5zM304 45q85 0 139 38t54 100q0 59 -47 99t-150 83q-103 -46 -146.5 -85.5t-43.5 -96.5q0 -61 54.5 -99.5t139.5 -38.5z" />
    <glyph glyph-name="nine" unicode="9" horiz-adv-x="611" 
d="M266 -14q-114 0 -189 66l36 53q36 -29 70 -43t85 -14q99 0 158.5 93t59.5 235q-91 -99 -210 -99q-113 0 -172 63t-59 168q0 106 69 176t179 70q116 0 189 -94.5t73 -276.5q0 -172 -81 -284.5t-208 -112.5zM284 338q59 0 112 30t88 79q-11 123 -64 184t-131 61
q-80 0 -127.5 -48.5t-47.5 -134.5q0 -78 42 -124.5t128 -46.5z" />
    <glyph glyph-name="colon" unicode=":" horiz-adv-x="271" 
d="M92 432v95h87v-95h-87zM92 0v94h87v-94h-87z" />
    <glyph glyph-name="semicolon" unicode=";" horiz-adv-x="271" 
d="M92 432v95h87v-95h-87zM101 -101l24 101h-33v94h87v-84l-46 -111h-32z" />
    <glyph glyph-name="less" unicode="&#x3c;" horiz-adv-x="636" 
d="M580 72l-529 227v50l529 227v-65l-449 -187l449 -187v-65z" />
    <glyph glyph-name="equal" unicode="=" horiz-adv-x="636" 
d="M65 409v59h505v-59h-505zM65 181v59h505v-59h-505z" />
    <glyph glyph-name="greater" unicode="&#x3e;" horiz-adv-x="636" 
d="M57 72v65l449 187l-449 187v65l529 -227v-50z" />
    <glyph glyph-name="question" unicode="?" horiz-adv-x="539" 
d="M213 201q-2 40 -2 66q0 53 20.5 88t69.5 64q66 41 90.5 69.5t24.5 81.5q0 56 -39 88.5t-109 32.5q-107 0 -179 -101l-50 38q45 60 100 93t133 33q97 0 156 -50t59 -130q0 -67 -32.5 -107.5t-95.5 -77.5q-60 -35 -74.5 -68t-14.5 -120h-57zM198 0v93h87v-93h-87z" />
    <glyph glyph-name="at" unicode="@" horiz-adv-x="868" 
d="M432 -14q-169 0 -276 106.5t-107 277.5q0 170 109 277t276 107t276 -105t109 -269q0 -103 -47 -163.5t-120 -60.5q-47 0 -77.5 21t-40.5 55q-80 -73 -167 -73q-68 0 -109 40.5t-41 119.5q0 115 59 193t151 78q75 0 130 -55l7 46h57l-43 -294q-6 -39 15 -64t64 -25
q53 0 86.5 46t33.5 135q0 148 -97 241.5t-246 93.5t-245 -96t-96 -248t95.5 -248.5t244.5 -96.5q107 0 204 53l18 -34q-104 -58 -223 -58zM376 208q77 0 142 64l31 209q-48 58 -125 58q-64 0 -105.5 -63t-41.5 -152q0 -116 99 -116z" />
    <glyph glyph-name="A" unicode="A" horiz-adv-x="673" 
d="M36 0l262 743h77l262 -743h-74l-79 228h-300l-79 -228h-69zM206 291h256l-127 368h-2z" />
    <glyph glyph-name="B" unicode="B" horiz-adv-x="685" 
d="M95 0v740h257q124 0 187.5 -48.5t63.5 -137.5q0 -71 -39 -114t-101 -57v-2q74 -14 119 -59t45 -121q0 -91 -64.5 -146t-188.5 -55h-279zM165 411h181q187 0 187 134q0 68 -44.5 99.5t-140.5 31.5h-183v-265zM165 63h208q184 0 184 141q0 73 -54 109t-152 36h-186v-286z
" />
    <glyph glyph-name="C" unicode="C" horiz-adv-x="699" 
d="M367 -14q-140 0 -224 105t-84 282q0 169 85 275t223 106q210 0 268 -226l-68 -17q-26 91 -72.5 134.5t-128.5 43.5q-107 0 -171.5 -85.5t-64.5 -228.5q0 -152 64.5 -238.5t173.5 -86.5q162 0 211 188l68 -15q-28 -112 -99.5 -174.5t-180.5 -62.5z" />
    <glyph glyph-name="D" unicode="D" horiz-adv-x="709" 
d="M95 0v740h187q181 0 274.5 -93t93.5 -276q0 -182 -94.5 -276.5t-273.5 -94.5h-187zM166 64h127q286 0 286 307q0 303 -288 303h-125v-610z" />
    <glyph glyph-name="E" unicode="E" horiz-adv-x="604" 
d="M95 0v740h442v-66h-371v-251h277v-64h-277v-294h392v-65h-463z" />
    <glyph glyph-name="F" unicode="F" horiz-adv-x="565" 
d="M95 0v740h433v-66h-362v-255h268v-64h-268v-355h-71z" />
    <glyph glyph-name="G" unicode="G" horiz-adv-x="723" 
d="M363 -14q-142 0 -223 108t-81 279q0 173 86.5 277t222.5 104q211 0 269 -227l-68 -16q-27 93 -74 135.5t-128 42.5q-102 0 -169.5 -82t-67.5 -231q0 -153 65.5 -239.5t173.5 -86.5q94 0 150 63t55 174h-179v61h248v-348h-64v113h-2q-64 -127 -214 -127z" />
    <glyph glyph-name="H" unicode="H" horiz-adv-x="732" 
d="M95 0v740h71v-317h401v317h71v-740h-71v358h-401v-358h-71z" />
    <glyph glyph-name="I" unicode="I" horiz-adv-x="281" 
d="M105 0v740h71v-740h-71z" />
    <glyph glyph-name="J" unicode="J" horiz-adv-x="498" 
d="M210 -14q-117 0 -183 102l50 38q52 -77 130 -77q132 0 132 150v541h71v-542q0 -103 -52.5 -157.5t-147.5 -54.5z" />
    <glyph glyph-name="K" unicode="K" horiz-adv-x="668" 
d="M95 0v740h71v-399l354 399h87l-254 -280l291 -460h-82l-257 405l-139 -152v-253h-71z" />
    <glyph glyph-name="L" unicode="L" horiz-adv-x="565" 
d="M95 0v740h71v-675h362v-65h-433z" />
    <glyph glyph-name="M" unicode="M" horiz-adv-x="871" 
d="M95 0v740h92l248 -648h2l246 648h94v-740h-71v620h-2q-12 -38 -46 -130l-192 -490h-65l-192 490q-32 84 -46 132h-2v-622h-66z" />
    <glyph glyph-name="N" unicode="N" horiz-adv-x="743" 
d="M95 0v740h76l408 -610h2v610h67v-740h-63l-421 629h-2v-629h-67z" />
    <glyph glyph-name="O" unicode="O" horiz-adv-x="742" 
d="M371 -14q-137 0 -224.5 106t-87.5 278t87.5 278t224.5 106t224.5 -106t87.5 -278t-87.5 -278t-224.5 -106zM371 50q107 0 174 86t67 234t-67 233.5t-174 85.5t-174 -85.5t-67 -233.5t67 -234t174 -86z" />
    <glyph glyph-name="P" unicode="P" horiz-adv-x="643" 
d="M95 0v740h246q123 0 191 -51t68 -151q0 -107 -71.5 -158.5t-194.5 -51.5h-168v-328h-71zM166 391h173q95 0 142.5 33.5t47.5 111.5q0 73 -47.5 106t-143.5 33h-172v-284z" />
    <glyph glyph-name="Q" unicode="Q" horiz-adv-x="742" 
d="M552 -186q-108 0 -163.5 48t-56.5 127q-122 14 -197.5 118t-75.5 263q0 172 88 278t224 106q135 0 223.5 -106t88.5 -278q0 -161 -78 -265.5t-202 -116.5q6 -62 47.5 -86.5t116.5 -24.5h51v-63h-66zM371 49q106 0 173 86.5t67 234.5t-67 233.5t-173 85.5
q-107 0 -174 -85.5t-67 -233.5t67 -234.5t174 -86.5z" />
    <glyph glyph-name="R" unicode="R" horiz-adv-x="671" 
d="M95 0v740h248q124 0 190.5 -51.5t66.5 -148.5q0 -167 -177 -200l187 -340h-80l-181 332h-184v-332h-70zM165 395h173q96 0 143.5 32.5t47.5 109.5q0 74 -47.5 106t-144.5 32h-172v-280z" />
    <glyph glyph-name="S" unicode="S" horiz-adv-x="649" 
d="M330 -14q-103 0 -174 52.5t-98 143.5l63 23q50 -156 212 -156q84 0 133.5 36t49.5 98q0 59 -39.5 94t-154.5 72q-131 41 -185.5 85t-54.5 130q0 80 65 135t165 55t163 -45.5t91 -124.5l-60 -28q-52 134 -195 134q-73 0 -116 -34.5t-43 -86.5q0 -60 41.5 -91t163.5 -70
q123 -39 176.5 -86.5t53.5 -133.5q0 -91 -72 -146.5t-185 -55.5z" />
    <glyph glyph-name="T" unicode="T" horiz-adv-x="617" 
d="M273 0v674h-239v66h549v-66h-239v-674h-71z" />
    <glyph glyph-name="U" unicode="U" horiz-adv-x="715" 
d="M357 -13q-131 0 -200 73.5t-69 189.5v490h71v-478q0 -96 50 -153.5t149 -57.5t148.5 56.5t49.5 152.5v480h71v-488q0 -116 -70 -190.5t-200 -74.5z" />
    <glyph glyph-name="V" unicode="V" horiz-adv-x="659" 
d="M296 -3l-260 743h73l221 -646h2l222 646h69l-260 -743h-67z" />
    <glyph glyph-name="W" unicode="W" horiz-adv-x="925" 
d="M237 0l-197 740h72l115 -449q26 -100 45 -186h2q15 73 43 185l110 450h75l112 -454q33 -129 42 -181h2q2 7 43 178l116 457h68l-196 -740h-67l-157 642h-2l-159 -642h-67z" />
    <glyph glyph-name="X" unicode="X" horiz-adv-x="657" 
d="M32 0l258 397l-225 343h82l184 -287l184 287h76l-223 -343l257 -397h-76l-222 341l-222 -341h-73z" />
    <glyph glyph-name="Y" unicode="Y" horiz-adv-x="618" 
d="M273 0v326l-248 414h77l208 -353l207 353h76l-249 -414v-326h-71z" />
    <glyph glyph-name="Z" unicode="Z" horiz-adv-x="623" 
d="M42 0v51l444 629h-415v60h501v-52l-442 -628h442v-60h-530z" />
    <glyph glyph-name="bracketleft" unicode="[" horiz-adv-x="389" 
d="M88 -200v940h254v-53h-184v-834h184v-53h-254z" />
    <glyph glyph-name="backslash" unicode="\" horiz-adv-x="543" 
d="M450 0l-430 740h73l430 -740h-73z" />
    <glyph glyph-name="bracketright" unicode="]" horiz-adv-x="389" 
d="M47 -200v53h184v833h-184v54h254v-940h-254z" />
    <glyph glyph-name="asciicircum" unicode="^" horiz-adv-x="510" 
d="M100 580l129 159h52l129 -159h-44l-112 98l-112 -98h-42z" />
    <glyph glyph-name="underscore" unicode="_" horiz-adv-x="500" 
d="M0 -126v56h500v-56h-500z" />
    <glyph glyph-name="grave" unicode="`" horiz-adv-x="500" 
d="M286 583l-141 156h91l95 -156h-45z" />
    <glyph glyph-name="a" unicode="a" horiz-adv-x="547" 
d="M197 -9q-70 0 -109.5 35t-39.5 97q0 82 82 136.5t275 84.5v27q0 108 -107 108q-102 0 -197 -83l-37 43q106 98 240 98q169 0 169 -168v-239q0 -93 15 -130h-71q-12 38 -12 75q-93 -84 -208 -84zM212 48q107 0 193 83v164q-160 -27 -224.5 -67t-64.5 -96q0 -41 25.5 -62.5
t70.5 -21.5z" />
    <glyph glyph-name="b" unicode="b" horiz-adv-x="593" 
d="M319 -9q-91 0 -170 81v-72h-69v740h69v-290q78 87 176 87q96 0 156.5 -70.5t60.5 -202.5q0 -133 -62 -203t-161 -70zM313 49q73 0 116.5 53.5t43.5 160.5q0 105 -45 160t-115 55q-82 0 -164 -87v-256q81 -86 164 -86z" />
    <glyph glyph-name="c" unicode="c" horiz-adv-x="531" 
d="M278 -11q-95 0 -161.5 74t-66.5 200q0 133 69 203.5t166 70.5q140 0 202 -144l-59 -26q-45 111 -145 111q-67 0 -115.5 -52.5t-48.5 -161.5q0 -101 45.5 -158.5t116.5 -57.5q54 0 88.5 26t62.5 86l56 -24q-69 -147 -210 -147z" />
    <glyph glyph-name="d" unicode="d" horiz-adv-x="593" 
d="M268 -9q-96 0 -156.5 70t-60.5 202q0 133 62 203.5t161 70.5q97 0 170 -82v285h69v-610q0 -94 16 -130h-73q-12 36 -12 77q-80 -86 -176 -86zM280 50q83 0 164 86v256q-81 87 -164 87q-73 0 -116.5 -54.5t-43.5 -162.5q0 -104 45 -158t115 -54z" />
    <glyph glyph-name="e" unicode="e" horiz-adv-x="546" 
d="M281 -11q-97 0 -164 73t-67 202q0 131 69.5 202t161.5 71q96 0 155.5 -71.5t59.5 -202.5v-13h-377q1 -94 48 -148.5t118 -54.5q57 0 94.5 23.5t69.5 72.5l43 -34q-75 -120 -211 -120zM120 305h309q-6 79 -43.5 126.5t-105.5 47.5q-61 0 -106 -44.5t-54 -129.5z" />
    <glyph glyph-name="f" unicode="f" horiz-adv-x="330" 
d="M119 0v468h-92v59h92v79q0 135 151 135q22 0 40 -2v-58q-16 2 -35 2q-87 0 -87 -76v-80h116v-59h-116v-468h-69z" />
    <glyph glyph-name="g" unicode="g" horiz-adv-x="564" 
d="M272 -202q-125 0 -187.5 34.5t-62.5 97.5q0 82 97 120q-47 19 -47 67q0 45 64 79q-80 51 -80 151q0 83 59 136.5t149 53.5q91 0 150 -54q54 40 122 48v-65q-54 0 -96 -18q31 -42 31 -101q0 -85 -58.5 -136t-148.5 -51q-46 0 -85 15q-42 -17 -42 -45q0 -17 17.5 -26.5
t60.5 -13.5l115 -9q186 -15 186 -134q0 -71 -67 -110t-177 -39zM265 213q64 0 102.5 36t38.5 97q0 63 -37.5 99.5t-104.5 36.5q-65 0 -103 -37t-38 -99q0 -61 38.5 -97t103.5 -36zM279 -148q80 0 126.5 24.5t46.5 64.5q0 38 -33.5 57.5t-110.5 25.5l-105 8l-27 3
q-43 -14 -65.5 -39.5t-22.5 -56.5q0 -87 191 -87z" />
    <glyph glyph-name="h" unicode="h" horiz-adv-x="581" 
d="M80 0v740h69v-296q95 93 201 93q77 0 117 -41t40 -115v-381h-69v368q0 110 -105 110q-89 0 -184 -92v-386h-69z" />
    <glyph glyph-name="i" unicode="i" horiz-adv-x="240" 
d="M84 649v74h73v-74h-73zM86 0v527h69v-527h-69z" />
    <glyph glyph-name="j" unicode="j" horiz-adv-x="240" 
d="M84 649v74h73v-74h-73zM44 -201q-27 0 -41 4v55q16 -4 31 -4q52 0 52 59v614h69v-615q0 -56 -26 -84.5t-85 -28.5z" />
    <glyph glyph-name="k" unicode="k" horiz-adv-x="530" 
d="M80 0v740h69v-491l251 278h81l-172 -186l193 -341h-75l-164 288l-114 -122v-166h-69z" />
    <glyph glyph-name="l" unicode="l" horiz-adv-x="240" 
d="M86 0v740h69v-740h-69z" />
    <glyph glyph-name="m" unicode="m" horiz-adv-x="913" 
d="M80 0v527h69v-83q95 93 193 93q118 0 145 -95q100 95 199 95q152 0 152 -156v-381h-69v368q0 57 -22.5 83.5t-76.5 26.5q-81 0 -176 -92v-386h-69v368q0 57 -22.5 83.5t-77.5 26.5q-81 0 -176 -92v-386h-69z" />
    <glyph glyph-name="n" unicode="n" horiz-adv-x="581" 
d="M80 0v527h69v-83q95 93 201 93q77 0 117 -41t40 -115v-381h-69v368q0 110 -105 110q-89 0 -184 -92v-386h-69z" />
    <glyph glyph-name="o" unicode="o" horiz-adv-x="577" 
d="M289 -11q-101 0 -170 73.5t-69 200.5t68.5 200.5t170.5 73.5q101 0 169.5 -73.5t68.5 -200.5t-68.5 -200.5t-169.5 -73.5zM289 48q78 0 123.5 59.5t45.5 156.5q0 91 -44.5 152.5t-124.5 61.5q-79 0 -124.5 -59.5t-45.5 -154.5q0 -93 44.5 -154.5t125.5 -61.5z" />
    <glyph glyph-name="p" unicode="p" horiz-adv-x="593" 
d="M80 -200v727h69v-75q79 85 176 85q96 0 156.5 -70.5t60.5 -202.5q0 -133 -62 -203t-161 -70q-91 0 -170 81v-272h-69zM313 49q73 0 116.5 53.5t43.5 160.5q0 105 -45 160t-115 55q-82 0 -164 -87v-256q81 -86 164 -86z" />
    <glyph glyph-name="q" unicode="q" horiz-adv-x="593" 
d="M444 -200v277q-80 -86 -176 -86t-156.5 70t-60.5 202q0 133 62 203.5t161 70.5q90 0 170 -80v70h69v-727h-69zM280 50q83 0 164 86v256q-81 87 -164 87q-73 0 -116.5 -54.5t-43.5 -162.5q0 -104 45 -158t115 -54z" />
    <glyph glyph-name="r" unicode="r" horiz-adv-x="395" 
d="M80 0v527h69v-104h2q72 114 209 114h12l-7 -64q-19 1 -21 1q-130 0 -195 -131v-343h-69z" />
    <glyph glyph-name="s" unicode="s" horiz-adv-x="506" 
d="M250 -10q-68 0 -122 26t-85 68l44 40q66 -76 164 -76q137 0 137 92q0 42 -32.5 64t-112.5 41q-98 24 -140.5 56.5t-42.5 97.5q0 59 48 98.5t131 39.5q117 0 195 -76l-39 -46q-65 65 -154 65q-58 0 -86 -22.5t-28 -55.5q0 -37 28.5 -57t99.5 -37q108 -26 154 -60t46 -107
q0 -71 -57 -111t-148 -40z" />
    <glyph glyph-name="t" unicode="t" horiz-adv-x="365" 
d="M255 -7q-75 0 -107 30.5t-32 99.5v345h-92v59h92v189h69v-189h137v-59h-137v-331q0 -44 18 -65t65 -21q34 0 55 7v-59q-32 -6 -68 -6z" />
    <glyph glyph-name="u" unicode="u" horiz-adv-x="581" 
d="M232 -11q-77 0 -117 41t-40 116v381h69v-369q0 -56 25.5 -83t79.5 -27q86 0 183 92v387h70v-527h-70v83q-96 -94 -200 -94z" />
    <glyph glyph-name="v" unicode="v" horiz-adv-x="509" 
d="M220 -2l-194 529h74l156 -445h2l155 445h70l-194 -529h-69z" />
    <glyph glyph-name="w" unicode="w" horiz-adv-x="747" 
d="M189 0l-162 527h72l74 -261q24 -86 49 -179h2q23 91 48 179l72 261h63l73 -266q18 -62 46 -174h2q28 105 48 172l77 268h67l-162 -527h-64l-119 433h-2l-121 -433h-63z" />
    <glyph glyph-name="x" unicode="x" horiz-adv-x="511" 
d="M31 0l189 273l-176 254h77l137 -203l137 203h75l-177 -254l189 -273h-76l-151 221l-150 -221h-74z" />
    <glyph glyph-name="y" unicode="y" horiz-adv-x="527" 
d="M98 -202q-48 0 -87 11l16 57q30 -8 73 -8q42 0 66.5 19t41.5 62l22 58l-204 530h74l164 -445h2l163 445h72l-227 -588q-28 -75 -66 -108t-110 -33z" />
    <glyph glyph-name="z" unicode="z" horiz-adv-x="506" 
d="M41 0v44l321 425h-295v58h382v-45l-321 -425h335v-57h-422z" />
    <glyph glyph-name="braceleft" unicode="{" horiz-adv-x="380" 
d="M276 -200q-130 0 -130 136v188q0 70 -25.5 95t-85.5 25v52q60 0 85.5 25t25.5 95v188q0 136 130 136h62v-53h-44q-78 0 -78 -77v-197q0 -69 -20 -98t-65 -44v-2q45 -15 65 -44t20 -98v-197q0 -77 78 -77h44v-53h-62z" />
    <glyph glyph-name="bar" unicode="|" horiz-adv-x="345" 
d="M139 -200v940h67v-940h-67z" />
    <glyph glyph-name="braceright" unicode="}" horiz-adv-x="380" 
d="M42 -200v53h44q78 0 78 77v200q0 68 20 96t65 43v2q-45 15 -65 43t-20 96v200q0 80 -74 80h-44l-4 50h65q67 0 97 -33t30 -100v-191q0 -70 25.5 -95t85.5 -25v-52q-60 0 -85.5 -25t-25.5 -95v-191q0 -67 -30 -100t-97 -33h-65z" />
    <glyph glyph-name="asciitilde" unicode="~" horiz-adv-x="504" 
d="M326 414q-30 0 -79.5 28t-67.5 28q-22 0 -31.5 -12.5t-9.5 -41.5h-44q0 110 84 110q30 0 79.5 -28t68.5 -28q22 0 31.5 12.5t9.5 41.5h44q0 -110 -85 -110z" />
    <glyph glyph-name="nbspace" unicode="&#xa0;" horiz-adv-x="113" 
 />
    <glyph glyph-name="exclamdown" unicode="&#xa1;" horiz-adv-x="313" 
d="M112 647v93h87v-93h-87zM113 0l22 538h41l23 -538h-86z" />
    <glyph glyph-name="cent" unicode="&#xa2;" horiz-adv-x="532" 
d="M172 17q-56 32 -89 95.5t-33 150.5q0 133 69 203.5t166 70.5q20 0 29 -1l28 102h48l-31 -112q83 -30 128 -133l-57 -26q-33 81 -90 102l-112 -413q24 -9 53 -9q54 0 89 26.5t64 86.5l54 -24q-69 -147 -210 -147q-34 0 -64 10l-35 -128h-48zM300 478q-5 1 -17 1
q-68 0 -117 -52.5t-49 -162.5q0 -130 73 -188z" />
    <glyph glyph-name="sterling" unicode="&#xa3;" horiz-adv-x="609" 
d="M214 362h-127v55h97q-48 90 -48 150q0 83 51.5 135t139.5 52q94 0 141.5 -53.5t54.5 -132.5l-67 -8q-9 133 -130 133q-58 0 -89.5 -33.5t-31.5 -91.5q0 -25 9 -54t16.5 -44.5t27.5 -52.5h172v-55h-144q32 -73 32 -140q0 -59 -16 -110q26 -22 40.5 -33t38.5 -22t46 -11
q46 0 67 32t26 104h63q-7 -196 -152 -196q-42 0 -77.5 20t-76.5 57q-48 -77 -138 -77q-43 0 -75.5 26.5t-32.5 72.5q0 50 30.5 81t83.5 31q49 0 105 -42q4 24 4 62q0 67 -40 145zM234 101q-51 46 -90 46q-27 0 -43 -16.5t-16 -43.5q0 -24 16 -38t41 -14q66 0 92 66z" />
    <glyph glyph-name="currency" unicode="&#xa4;" horiz-adv-x="717" 
d="M141 417h-120v55h126q21 139 95.5 210.5t174.5 71.5q97 0 152.5 -55t82.5 -156l-65 -19q-25 88 -60.5 127.5t-110.5 39.5q-76 0 -130 -55t-70 -164h227v-55h-233q-1 -13 -1 -39q0 -22 2 -56h232v-57h-226q16 -106 68 -161.5t133 -55.5q73 0 114.5 43.5t65.5 133.5l65 -17
q-59 -222 -246 -222q-105 0 -176.5 70.5t-92.5 208.5h-127v57h121q-2 32 -2 52q0 8 0.5 22t0.5 21z" />
    <glyph glyph-name="yen" unicode="&#xa5;" horiz-adv-x="616" 
d="M272 0v126h-191v56h191v95h-191v56h189l-244 407h77l207 -350l205 350h75l-245 -407h191v-56h-193v-95h193v-56h-193v-126h-71z" />
    <glyph glyph-name="brokenbar" unicode="&#xa6;" horiz-adv-x="345" 
d="M139 331v409h67v-409h-67zM139 -200v409h67v-409h-67z" />
    <glyph glyph-name="section" unicode="&#xa7;" horiz-adv-x="530" 
d="M266 -200q-161 0 -195 146l59 18q14 -53 45 -80t88 -27t83 25.5t26 64.5q0 37 -25.5 66.5t-97.5 71.5q-114 67 -154.5 107t-40.5 100q0 100 128 164q-55 39 -75.5 71.5t-20.5 76.5q0 60 49 105t129 45q165 0 199 -146l-60 -19q-29 108 -136 108q-57 0 -85 -26t-28 -64
q0 -36 27 -65.5t100 -72.5q113 -66 153.5 -106.5t40.5 -100.5q0 -55 -37 -97t-89 -68q54 -38 72.5 -70t18.5 -77q0 -61 -47 -105.5t-127 -44.5zM300 129q111 48 111 126q0 41 -31.5 70.5t-136.5 92.5q-1 1 -4 2.5t-5.5 2.5t-4.5 2q-110 -49 -110 -126q0 -41 31.5 -70.5
t136.5 -92.5q2 -1 6.5 -3.5t6.5 -3.5z" />
    <glyph glyph-name="dieresis" unicode="&#xa8;" horiz-adv-x="506" 
d="M302 583v82h77v-82h-77zM126 583v82h77v-82h-77z" />
    <glyph glyph-name="copyright" unicode="&#xa9;" horiz-adv-x="863" 
d="M431 -14q-159 0 -270 112t-111 272t111 272t271 112q159 0 270 -112t111 -272t-111 -272t-271 -112zM432 27q141 0 239 100t98 243q0 142 -98.5 242.5t-239.5 100.5t-239 -100t-98 -243q0 -142 98.5 -242.5t239.5 -100.5zM429 156q-79 0 -126.5 60.5t-47.5 160.5
q0 96 48 157t127 61q121 0 156 -134l-46 -12q-16 52 -41 76.5t-69 24.5q-57 0 -91 -47t-34 -125q0 -83 33.5 -130t92.5 -47q87 0 114 106q41 -11 47 -12q-36 -139 -163 -139z" />
    <glyph glyph-name="ordfeminine" unicode="&#xaa;" horiz-adv-x="415" 
d="M159 369q-51 0 -79.5 25t-28.5 69q0 58 57.5 96t192.5 59v17q0 72 -71 72q-76 0 -135 -57l-33 32q74 71 172 71q61 0 91.5 -31t30.5 -88v-165q0 -63 13 -92h-59q-8 25 -9 50q-68 -58 -142 -58zM170 415q68 0 131 58v107q-110 -18 -152.5 -45t-42.5 -66q0 -26 17 -40
t47 -14z" />
    <glyph glyph-name="guillemotleft" unicode="&#xab;" horiz-adv-x="522" 
d="M392 0l-149 264l149 263h71l-146 -263l146 -264h-71zM193 0l-148 264l148 263h72l-145 -263l145 -264h-72z" />
    <glyph glyph-name="logicalnot" unicode="&#xac;" 
d="M188 178l-29 -2v62l32 -2l7 108l-188 -13v76l188 -12l-7 110l-32 -2v61l29 -2l-2 29h62l-2 -32l109 -6l-13 187h76l-12 -187l109 6l-2 32h61l-2 -29l30 2v-61l-33 1l-6 -109l187 12v-76l-187 13l6 -108l33 2v-62l-30 2l2 -30h-61l2 33l-109 7l12 -188h-76l13 188l-109 -7
l2 -33h-62zM517 507l-111 6v-118h117zM355 395v118l-112 -6l-5 -112h117zM406 344v-116l111 5l6 111h-117zM244 234l111 -6v116h-117z" />
    <glyph glyph-name="registered" unicode="&#xae;" horiz-adv-x="863" 
d="M431 -14q-159 0 -270 112t-111 272t111 272t271 112q159 0 270 -112t111 -272t-111 -272t-271 -112zM432 27q141 0 239 100t98 243q0 142 -98.5 242.5t-239.5 100.5t-239 -100t-98 -243q0 -142 98.5 -242.5t239.5 -100.5zM293 166v422h144q72 0 110.5 -30t38.5 -86
q0 -94 -96 -114l103 -192h-54l-100 185h-96v-185h-50zM343 393h92q102 0 102 77q0 73 -103 73h-91v-150z" />
    <glyph glyph-name="macron" unicode="&#xaf;" horiz-adv-x="500" 
d="M108 620v59h284v-59h-284z" />
    <glyph glyph-name="degree" unicode="&#xb0;" horiz-adv-x="403" 
d="M201 474q-60 0 -100.5 40t-40.5 100t40.5 100t100.5 40q61 0 101.5 -39.5t40.5 -100.5t-40.5 -100.5t-101.5 -39.5zM201 519q40 0 65.5 26.5t25.5 68.5t-25.5 68t-65.5 26q-39 0 -64.5 -26t-25.5 -68t25.5 -68.5t64.5 -26.5z" />
    <glyph glyph-name="plusminus" unicode="&#xb1;" horiz-adv-x="859" 
d="M119 0v468h-92v59h92v79q0 66 38 100.5t110 34.5q22 0 38 -2v-58q-16 2 -34 2q-83 0 -83 -76v-80h224v77q0 67 38.5 102t109.5 35q22 0 38 -2v-58q-16 2 -33 2q-84 0 -84 -76v-80h112v-59h-112v-468h-69v468h-224v-468h-69zM705 0v739h69v-739h-69z" />
    <glyph glyph-name="twosuperior" unicode="&#xb2;" horiz-adv-x="446" 
d="M67 279v19q0 54 33.5 102t119.5 104q49 32 69.5 56.5t20.5 56.5q0 36 -21.5 57.5t-60.5 21.5q-67 0 -107 -81l-48 27q53 108 157 108q64 0 102 -36t38 -95q0 -48 -27 -84t-94 -77q-106 -66 -114 -124h237v-55h-305z" />
    <glyph glyph-name="threesuperior" unicode="&#xb3;" horiz-adv-x="446" 
d="M221 270q-107 0 -165 96l44 32q46 -74 120 -74q46 0 72 23t26 61q0 46 -31 69t-102 23h-26v48h29q121 0 121 77q0 32 -21 51.5t-64 19.5q-60 0 -107 -58l-41 34q63 78 150 78q71 0 107.5 -34.5t36.5 -85.5q0 -80 -78 -105q88 -27 88 -117q0 -60 -43.5 -99t-115.5 -39z
" />
    <glyph glyph-name="acute" unicode="&#xb4;" horiz-adv-x="500" 
d="M169 583l95 156h91l-141 -156h-45z" />
    <glyph glyph-name="paragraph" unicode="&#xb6;" horiz-adv-x="619" 
d="M305 -200v537q-119 2 -181 52.5t-62 147.5q0 90 60.5 146.5t168.5 56.5h236v-940h-59v881h-104v-881h-59z" />
    <glyph glyph-name="periodcentered" unicode="&#xb7;" horiz-adv-x="269" 
d="M91 271v94h88v-94h-88z" />
    <glyph glyph-name="cedilla" unicode="&#xb8;" horiz-adv-x="500" 
d="M251 -195q-68 0 -124 37l18 29q45 -30 98 -30q75 0 75 47q0 36 -42 36q-27 0 -52 -20l-29 13l26 83h42l-16 -54q23 15 55 15q29 0 49.5 -18t20.5 -50q0 -44 -34 -66t-87 -22z" />
    <glyph glyph-name="onesuperior" unicode="&#xb9;" horiz-adv-x="404" 
d="M97 278v54h84v340q-35 -15 -83 -15v54q62 1 90 29h54v-408h75v-54h-220z" />
    <glyph glyph-name="ordmasculine" unicode="&#xba;" horiz-adv-x="429" 
d="M214 369q-72 0 -121 51.5t-49 140.5q0 90 49 141t121 51q73 0 122 -51t49 -141q0 -89 -49 -140.5t-122 -51.5zM214 414q54 0 85 41.5t31 105.5q0 62 -30.5 104.5t-85.5 42.5q-53 0 -84 -41.5t-31 -105.5q0 -62 30 -104.5t85 -42.5z" />
    <glyph glyph-name="guillemotright" unicode="&#xbb;" horiz-adv-x="522" 
d="M257 0l145 264l-145 263h71l149 -263l-149 -264h-71zM58 0l146 264l-146 263h72l149 -263l-149 -264h-72z" />
    <glyph glyph-name="onequarter" unicode="&#xbc;" horiz-adv-x="935" 
d="M97 278v54h84v340q-35 -15 -83 -15v54q62 1 90 29h54v-408h75v-54h-220zM226 0l443 740h65l-443 -740h-65zM737 0v111h-213v40l207 312h67v-298h75v-54h-75v-111h-61zM596 165h142v215z" />
    <glyph glyph-name="onehalf" unicode="&#xbd;" horiz-adv-x="974" 
d="M97 278v54h84v340q-35 -15 -83 -15v54q62 1 90 29h54v-408h75v-54h-220zM226 0l443 740h65l-443 -740h-65zM594 0v20q0 54 33.5 102t119.5 103q49 31 69 56t20 58q0 35 -21 56.5t-61 21.5q-66 0 -107 -81l-48 27q53 108 157 108q65 0 102.5 -36t37.5 -95q0 -48 -27 -84
t-94 -77q-104 -65 -114 -124h238v-55h-305z" />
    <glyph glyph-name="threequarters" unicode="&#xbe;" horiz-adv-x="962" 
d="M221 270q-107 0 -165 96l44 32q46 -74 120 -74q46 0 72 23t26 61q0 46 -31 69t-102 23h-26v48h29q121 0 121 77q0 32 -21 51.5t-64 19.5q-60 0 -107 -58l-41 34q63 78 150 78q71 0 107.5 -34.5t36.5 -85.5q0 -80 -78 -105q88 -27 88 -117q0 -60 -43.5 -99t-115.5 -39z
M254 0l442 740h65l-443 -740h-64zM764 0v111h-213v40l207 312h67v-298h75v-54h-75v-111h-61zM622 165h143v215z" />
    <glyph glyph-name="questiondown" unicode="&#xbf;" horiz-adv-x="539" 
d="M254 647v93h87v-93h-87zM267 -14q-97 0 -156 50t-59 130q0 67 32.5 107.5t95.5 77.5q60 35 74.5 68.5t14.5 119.5h56q3 -30 3 -66q0 -53 -20.5 -88t-69.5 -64q-67 -41 -91.5 -70t-24.5 -81q0 -56 39.5 -88.5t109.5 -32.5q107 0 179 101l50 -38q-46 -60 -101 -93t-132 -33
z" />
    <glyph glyph-name="Agrave" unicode="&#xc0;" horiz-adv-x="673" 
d="M36 0l262 743h77l262 -743h-74l-79 228h-300l-79 -228h-69zM206 291h256l-127 368h-2zM316 786l-141 156h91l95 -156h-45z" />
    <glyph glyph-name="Aacute" unicode="&#xc1;" horiz-adv-x="673" 
d="M36 0l262 743h77l262 -743h-74l-79 228h-300l-79 -228h-69zM206 291h256l-127 368h-2zM313 786l95 156h91l-141 -156h-45z" />
    <glyph glyph-name="Acircumflex" unicode="&#xc2;" horiz-adv-x="673" 
d="M36 0l262 743h77l262 -743h-74l-79 228h-300l-79 -228h-69zM206 291h256l-127 368h-2zM181 783l129 159h52l129 -159h-44l-112 98l-112 -98h-42z" />
    <glyph glyph-name="Atilde" unicode="&#xc3;" horiz-adv-x="673" 
d="M36 0l262 743h77l262 -743h-74l-79 228h-300l-79 -228h-69zM206 291h256l-127 368h-2zM411 783q-30 0 -79.5 28t-67.5 28q-22 0 -31.5 -12.5t-9.5 -41.5h-44q0 110 84 110q30 0 79.5 -28t68.5 -28q22 0 31.5 12.5t9.5 41.5h44q0 -110 -85 -110z" />
    <glyph glyph-name="Adieresis" unicode="&#xc4;" horiz-adv-x="673" 
d="M36 0l262 743h77l262 -743h-74l-79 228h-300l-79 -228h-69zM206 291h256l-127 368h-2zM385 786v82h77v-82h-77zM209 786v82h77v-82h-77z" />
    <glyph glyph-name="Aring" unicode="&#xc5;" horiz-adv-x="673" 
d="M382 723l255 -723h-74l-79 228h-300l-79 -228h-69l255 722q-46 24 -46 79q0 39 25.5 65t65.5 26q39 0 65 -26t26 -65q0 -53 -45 -78zM336 745q23 0 38 15.5t15 40.5q0 24 -15 40t-38 16t-38.5 -16t-15.5 -40q0 -25 15.5 -40.5t38.5 -15.5zM206 291h256l-127 368h-2z" />
    <glyph glyph-name="AE" unicode="&#xc6;" horiz-adv-x="996" 
d="M27 0l421 740h481v-66h-371v-251h277v-64h-277v-294h392v-65h-463v237h-254l-134 -237h-72zM270 300h217v383h-1z" />
    <glyph glyph-name="Ccedilla" unicode="&#xc7;" horiz-adv-x="699" 
d="M367 -195q-68 0 -124 37l18 29q45 -30 98 -30q74 0 74 47q0 36 -41 36q-28 0 -53 -20l-28 13l22 70q-125 14 -199.5 118t-74.5 268q0 168 85 274.5t223 106.5q210 0 268 -226l-68 -17q-26 92 -72.5 136.5t-128.5 44.5q-107 0 -171.5 -87t-64.5 -230q0 -153 64.5 -240.5
t173.5 -87.5q162 0 211 191l68 -15q-27 -110 -96.5 -172t-175.5 -65l-12 -40q23 15 54 15q30 0 50.5 -18t20.5 -50q0 -44 -34 -66t-87 -22z" />
    <glyph glyph-name="Egrave" unicode="&#xc8;" horiz-adv-x="604" 
d="M95 0v740h442v-66h-371v-251h277v-64h-277v-294h392v-65h-463zM315 786l-141 156h91l95 -156h-45z" />
    <glyph glyph-name="Eacute" unicode="&#xc9;" horiz-adv-x="604" 
d="M95 0v740h442v-66h-371v-251h277v-64h-277v-294h392v-65h-463zM273 786l95 156h91l-141 -156h-45z" />
    <glyph glyph-name="Ecircumflex" unicode="&#xca;" horiz-adv-x="604" 
d="M95 0v740h442v-66h-371v-251h277v-64h-277v-294h392v-65h-463zM161 783l129 159h52l129 -159h-44l-112 98l-112 -98h-42z" />
    <glyph glyph-name="Edieresis" unicode="&#xcb;" horiz-adv-x="604" 
d="M95 0v740h442v-66h-371v-251h277v-64h-277v-294h392v-65h-463zM370 786v82h77v-82h-77zM194 786v82h77v-82h-77z" />
    <glyph glyph-name="Igrave" unicode="&#xcc;" horiz-adv-x="281" 
d="M105 0v740h71v-740h-71zM127 786l-141 156h91l95 -156h-45z" />
    <glyph glyph-name="Iacute" unicode="&#xcd;" horiz-adv-x="281" 
d="M105 0v740h71v-740h-71zM120 786l95 156h91l-141 -156h-45z" />
    <glyph glyph-name="Icircumflex" unicode="&#xce;" horiz-adv-x="281" 
d="M105 0v740h71v-740h-71zM-14 783l129 159h52l129 -159h-44l-112 98l-112 -98h-42z" />
    <glyph glyph-name="Idieresis" unicode="&#xcf;" horiz-adv-x="281" 
d="M105 0v740h71v-740h-71zM190 786v82h77v-82h-77zM14 786v82h77v-82h-77z" />
    <glyph glyph-name="Eth" unicode="&#xd0;" horiz-adv-x="709" 
d="M95 0v360h-83v60h83v320h187q181 0 274.5 -93.5t93.5 -276.5q0 -182 -94.5 -276t-273.5 -94h-187zM166 64h127q286 0 286 307q0 303 -288 303h-125v-254h160v-60h-160v-296z" />
    <glyph glyph-name="Ntilde" unicode="&#xd1;" horiz-adv-x="743" 
d="M95 0v740h76l408 -610h2v610h67v-740h-63l-421 629h-2v-629h-67zM455 783q-30 0 -79.5 28t-67.5 28q-22 0 -31.5 -12.5t-9.5 -41.5h-44q0 110 84 110q30 0 79.5 -28t68.5 -28q22 0 31.5 12.5t9.5 41.5h44q0 -110 -85 -110z" />
    <glyph glyph-name="Ograve" unicode="&#xd2;" horiz-adv-x="742" 
d="M371 -14q-137 0 -224.5 106t-87.5 278t87.5 278t224.5 106t224.5 -106t87.5 -278t-87.5 -278t-224.5 -106zM371 50q107 0 174 86t67 234t-67 233.5t-174 85.5t-174 -85.5t-67 -233.5t67 -234t174 -86zM358 786l-141 156h91l95 -156h-45z" />
    <glyph glyph-name="Oacute" unicode="&#xd3;" horiz-adv-x="742" 
d="M371 -14q-137 0 -224.5 106t-87.5 278t87.5 278t224.5 106t224.5 -106t87.5 -278t-87.5 -278t-224.5 -106zM371 50q107 0 174 86t67 234t-67 233.5t-174 85.5t-174 -85.5t-67 -233.5t67 -234t174 -86zM335 786l95 156h91l-141 -156h-45z" />
    <glyph glyph-name="Ocircumflex" unicode="&#xd4;" horiz-adv-x="742" 
d="M371 -14q-137 0 -224.5 106t-87.5 278t87.5 278t224.5 106t224.5 -106t87.5 -278t-87.5 -278t-224.5 -106zM371 50q107 0 174 86t67 234t-67 233.5t-174 85.5t-174 -85.5t-67 -233.5t67 -234t174 -86zM215 783l129 159h52l129 -159h-44l-112 98l-112 -98h-42z" />
    <glyph glyph-name="Otilde" unicode="&#xd5;" horiz-adv-x="742" 
d="M371 -14q-137 0 -224.5 106t-87.5 278t87.5 278t224.5 106t224.5 -106t87.5 -278t-87.5 -278t-224.5 -106zM371 50q107 0 174 86t67 234t-67 233.5t-174 85.5t-174 -85.5t-67 -233.5t67 -234t174 -86zM444 783q-30 0 -79.5 28t-67.5 28q-22 0 -31.5 -12.5t-9.5 -41.5h-44
q0 110 84 110q30 0 79.5 -28t68.5 -28q22 0 31.5 12.5t9.5 41.5h44q0 -110 -85 -110z" />
    <glyph glyph-name="Odieresis" unicode="&#xd6;" horiz-adv-x="742" 
d="M371 -14q-137 0 -224.5 106t-87.5 278t87.5 278t224.5 106t224.5 -106t87.5 -278t-87.5 -278t-224.5 -106zM371 50q107 0 174 86t67 234t-67 233.5t-174 85.5t-174 -85.5t-67 -233.5t67 -234t174 -86zM420 786v82h77v-82h-77zM244 786v82h77v-82h-77z" />
    <glyph glyph-name="multiply" unicode="&#xd7;" horiz-adv-x="636" 
d="M145 103l-41 42l172 171l-172 173l41 41l172 -173l172 173l42 -41l-173 -172l173 -172l-41 -41l-173 172z" />
    <glyph glyph-name="Oslash" unicode="&#xd8;" horiz-adv-x="742" 
d="M606 635q77 -104 77 -265q0 -172 -87.5 -278t-224.5 -106q-117 0 -200 80l-65 -84l-42 30l71 93q-76 105 -76 265q0 172 87.5 278t224.5 106q117 0 200 -80l65 84l42 -30zM181 159l351 461q-66 71 -161 71q-107 0 -174.5 -86t-67.5 -235q0 -127 52 -211zM562 580
l-352 -460q63 -71 161 -71q107 0 174 86t67 235q0 127 -50 210z" />
    <glyph glyph-name="Ugrave" unicode="&#xd9;" horiz-adv-x="715" 
d="M357 -13q-131 0 -200 73.5t-69 189.5v490h71v-478q0 -96 50 -153.5t149 -57.5t148.5 56.5t49.5 152.5v480h71v-488q0 -116 -70 -190.5t-200 -74.5zM351 786l-141 156h91l95 -156h-45z" />
    <glyph glyph-name="Uacute" unicode="&#xda;" horiz-adv-x="715" 
d="M357 -13q-131 0 -200 73.5t-69 189.5v490h71v-478q0 -96 50 -153.5t149 -57.5t148.5 56.5t49.5 152.5v480h71v-488q0 -116 -70 -190.5t-200 -74.5zM313 786l95 156h91l-141 -156h-45z" />
    <glyph glyph-name="Ucircumflex" unicode="&#xdb;" horiz-adv-x="715" 
d="M357 -13q-131 0 -200 73.5t-69 189.5v490h71v-478q0 -96 50 -153.5t149 -57.5t148.5 56.5t49.5 152.5v480h71v-488q0 -116 -70 -190.5t-200 -74.5zM202 783l129 159h52l129 -159h-44l-112 98l-112 -98h-42z" />
    <glyph glyph-name="Udieresis" unicode="&#xdc;" horiz-adv-x="715" 
d="M357 -13q-131 0 -200 73.5t-69 189.5v490h71v-478q0 -96 50 -153.5t149 -57.5t148.5 56.5t49.5 152.5v480h71v-488q0 -116 -70 -190.5t-200 -74.5zM406 786v82h77v-82h-77zM230 786v82h77v-82h-77z" />
    <glyph glyph-name="Yacute" unicode="&#xdd;" horiz-adv-x="618" 
d="M273 0v326l-248 414h77l208 -353l207 353h76l-249 -414v-326h-71zM229 795l95 156h91l-141 -156h-45z" />
    <glyph glyph-name="Thorn" unicode="&#xde;" horiz-adv-x="647" 
d="M95 0v740h71v-140h174q124 -1 192 -52t68 -151q0 -107 -72 -159t-195 -52h-167v-186h-71zM166 250h171q96 0 143.5 33.5t47.5 111.5q0 73 -48 106t-144 33h-170v-284z" />
    <glyph glyph-name="germandbls" unicode="&#xdf;" horiz-adv-x="613" 
d="M369 -11q-97 0 -151 58l41 43q46 -44 111 -44q57 0 92 43t35 116q0 91 -59.5 132.5t-176.5 46.5v53q85 1 127.5 36.5t42.5 92.5q0 55 -37 85t-102 30q-69 0 -106 -41t-37 -120v-520h-69v516q0 107 57 165.5t157 58.5q93 0 148 -45t55 -126q0 -56 -33.5 -97t-94.5 -57
q87 -12 140.5 -62.5t53.5 -144.5q0 -100 -52 -159.5t-142 -59.5z" />
    <glyph glyph-name="agrave" unicode="&#xe0;" horiz-adv-x="547" 
d="M197 -9q-70 0 -109.5 35t-39.5 97q0 82 82 136.5t275 84.5v27q0 108 -107 108q-102 0 -197 -83l-37 43q106 98 240 98q169 0 169 -168v-239q0 -93 15 -130h-71q-12 38 -12 75q-93 -84 -208 -84zM212 48q107 0 193 83v164q-160 -27 -224.5 -67t-64.5 -96q0 -41 25.5 -62.5
t70.5 -21.5zM279 583l-141 156h91l95 -156h-45z" />
    <glyph glyph-name="aacute" unicode="&#xe1;" horiz-adv-x="547" 
d="M197 -9q-70 0 -109.5 35t-39.5 97q0 82 82 136.5t275 84.5v27q0 108 -107 108q-102 0 -197 -83l-37 43q106 98 240 98q169 0 169 -168v-239q0 -93 15 -130h-71q-12 38 -12 75q-93 -84 -208 -84zM212 48q107 0 193 83v164q-160 -27 -224.5 -67t-64.5 -96q0 -41 25.5 -62.5
t70.5 -21.5zM244 583l95 156h91l-141 -156h-45z" />
    <glyph glyph-name="acircumflex" unicode="&#xe2;" horiz-adv-x="547" 
d="M197 -9q-70 0 -109.5 35t-39.5 97q0 82 82 136.5t275 84.5v27q0 108 -107 108q-102 0 -197 -83l-37 43q106 98 240 98q169 0 169 -168v-239q0 -93 15 -130h-71q-12 38 -12 75q-93 -84 -208 -84zM212 48q107 0 193 83v164q-160 -27 -224.5 -67t-64.5 -96q0 -41 25.5 -62.5
t70.5 -21.5zM126 580l129 159h52l129 -159h-44l-112 98l-112 -98h-42z" />
    <glyph glyph-name="atilde" unicode="&#xe3;" horiz-adv-x="547" 
d="M197 -9q-70 0 -109.5 35t-39.5 97q0 82 82 136.5t275 84.5v27q0 108 -107 108q-102 0 -197 -83l-37 43q106 98 240 98q169 0 169 -168v-239q0 -93 15 -130h-71q-12 38 -12 75q-93 -84 -208 -84zM212 48q107 0 193 83v164q-160 -27 -224.5 -67t-64.5 -96q0 -41 25.5 -62.5
t70.5 -21.5zM352 580q-30 0 -79.5 28t-67.5 28q-22 0 -31.5 -12.5t-9.5 -41.5h-44q0 110 84 110q30 0 79.5 -28t68.5 -28q22 0 31.5 12.5t9.5 41.5h44q0 -110 -85 -110z" />
    <glyph glyph-name="adieresis" unicode="&#xe4;" horiz-adv-x="547" 
d="M197 -9q-70 0 -109.5 35t-39.5 97q0 82 82 136.5t275 84.5v27q0 108 -107 108q-102 0 -197 -83l-37 43q106 98 240 98q169 0 169 -168v-239q0 -93 15 -130h-71q-12 38 -12 75q-93 -84 -208 -84zM212 48q107 0 193 83v164q-160 -27 -224.5 -67t-64.5 -96q0 -41 25.5 -62.5
t70.5 -21.5zM336 583v82h77v-82h-77zM160 583v82h77v-82h-77z" />
    <glyph glyph-name="aring" unicode="&#xe5;" horiz-adv-x="547" 
d="M197 -9q-70 0 -109.5 35t-39.5 97q0 82 82 136.5t275 84.5v27q0 108 -107 108q-102 0 -197 -83l-37 43q106 98 240 98q169 0 169 -168v-239q0 -93 15 -130h-71q-12 38 -12 75q-93 -84 -208 -84zM212 48q107 0 193 83v164q-160 -27 -224.5 -67t-64.5 -96q0 -41 25.5 -62.5
t70.5 -21.5zM288 576q-40 0 -65.5 26t-25.5 65t25.5 65t65.5 26t65.5 -26t25.5 -65t-25.5 -65t-65.5 -26zM288 611q23 0 38 15.5t15 40.5q0 24 -15 40t-38 16t-38 -16t-15 -40q0 -25 15 -40.5t38 -15.5z" />
    <glyph glyph-name="ae" unicode="&#xe6;" horiz-adv-x="894" 
d="M197 -11q-70 0 -109.5 35t-39.5 97q0 83 81.5 138.5t273.5 84.5v27q0 108 -105 108q-102 0 -197 -83l-37 43q106 98 239 98q126 0 150 -108q26 48 72.5 78t103.5 30q96 0 155.5 -71.5t59.5 -202.5v-11h-376q1 -96 47.5 -150.5t118.5 -54.5q56 0 93 23.5t69 72.5l44 -34
q-76 -120 -211 -120q-60 0 -110.5 29t-81.5 85q-112 -114 -240 -114zM469 305h307q-6 79 -43 126.5t-105 47.5q-60 0 -105 -44.5t-54 -129.5zM212 46q110 0 207 101q-17 48 -17 109q0 8 0.5 21.5t0.5 17.5q-159 -27 -223 -68t-64 -98q0 -40 25.5 -61.5t70.5 -21.5z" />
    <glyph glyph-name="ccedilla" unicode="&#xe7;" horiz-adv-x="531" 
d="M277 -195q-68 0 -124 37l18 29q45 -30 98 -30q74 0 74 47q0 36 -41 36q-28 0 -53 -20l-28 13l23 75q-84 13 -139 85t-55 186q0 133 69 203.5t166 70.5q140 0 202 -144l-59 -26q-23 58 -57 86t-88 28q-67 0 -115.5 -53.5t-48.5 -163.5q0 -101 45.5 -160.5t116.5 -59.5
q53 0 87.5 27.5t63.5 88.5l56 -24q-33 -70 -81 -107.5t-121 -38.5l-13 -44q23 15 54 15q30 0 50.5 -18t20.5 -50q0 -44 -34 -66t-87 -22z" />
    <glyph glyph-name="egrave" unicode="&#xe8;" horiz-adv-x="546" 
d="M281 -11q-97 0 -164 73t-67 202q0 131 69.5 202t161.5 71q96 0 155.5 -71.5t59.5 -202.5v-13h-377q1 -94 48 -148.5t118 -54.5q57 0 94.5 23.5t69.5 72.5l43 -34q-75 -120 -211 -120zM120 305h309q-6 79 -43.5 126.5t-105.5 47.5q-61 0 -106 -44.5t-54 -129.5zM264 583
l-141 156h91l95 -156h-45z" />
    <glyph glyph-name="eacute" unicode="&#xe9;" horiz-adv-x="546" 
d="M281 -11q-97 0 -164 73t-67 202q0 131 69.5 202t161.5 71q96 0 155.5 -71.5t59.5 -202.5v-13h-377q1 -94 48 -148.5t118 -54.5q57 0 94.5 23.5t69.5 72.5l43 -34q-75 -120 -211 -120zM120 305h309q-6 79 -43.5 126.5t-105.5 47.5q-61 0 -106 -44.5t-54 -129.5zM245 583
l95 156h91l-141 -156h-45z" />
    <glyph glyph-name="ecircumflex" unicode="&#xea;" horiz-adv-x="546" 
d="M281 -11q-97 0 -164 73t-67 202q0 131 69.5 202t161.5 71q96 0 155.5 -71.5t59.5 -202.5v-13h-377q1 -94 48 -148.5t118 -54.5q57 0 94.5 23.5t69.5 72.5l43 -34q-75 -120 -211 -120zM120 305h309q-6 79 -43.5 126.5t-105.5 47.5q-61 0 -106 -44.5t-54 -129.5zM126 580
l129 159h52l129 -159h-44l-112 98l-112 -98h-42z" />
    <glyph glyph-name="edieresis" unicode="&#xeb;" horiz-adv-x="546" 
d="M281 -11q-97 0 -164 73t-67 202q0 131 69.5 202t161.5 71q96 0 155.5 -71.5t59.5 -202.5v-13h-377q1 -94 48 -148.5t118 -54.5q57 0 94.5 23.5t69.5 72.5l43 -34q-75 -120 -211 -120zM120 305h309q-6 79 -43.5 126.5t-105.5 47.5q-61 0 -106 -44.5t-54 -129.5zM326 583
v82h77v-82h-77zM150 583v82h77v-82h-77z" />
    <glyph glyph-name="igrave" unicode="&#xec;" horiz-adv-x="240" 
d="M86 0v527h69v-527h-69zM108 583l-141 156h91l95 -156h-45z" />
    <glyph glyph-name="iacute" unicode="&#xed;" horiz-adv-x="240" 
d="M86 0v527h69v-527h-69zM103 583l95 156h91l-141 -156h-45z" />
    <glyph glyph-name="icircumflex" unicode="&#xee;" horiz-adv-x="240" 
d="M86 0v527h69v-527h-69zM-35 580l129 159h52l129 -159h-44l-112 98l-112 -98h-42z" />
    <glyph glyph-name="idieresis" unicode="&#xef;" horiz-adv-x="240" 
d="M86 0v527h69v-527h-69zM169 583v82h77v-82h-77zM-7 583v82h77v-82h-77z" />
    <glyph glyph-name="eth" unicode="&#xf0;" horiz-adv-x="577" 
d="M289 -11q-104 0 -171.5 73.5t-67.5 195.5t65.5 191.5t165.5 69.5q49 0 94 -25.5t73 -66.5q-27 106 -92 177l-109 -41l-21 48l92 34q-31 29 -77 57l34 45q58 -33 103 -75l100 38l21 -48l-83 -32q111 -135 111 -368q0 -124 -67.5 -198.5t-170.5 -74.5zM289 47
q77 0 123 58.5t46 153.5q0 89 -45.5 146t-123.5 57t-124 -55t-46 -148q0 -91 45 -151.5t125 -60.5z" />
    <glyph glyph-name="ntilde" unicode="&#xf1;" horiz-adv-x="581" 
d="M80 0v527h69v-83q95 93 201 93q77 0 117 -41t40 -115v-381h-69v368q0 110 -105 110q-89 0 -184 -92v-386h-69zM372 580q-30 0 -79.5 28t-67.5 28q-22 0 -31.5 -12.5t-9.5 -41.5h-44q0 110 84 110q30 0 79.5 -28t68.5 -28q22 0 31.5 12.5t9.5 41.5h44q0 -110 -85 -110z
" />
    <glyph glyph-name="ograve" unicode="&#xf2;" horiz-adv-x="577" 
d="M289 -11q-101 0 -170 73.5t-69 200.5t68.5 200.5t170.5 73.5q101 0 169.5 -73.5t68.5 -200.5t-68.5 -200.5t-169.5 -73.5zM289 48q78 0 123.5 59.5t45.5 156.5q0 91 -44.5 152.5t-124.5 61.5q-79 0 -124.5 -59.5t-45.5 -154.5q0 -93 44.5 -154.5t125.5 -61.5zM276 583
l-141 156h91l95 -156h-45z" />
    <glyph glyph-name="oacute" unicode="&#xf3;" horiz-adv-x="577" 
d="M289 -11q-101 0 -170 73.5t-69 200.5t68.5 200.5t170.5 73.5q101 0 169.5 -73.5t68.5 -200.5t-68.5 -200.5t-169.5 -73.5zM289 48q78 0 123.5 59.5t45.5 156.5q0 91 -44.5 152.5t-124.5 61.5q-79 0 -124.5 -59.5t-45.5 -154.5q0 -93 44.5 -154.5t125.5 -61.5zM254 583
l95 156h91l-141 -156h-45z" />
    <glyph glyph-name="ocircumflex" unicode="&#xf4;" horiz-adv-x="577" 
d="M289 -11q-101 0 -170 73.5t-69 200.5t68.5 200.5t170.5 73.5q101 0 169.5 -73.5t68.5 -200.5t-68.5 -200.5t-169.5 -73.5zM289 48q78 0 123.5 59.5t45.5 156.5q0 91 -44.5 152.5t-124.5 61.5q-79 0 -124.5 -59.5t-45.5 -154.5q0 -93 44.5 -154.5t125.5 -61.5zM134 580
l129 159h52l129 -159h-44l-112 98l-112 -98h-42z" />
    <glyph glyph-name="otilde" unicode="&#xf5;" horiz-adv-x="577" 
d="M289 -11q-101 0 -170 73.5t-69 200.5t68.5 200.5t170.5 73.5q101 0 169.5 -73.5t68.5 -200.5t-68.5 -200.5t-169.5 -73.5zM289 48q78 0 123.5 59.5t45.5 156.5q0 91 -44.5 152.5t-124.5 61.5q-79 0 -124.5 -59.5t-45.5 -154.5q0 -93 44.5 -154.5t125.5 -61.5zM364 580
q-30 0 -79.5 28t-67.5 28q-22 0 -31.5 -12.5t-9.5 -41.5h-44q0 110 84 110q30 0 79.5 -28t68.5 -28q22 0 31.5 12.5t9.5 41.5h44q0 -110 -85 -110z" />
    <glyph glyph-name="odieresis" unicode="&#xf6;" horiz-adv-x="577" 
d="M289 -11q-101 0 -170 73.5t-69 200.5t68.5 200.5t170.5 73.5q101 0 169.5 -73.5t68.5 -200.5t-68.5 -200.5t-169.5 -73.5zM289 48q78 0 123.5 59.5t45.5 156.5q0 91 -44.5 152.5t-124.5 61.5q-79 0 -124.5 -59.5t-45.5 -154.5q0 -93 44.5 -154.5t125.5 -61.5zM337 583v82
h77v-82h-77zM161 583v82h77v-82h-77z" />
    <glyph glyph-name="divide" unicode="&#xf7;" horiz-adv-x="636" 
d="M274 463v86h84v-86h-84zM66 299v60h505v-60h-505zM274 108v86h84v-86h-84z" />
    <glyph glyph-name="oslash" unicode="&#xf8;" horiz-adv-x="577" 
d="M464 459q63 -76 63 -196q0 -127 -68.5 -200.5t-169.5 -73.5q-78 0 -139 45l-51 -67l-37 29l53 71q-65 75 -65 196q0 127 68.5 200.5t170.5 73.5q79 0 139 -45l50 68l39 -31zM157 118l235 324q-42 37 -103 37q-79 0 -125 -60t-46 -155q0 -88 39 -146zM421 406l-235 -322
q41 -38 103 -38q78 0 124 60.5t46 157.5q0 84 -38 142z" />
    <glyph glyph-name="ugrave" unicode="&#xf9;" horiz-adv-x="581" 
d="M232 -11q-77 0 -117 41t-40 116v381h69v-369q0 -56 25.5 -83t79.5 -27q86 0 183 92v387h70v-527h-70v83q-96 -94 -200 -94zM280 583l-141 156h91l95 -156h-45z" />
    <glyph glyph-name="uacute" unicode="&#xfa;" horiz-adv-x="581" 
d="M232 -11q-77 0 -117 41t-40 116v381h69v-369q0 -56 25.5 -83t79.5 -27q86 0 183 92v387h70v-527h-70v83q-96 -94 -200 -94zM253 583l95 156h91l-141 -156h-45z" />
    <glyph glyph-name="ucircumflex" unicode="&#xfb;" horiz-adv-x="581" 
d="M232 -11q-77 0 -117 41t-40 116v381h69v-369q0 -56 25.5 -83t79.5 -27q86 0 183 92v387h70v-527h-70v83q-96 -94 -200 -94zM133 580l129 159h52l129 -159h-44l-112 98l-112 -98h-42z" />
    <glyph glyph-name="udieresis" unicode="&#xfc;" horiz-adv-x="581" 
d="M232 -11q-77 0 -117 41t-40 116v381h69v-369q0 -56 25.5 -83t79.5 -27q86 0 183 92v387h70v-527h-70v83q-96 -94 -200 -94zM339 583v82h77v-82h-77zM163 583v82h77v-82h-77z" />
    <glyph glyph-name="yacute" unicode="&#xfd;" horiz-adv-x="527" 
d="M98 -202q-48 0 -87 11l16 57q30 -8 73 -8q42 0 66.5 19t41.5 62l22 58l-204 530h74l164 -445h2l163 445h72l-227 -588q-28 -75 -66 -108t-110 -33zM183 583l95 156h91l-141 -156h-45z" />
    <glyph glyph-name="thorn" unicode="&#xfe;" horiz-adv-x="593" 
d="M80 -200v940h69v-288q79 85 176 85q96 0 156.5 -70.5t60.5 -202.5q0 -133 -62 -203t-161 -70q-91 0 -170 81v-272h-69zM313 49q73 0 116.5 53.5t43.5 160.5q0 105 -45 160t-115 55q-82 0 -164 -87v-256q81 -86 164 -86z" />
    <glyph glyph-name="ydieresis" unicode="&#xff;" horiz-adv-x="527" 
d="M98 -202q-48 0 -87 11l16 57q30 -8 73 -8q42 0 66.5 19t41.5 62l22 58l-204 530h74l164 -445h2l163 445h72l-227 -588q-28 -75 -66 -108t-110 -33zM314 583v82h77v-82h-77zM138 583v82h77v-82h-77z" />
    <glyph glyph-name="dotlessi" unicode="&#x131;" horiz-adv-x="240" 
d="M86 0v527h69v-527h-69z" />
    <glyph glyph-name="Lslash" unicode="&#x141;" horiz-adv-x="565" 
d="M96 0v347l-86 -23v60l86 23v333h71v-314l158 43v-60l-158 -43v-301h361v-65h-432z" />
    <glyph glyph-name="lslash" unicode="&#x142;" horiz-adv-x="296" 
d="M113 0v347l-92 -24v56l92 24v337h70v-319l95 26v-56l-95 -26v-365h-70z" />
    <glyph glyph-name="OE" unicode="&#x152;" horiz-adv-x="1119" 
d="M371 -14q-136 0 -224 106t-88 278t88 278t224 106q84 0 146.5 -42t97.5 -114v142h437v-66h-371v-251h277v-64h-277v-294h392v-65h-458v144q-35 -73 -98 -115.5t-146 -42.5zM371 50q106 0 173 86t67 234t-67 233.5t-173 85.5q-107 0 -174 -85.5t-67 -233.5t67 -234
t174 -86z" />
    <glyph glyph-name="oe" unicode="&#x153;" horiz-adv-x="946" 
d="M287 -11q-101 0 -169 73.5t-68 200.5q0 128 67.5 201t169.5 73q70 0 123 -38t78 -101q24 62 77 100.5t118 38.5q95 0 154 -71.5t59 -202.5v-11h-375q1 -96 47.5 -150.5t117.5 -54.5q57 0 93.5 23.5t68.5 72.5l44 -34q-76 -120 -210 -120q-65 0 -118.5 38.5t-76.5 99.5
q-26 -63 -78.5 -100.5t-121.5 -37.5zM523 305h305q-6 79 -42.5 126.5t-104.5 47.5q-61 0 -105 -44.5t-53 -129.5zM287 48q78 0 123 59.5t45 156.5q0 91 -44 152.5t-124 61.5q-78 0 -123 -59.5t-45 -154.5q0 -93 43.5 -154.5t124.5 -61.5z" />
    <glyph glyph-name="Scaron" unicode="&#x160;" horiz-adv-x="649" 
d="M330 -14q-103 0 -174 52.5t-98 143.5l63 23q50 -156 212 -156q84 0 133.5 36t49.5 98q0 59 -39.5 94t-154.5 72q-131 41 -185.5 85t-54.5 130q0 80 65 135t165 55t163 -45.5t91 -124.5l-60 -28q-52 134 -195 134q-73 0 -116 -34.5t-43 -86.5q0 -60 41.5 -91t163.5 -70
q123 -39 176.5 -86.5t53.5 -133.5q0 -91 -72 -146.5t-185 -55.5zM297 796l-129 159h44l112 -98l113 98h42l-129 -159h-53z" />
    <glyph glyph-name="scaron" unicode="&#x161;" horiz-adv-x="506" 
d="M250 -10q-68 0 -122 26t-85 68l44 40q66 -76 164 -76q137 0 137 92q0 42 -32.5 64t-112.5 41q-98 24 -140.5 56.5t-42.5 97.5q0 59 48 98.5t131 39.5q117 0 195 -76l-39 -46q-65 65 -154 65q-58 0 -86 -22.5t-28 -55.5q0 -37 28.5 -57t99.5 -37q108 -26 154 -60t46 -107
q0 -71 -57 -111t-148 -40zM226 584l-129 159h44l112 -98l113 98h42l-129 -159h-53z" />
    <glyph glyph-name="Ydieresis" unicode="&#x178;" horiz-adv-x="618" 
d="M273 0v326l-248 414h77l208 -353l207 353h76l-249 -414v-326h-71zM358 786v82h77v-82h-77zM182 786v82h77v-82h-77z" />
    <glyph glyph-name="Zcaron" unicode="&#x17d;" horiz-adv-x="623" 
d="M42 0v51l444 629h-415v60h501v-52l-442 -628h442v-60h-530zM286 796l-129 159h44l112 -98l113 98h42l-129 -159h-53z" />
    <glyph glyph-name="zcaron" unicode="&#x17e;" horiz-adv-x="506" 
d="M41 0v44l321 425h-295v58h382v-45l-321 -425h335v-57h-422zM227 584l-129 159h44l112 -98l113 98h42l-129 -159h-53z" />
    <glyph glyph-name="florin" unicode="&#x192;" horiz-adv-x="333" 
d="M-96 -199l9 56q14 -2 33 -2q89 0 99 79l68 481h-92l7 56h92l18 135q18 135 171 135q23 0 39 -2l-9 -56q-7 1 -33 1q-90 0 -99 -76l-18 -137h116l-7 -56h-116l-68 -484q-19 -132 -170 -132q-22 0 -40 2z" />
    <glyph glyph-name="circumflex" unicode="&#x2c6;" horiz-adv-x="510" 
d="M100 580l129 159h52l129 -159h-44l-112 98l-112 -98h-42z" />
    <glyph glyph-name="caron" unicode="&#x2c7;" horiz-adv-x="510" 
d="M228 584l-129 159h44l112 -98l113 98h42l-129 -159h-53z" />
    <glyph glyph-name="breve" unicode="&#x2d8;" horiz-adv-x="500" 
d="M250 579q-66 0 -106 44t-44 120h44q13 -109 106 -109t106 109h44q-4 -76 -44 -120t-106 -44z" />
    <glyph glyph-name="dotaccent" unicode="&#x2d9;" horiz-adv-x="500" 
d="M208 586v80h84v-80h-84z" />
    <glyph glyph-name="ring" unicode="&#x2da;" horiz-adv-x="540" 
d="M270 576q-40 0 -65.5 26t-25.5 65t25.5 65t65.5 26t65.5 -26t25.5 -65t-25.5 -65t-65.5 -26zM270 611q23 0 38 15.5t15 40.5q0 24 -15 40t-38 16t-38 -16t-15 -40q0 -25 15 -40.5t38 -15.5z" />
    <glyph glyph-name="ogonek" unicode="&#x2db;" horiz-adv-x="500" 
d="M249 -187q-43 0 -68 20.5t-25 56.5q0 58 82 110h47q-71 -48 -71 -99q0 -48 52 -48q42 0 95 24l15 -26q-66 -38 -127 -38z" />
    <glyph glyph-name="tilde" unicode="&#x2dc;" horiz-adv-x="504" 
d="M326 580q-30 0 -79.5 28t-67.5 28q-22 0 -31.5 -12.5t-9.5 -41.5h-44q0 110 84 110q30 0 79.5 -28t68.5 -28q22 0 31.5 12.5t9.5 41.5h44q0 -110 -85 -110z" />
    <glyph glyph-name="hungarumlaut" unicode="&#x2dd;" horiz-adv-x="505" 
d="M243 583l97 156h93l-143 -156h-47zM82 583l95 156h93l-141 -156h-47z" />
    <glyph glyph-name="Delta" unicode="&#x394;" horiz-adv-x="574" 
d="M410 648v75h73v-75h-73zM119 0v468h-92v59h92v79q0 66 38 100.5t110 34.5q22 0 38 -2v-58q-16 2 -34 2q-83 0 -83 -76v-80h112v-59h-112v-468h-69zM370 -201q-27 0 -41 4v55q18 -4 32 -4q51 0 51 59v614h69v-615q0 -56 -26 -84.5t-85 -28.5z" />
    <glyph glyph-name="Omega" unicode="&#x3a9;" 
d="M188 178l-29 -2v62l32 -2l7 108l-188 -13v76l188 -12l-7 110l-32 -2v61l29 -2l-2 29h62l-2 -32l109 -6l-13 187h76l-12 -187l109 6l-2 32h61l-2 -29l30 2v-61l-33 1l-6 -109l187 12v-76l-187 13l6 -108l33 2v-62l-30 2l2 -30h-61l2 33l-109 7l12 -188h-76l13 188l-109 -7
l2 -33h-62zM517 507l-111 6v-118h117zM355 395v118l-112 -6l-5 -112h117zM406 344v-116l111 5l6 111h-117zM244 234l111 -6v116h-117z" />
    <glyph glyph-name="mu" unicode="&#x3bc;" horiz-adv-x="586" 
d="M80 -200v727h69v-369q0 -56 25.5 -83t79.5 -27q86 0 184 91v388h69v-527h-69v86q-96 -92 -189 -95q-70 -2 -100 35v-226h-69z" />
    <glyph glyph-name="pi" unicode="&#x3c0;" horiz-adv-x="863" 
d="M431 -14q-159 0 -270 112t-111 272t111 272t271 112q159 0 270 -112t111 -272t-111 -272t-271 -112zM432 27q141 0 239 100t98 243q0 142 -98.5 242.5t-239.5 100.5t-239 -100t-98 -243q0 -142 98.5 -242.5t239.5 -100.5zM306 159v424h144q71 0 109.5 -30t38.5 -87
q0 -61 -40 -91.5t-112 -30.5h-91v-185h-49zM355 389h93q101 0 101 75q0 74 -102 74h-92v-149z" />
    <glyph glyph-name="endash" unicode="&#x2013;" horiz-adv-x="643" 
d="M67 282v63h509v-63h-509z" />
    <glyph glyph-name="emdash" unicode="&#x2014;" horiz-adv-x="924" 
d="M67 282v63h790v-63h-790z" />
    <glyph glyph-name="quoteleft" unicode="&#x2018;" horiz-adv-x="268" 
d="M91 545v86l46 109h32l-24 -101h32v-94h-86z" />
    <glyph glyph-name="quoteright" unicode="&#x2019;" horiz-adv-x="268" 
d="M99 545l24 101h-32v94h86v-87l-46 -108h-32z" />
    <glyph glyph-name="quotesinglbase" unicode="&#x201a;" horiz-adv-x="268" 
d="M99 -101l24 101h-32v94h86v-87l-46 -108h-32z" />
    <glyph glyph-name="quotedblleft" unicode="&#x201c;" horiz-adv-x="453" 
d="M276 545v86l46 109h32l-24 -101h31v-94h-85zM91 545v86l46 109h32l-24 -101h32v-94h-86z" />
    <glyph glyph-name="quotedblright" unicode="&#x201d;" horiz-adv-x="453" 
d="M283 545l25 101h-32v94h85v-87l-46 -108h-32zM99 545l24 101h-32v94h86v-87l-46 -108h-32z" />
    <glyph glyph-name="quotedblbase" unicode="&#x201e;" horiz-adv-x="453" 
d="M283 -101l25 101h-32v94h85v-87l-46 -108h-32zM99 -101l24 101h-32v94h86v-87l-46 -108h-32z" />
    <glyph glyph-name="dagger" unicode="&#x2020;" horiz-adv-x="556" 
d="M240 -200l13 623l-204 -10v67l204 -11l-13 271h76l-13 -271l204 11v-67l-204 10l13 -623h-76z" />
    <glyph glyph-name="daggerdbl" unicode="&#x2021;" horiz-adv-x="556" 
d="M240 -200l13 239l-196 -11v66l196 -11l-9 189l9 186l-196 -11v66l196 -11l-13 238h76l-13 -238l196 11v-66l-196 11l9 -186l-9 -189l196 11v-66l-196 11l13 -239h-76z" />
    <glyph glyph-name="bullet" unicode="&#x2022;" horiz-adv-x="463" 
d="M231 233q-51 0 -84 33t-33 84q0 52 33 85t84 33q52 0 85 -33t33 -85q0 -51 -33 -84t-85 -33z" />
    <glyph glyph-name="ellipsis" unicode="&#x2026;" horiz-adv-x="804" 
d="M627 0v94h87v-94h-87zM359 0v94h87v-94h-87zM91 0v94h86v-94h-86z" />
    <glyph glyph-name="perthousand" unicode="&#x2030;" horiz-adv-x="1379" 
d="M228 306q-79 0 -122.5 60t-43.5 160q0 103 45.5 164t121.5 61t120.5 -60t44.5 -161q0 -100 -44.5 -162t-121.5 -62zM232 0l442 740h64l-442 -740h-64zM1150 -10q-78 0 -122 60.5t-44 159.5q0 103 45.5 163.5t122.5 60.5q76 0 120.5 -59.5t44.5 -161.5q0 -99 -45 -161
t-122 -62zM742 -10q-79 0 -122.5 60t-43.5 160q0 103 45 163.5t122 60.5q76 0 120.5 -59.5t44.5 -161.5q0 -99 -44.5 -161t-121.5 -62zM229 362q48 0 75 46.5t27 119.5q0 76 -27 121.5t-76 45.5t-76 -46.5t-27 -118.5q0 -77 27.5 -122.5t76.5 -45.5zM1151 45q49 0 75.5 47
t26.5 120q0 77 -27 122t-76 45t-75.5 -46.5t-26.5 -119.5q0 -77 27 -122.5t76 -45.5zM742 45q49 0 75.5 47t26.5 120q0 76 -26.5 121.5t-75.5 45.5t-76 -46.5t-27 -119.5q0 -77 27 -122.5t76 -45.5z" />
    <glyph glyph-name="guilsinglleft" unicode="&#x2039;" horiz-adv-x="324" 
d="M193 0l-148 264l148 263h72l-145 -263l145 -264h-72z" />
    <glyph glyph-name="guilsinglright" unicode="&#x203a;" horiz-adv-x="324" 
d="M58 0l146 264l-146 263h72l149 -263l-149 -264h-72z" />
    <glyph glyph-name="fraction" unicode="&#x2044;" horiz-adv-x="466" 
d="M-15 0l431 740h65l-431 -740h-65z" />
    <glyph glyph-name="Euro" unicode="&#x20ac;" horiz-adv-x="717" 
d="M141 417h-120v55h126q21 139 95.5 210.5t174.5 71.5q97 0 152.5 -55t82.5 -156l-65 -19q-25 88 -60.5 127.5t-110.5 39.5q-76 0 -130 -55t-70 -164h227v-55h-233q-1 -13 -1 -39q0 -22 2 -56h232v-57h-226q16 -106 68 -161.5t133 -55.5q73 0 114.5 43.5t65.5 133.5l65 -17
q-59 -222 -246 -222q-105 0 -176.5 70.5t-92.5 208.5h-127v57h121q-2 32 -2 52q0 8 0.5 22t0.5 21z" />
    <glyph glyph-name="trademark" unicode="&#x2122;" horiz-adv-x="876" 
d="M421 317v423h69l127 -353l129 353h70v-423h-54v332l-123 -332h-45l-123 332v-332h-50zM162 317v376h-132v47h316v-47h-131v-376h-53z" />
    <glyph glyph-name="partialdiff" unicode="&#x2202;" 
d="M188 178l-29 -2v62l32 -2l7 108l-188 -13v76l188 -12l-7 110l-32 -2v61l29 -2l-2 29h62l-2 -32l109 -6l-13 187h76l-12 -187l109 6l-2 32h61l-2 -29l30 2v-61l-33 1l-6 -109l187 12v-76l-187 13l6 -108l33 2v-62l-30 2l2 -30h-61l2 33l-109 7l12 -188h-76l13 188l-109 -7
l2 -33h-62zM517 507l-111 6v-118h117zM355 395v118l-112 -6l-5 -112h117zM406 344v-116l111 5l6 111h-117zM244 234l111 -6v116h-117z" />
    <glyph glyph-name="product" unicode="&#x220f;" horiz-adv-x="547" 
d="M273 291q-97 0 -164 67.5t-67 165.5q0 97 67.5 164.5t164.5 67.5t164 -67.5t67 -164.5q0 -98 -67.5 -165.5t-164.5 -67.5zM274 321q83 0 141.5 59t58.5 144q0 84 -58.5 143.5t-142.5 59.5q-83 0 -141 -59.5t-58 -143.5q0 -85 58 -144t142 -59zM188 399v258h89
q44 0 68 -18.5t24 -53.5q0 -58 -56 -71l63 -115l-39 1l-60 110h-53v-111h-36zM224 540h52q58 0 58 44q0 40 -59 40h-51v-84z" />
    <glyph glyph-name="summation" unicode="&#x2211;" 
d="M188 178l-29 -2v62l32 -2l7 108l-188 -13v76l188 -12l-7 110l-32 -2v61l29 -2l-2 29h62l-2 -32l109 -6l-13 187h76l-12 -187l109 6l-2 32h61l-2 -29l30 2v-61l-33 1l-6 -109l187 12v-76l-187 13l6 -108l33 2v-62l-30 2l2 -30h-61l2 33l-109 7l12 -188h-76l13 188l-109 -7
l2 -33h-62zM517 507l-111 6v-118h117zM355 395v118l-112 -6l-5 -112h117zM406 344v-116l111 5l6 111h-117zM244 234l111 -6v116h-117z" />
    <glyph glyph-name="minus" unicode="&#x2212;" horiz-adv-x="636" 
d="M66 299v60h505v-60h-505z" />
    <glyph glyph-name="radical" unicode="&#x221a;" horiz-adv-x="578" 
d="M220 -2l-194 529h74l156 -445h2l232 658h71l-272 -742h-69z" />
    <glyph glyph-name="infinity" unicode="&#x221e;" horiz-adv-x="859" 
d="M703 648v75h73v-75h-73zM119 0v468h-92v59h92v79q0 66 38 100.5t110 34.5q22 0 38 -2v-58q-16 2 -34 2q-83 0 -83 -76v-80h224v77q0 67 38.5 102t109.5 35q22 0 38 -2v-58q-16 2 -33 2q-84 0 -84 -76v-80h112v-59h-112v-468h-69v468h-224v-468h-69zM705 0v527h69v-527
h-69z" />
    <glyph glyph-name="integral" unicode="&#x222b;" 
d="M188 178l-29 -2v62l32 -2l7 108l-188 -13v76l188 -12l-7 110l-32 -2v61l29 -2l-2 29h62l-2 -32l109 -6l-13 187h76l-12 -187l109 6l-2 32h61l-2 -29l30 2v-61l-33 1l-6 -109l187 12v-76l-187 13l6 -108l33 2v-62l-30 2l2 -30h-61l2 33l-109 7l12 -188h-76l13 188l-109 -7
l2 -33h-62zM517 507l-111 6v-118h117zM355 395v118l-112 -6l-5 -112h117zM406 344v-116l111 5l6 111h-117zM244 234l111 -6v116h-117z" />
    <glyph glyph-name="approxequal" unicode="&#x2248;" 
d="M188 178l-29 -2v62l32 -2l7 108l-188 -13v76l188 -12l-7 110l-32 -2v61l29 -2l-2 29h62l-2 -32l109 -6l-13 187h76l-12 -187l109 6l-2 32h61l-2 -29l30 2v-61l-33 1l-6 -109l187 12v-76l-187 13l6 -108l33 2v-62l-30 2l2 -30h-61l2 33l-109 7l12 -188h-76l13 188l-109 -7
l2 -33h-62zM517 507l-111 6v-118h117zM355 395v118l-112 -6l-5 -112h117zM406 344v-116l111 5l6 111h-117zM244 234l111 -6v116h-117z" />
    <glyph glyph-name="notequal" unicode="&#x2260;" horiz-adv-x="625" 
d="M119 0v468h-92v59h92v79q0 66 38 100.5t110 34.5q22 0 38 -2v-58q-8 2 -34 2q-83 0 -83 -76v-80h224v77q0 137 152 137q23 0 39 -2v-58q-16 2 -35 2q-87 0 -87 -76v-80h116v-59h-116v-468h-69v468h-224v-468h-69z" />
    <glyph glyph-name="lessequal" unicode="&#x2264;" 
d="M188 178l-29 -2v62l32 -2l7 108l-188 -13v76l188 -12l-7 110l-32 -2v61l29 -2l-2 29h62l-2 -32l109 -6l-13 187h76l-12 -187l109 6l-2 32h61l-2 -29l30 2v-61l-33 1l-6 -109l187 12v-76l-187 13l6 -108l33 2v-62l-30 2l2 -30h-61l2 33l-109 7l12 -188h-76l13 188l-109 -7
l2 -33h-62zM517 507l-111 6v-118h117zM355 395v118l-112 -6l-5 -112h117zM406 344v-116l111 5l6 111h-117zM244 234l111 -6v116h-117z" />
    <glyph glyph-name="greaterequal" unicode="&#x2265;" 
d="M188 178l-29 -2v62l32 -2l7 108l-188 -13v76l188 -12l-7 110l-32 -2v61l29 -2l-2 29h62l-2 -32l109 -6l-13 187h76l-12 -187l109 6l-2 32h61l-2 -29l30 2v-61l-33 1l-6 -109l187 12v-76l-187 13l6 -108l33 2v-62l-30 2l2 -30h-61l2 33l-109 7l12 -188h-76l13 188l-109 -7
l2 -33h-62zM517 507l-111 6v-118h117zM355 395v118l-112 -6l-5 -112h117zM406 344v-116l111 5l6 111h-117zM244 234l111 -6v116h-117z" />
    <glyph glyph-name="lozenge" unicode="&#x25ca;" 
d="M188 178l-29 -2v62l32 -2l7 108l-188 -13v76l188 -12l-7 110l-32 -2v61l29 -2l-2 29h62l-2 -32l109 -6l-13 187h76l-12 -187l109 6l-2 32h61l-2 -29l30 2v-61l-33 1l-6 -109l187 12v-76l-187 13l6 -108l33 2v-62l-30 2l2 -30h-61l2 33l-109 7l12 -188h-76l13 188l-109 -7
l2 -33h-62zM517 507l-111 6v-118h117zM355 395v118l-112 -6l-5 -112h117zM406 344v-116l111 5l6 111h-117zM244 234l111 -6v116h-117z" />
    <glyph glyph-name="fi" unicode="&#xfb01;" horiz-adv-x="574" 
d="M410 648v75h73v-75h-73zM119 0v468h-92v59h92v79q0 66 38 100.5t110 34.5q22 0 38 -2v-58q-16 2 -34 2q-83 0 -83 -76v-80h112v-59h-112v-468h-69zM412 0v527h69v-527h-69z" />
    <glyph glyph-name="fl" unicode="&#xfb02;" horiz-adv-x="574" 
d="M412 0v740h69v-740h-69zM119 0v468h-92v59h92v79q0 66 38 100.5t110 34.5q22 0 38 -2v-58q-16 2 -34 2q-83 0 -83 -76v-80h112v-59h-112v-468h-69z" />
    <glyph glyph-name="NUL" horiz-adv-x="0" 
 />
    <glyph glyph-name="apple" 
d="M188 178l-29 -2v62l32 -2l7 108l-188 -13v76l188 -12l-7 110l-32 -2v61l29 -2l-2 29h62l-2 -32l109 -6l-13 187h76l-12 -187l109 6l-2 32h61l-2 -29l30 2v-61l-33 1l-6 -109l187 12v-76l-187 13l6 -108l33 2v-62l-30 2l2 -30h-61l2 33l-109 7l12 -188h-76l13 188l-109 -7
l2 -33h-62zM517 507l-111 6v-118h117zM355 395v118l-112 -6l-5 -112h117zM406 344v-116l111 5l6 111h-117zM244 234l111 -6v116h-117z" />
  </font>
</defs>
</svg>
