<?xml version="1.0" standalone="no"?>
<!DOCTYPE svg PUBLIC "-//W3C//DTD SVG 1.1//EN" "http://www.w3.org/Graphics/SVG/1.1/DTD/svg11.dtd" >
<svg xmlns="http://www.w3.org/2000/svg" xmlns:xlink="http://www.w3.org/1999/xlink" version="1.1">
<metadata>
Created by FontForge 20170731 at Sat Jan  1 08:00:02 2005
 By Aleksey,,,
[c] Copyright 2000-2003, The Font Bureau, Inc. Designed by Cyrus Highsmith, Tobias Frere-Jones, and Font Bureau. All rights reserved.
</metadata>
<defs>
<font id="BentonSans-Bold" horiz-adv-x="577" >
  <font-face 
    font-family="BentonSans"
    font-weight="700"
    font-stretch="normal"
    units-per-em="1000"
    panose-1="2 0 8 3 0 0 0 0 0 0"
    ascent="800"
    descent="-200"
    x-height="533"
    cap-height="740"
    bbox="-90 -205 1511 960"
    underline-thickness="20"
    underline-position="-173"
    unicode-range="U+0020-FFFD"
  />
<missing-glyph horiz-adv-x="500" 
 />
    <glyph glyph-name=".notdef" unicode="&#xfffd;" horiz-adv-x="500" 
 />
    <glyph glyph-name=".null" horiz-adv-x="0" 
 />
    <glyph glyph-name="nonmarkingreturn" horiz-adv-x="333" 
 />
    <glyph glyph-name="space" unicode=" " horiz-adv-x="269" 
 />
    <glyph glyph-name="exclam" unicode="!" horiz-adv-x="357" 
d="M122 234l-41 506h202l-40 -506h-121zM96 0v148h172v-148h-172z" />
    <glyph glyph-name="quotedbl" unicode="&#x22;" horiz-adv-x="460" 
d="M277 470l-17 196v74h136v-74l-17 -196h-102zM80 470l-17 196v74h137v-74l-17 -196h-103z" />
    <glyph glyph-name="numbersign" unicode="#" horiz-adv-x="763" 
d="M96 0l39 186h-110v119h135l27 130h-119v119h144l39 186h144l-39 -186h112l39 186h144l-39 -186h125v-119h-150l-27 -130h134v-119h-159l-39 -186h-144l39 186h-111l-40 -186h-144zM304 305h112l27 130h-111z" />
    <glyph glyph-name="dollar" unicode="$" horiz-adv-x="683" 
d="M294 -9q-164 16 -251 159l109 70q37 -51 69 -79t78 -37v212q-42 10 -72 20t-63 28t-53.5 39.5t-34 54.5t-13.5 74q0 94 62 152t169 66v69h96v-72q136 -18 215 -132l-108 -78q-25 37 -50 59t-60 32v-195q120 -28 182 -76.5t62 -145.5q0 -88 -60 -148.5t-181 -71.5v-84h-96
v84zM299 634q-44 -6 -66 -29.5t-22 -58.5t21 -55.5t67 -34.5v178zM387 103q96 14 96 93q0 37 -23 59.5t-73 37.5v-190z" />
    <glyph glyph-name="percent" unicode="%" horiz-adv-x="1108" 
d="M244 268q-94 0 -147.5 65.5t-53.5 176.5t54 176.5t147 65.5q92 0 145.5 -65.5t53.5 -175.5t-53.5 -176.5t-145.5 -66.5zM264 0l442 740h138l-442 -740h-138zM865 -10q-93 0 -146.5 66t-53.5 176q0 111 54 177t147 66q92 0 145.5 -66t53.5 -176t-53.5 -176.5t-146.5 -66.5
zM244 369q67 0 67 141q0 139 -67 139q-69 0 -69 -138q0 -142 69 -142zM866 92q67 0 67 141q0 138 -68 138t-68 -138q0 -141 69 -141z" />
    <glyph glyph-name="ampersand" unicode="&#x26;" horiz-adv-x="743" 
d="M295 -14q-135 0 -207 52.5t-72 144.5q0 82 45 132.5t125 88.5q-47 91 -47 163q0 79 53.5 133t156.5 54q95 0 143.5 -47t48.5 -115q0 -76 -45 -124t-126 -88q8 -12 45 -58q47 -58 81 -91q37 63 47 150h137q-19 -135 -76 -227q60 -33 136 -33v-131q-138 1 -236 57
q-88 -61 -209 -61zM319 465q88 50 88 121q0 26 -13.5 44.5t-41.5 18.5t-46.5 -19t-18.5 -54q0 -52 32 -111zM296 98q55 0 101 29q-44 42 -101 114q-26 33 -52 69q-65 -44 -65 -104q0 -51 32 -79.5t85 -28.5z" />
    <glyph glyph-name="quotesingle" unicode="'" horiz-adv-x="264" 
d="M80 470l-17 196v74h137v-74l-17 -196h-103z" />
    <glyph glyph-name="parenleft" unicode="(" horiz-adv-x="404" 
d="M300 -205q-127 107 -191.5 225.5t-64.5 264.5t64.5 264.5t191.5 225.5l74 -78q-162 -180 -162 -412q0 -238 167 -417z" />
    <glyph glyph-name="parenright" unicode=")" horiz-adv-x="404" 
d="M104 -205l-79 73q166 179 166 417q0 233 -162 412l75 78q127 -107 191 -225.5t64 -264.5t-64 -264.5t-191 -225.5z" />
    <glyph glyph-name="asterisk" unicode="*" horiz-adv-x="508" 
d="M183 302l-84 50l93 135l-165 -11v94l166 -12l-94 136l84 50l71 -149l71 149l85 -50l-94 -136l165 12v-94l-165 11l94 -135l-84 -50l-72 149z" />
    <glyph glyph-name="plus" unicode="+" horiz-adv-x="646" 
d="M259 87v200h-192v127h192v200h128v-200h192v-127h-192v-200h-128z" />
    <glyph glyph-name="comma" unicode="," horiz-adv-x="282" 
d="M78 -120l42 120h-65v155h172v-133l-74 -142h-75z" />
    <glyph glyph-name="hyphen" unicode="-" horiz-adv-x="357" 
d="M47 260v108h263v-108h-263z" />
    <glyph glyph-name="period" unicode="." horiz-adv-x="282" 
d="M55 0v155h172v-155h-172z" />
    <glyph glyph-name="slash" unicode="/" horiz-adv-x="641" 
d="M23 0l430 740h165l-430 -740h-165z" />
    <glyph glyph-name="zero" unicode="0" horiz-adv-x="696" 
d="M348 -14q-144 0 -226 104.5t-82 279.5t82 279.5t226 104.5t225.5 -104t81.5 -280t-81.5 -280t-225.5 -104zM348 113q71 0 108.5 65.5t37.5 191.5q0 125 -37.5 189.5t-108.5 64.5q-146 0 -146 -254q0 -126 38 -191.5t108 -65.5z" />
    <glyph glyph-name="one" unicode="1" horiz-adv-x="458" 
d="M32 0v127h134v466q-64 -34 -132 -34v133q88 3 136 48h153v-613h117v-127h-408z" />
    <glyph glyph-name="two" unicode="2" horiz-adv-x="614" 
d="M26 0v16q0 45 7.5 81t29.5 79t68 87t116 89q98 62 129 93t31 83q0 42 -25.5 66t-71.5 24q-44 0 -87 -28t-75 -78l-115 81q105 161 282 161q118 0 184 -58t66 -157q0 -70 -33 -126.5t-131 -118.5q-88 -56 -133.5 -96t-48.5 -71h351v-127h-544z" />
    <glyph glyph-name="three" unicode="3" horiz-adv-x="623" 
d="M299 -14q-184 0 -288 127l101 90q35 -43 83.5 -65.5t96.5 -22.5q62 0 94.5 26.5t32.5 76.5q0 60 -43 84.5t-134 24.5h-37v119h40q93 0 126 25t33 68q0 82 -107 82q-94 0 -167 -70l-89 102q49 47 122.5 73.5t152.5 26.5q120 0 184.5 -49.5t64.5 -139.5q0 -66 -38 -111.5
t-107 -60.5q82 -13 125.5 -62.5t43.5 -121.5q0 -103 -79.5 -162.5t-210.5 -59.5z" />
    <glyph glyph-name="four" unicode="4" horiz-adv-x="676" 
d="M381 0v145h-359v118l337 477h179v-467h125v-128h-125v-145h-157zM190 273h191v273h-2z" />
    <glyph glyph-name="five" unicode="5" horiz-adv-x="609" 
d="M293 -14q-168 0 -277 98l82 107q83 -76 185 -76q71 0 106 35.5t35 95.5q0 64 -33 99t-95 35q-79 0 -136 -71l-105 33l30 398h449l-8 -123h-316l-14 -164q48 46 149 46q115 0 178 -68t63 -179q0 -120 -79 -193t-214 -73z" />
    <glyph glyph-name="six" unicode="6" horiz-adv-x="654" 
d="M342 -14q-136 0 -219 97t-83 274q0 102 28.5 181t76.5 124.5t104 68.5t117 23q127 0 215 -62l-69 -110q-64 43 -139 43q-72 0 -119.5 -57t-54.5 -158q87 67 185 67q105 0 172 -58.5t67 -176.5q0 -115 -77.5 -185.5t-203.5 -70.5zM349 109q57 0 89 36.5t32 89.5
t-27.5 87.5t-91.5 34.5q-88 0 -152 -62q12 -186 150 -186z" />
    <glyph glyph-name="seven" unicode="7" horiz-adv-x="539" 
d="M81 0l283 609h-352v131h518v-120l-285 -620h-164z" />
    <glyph glyph-name="eight" unicode="8" horiz-adv-x="638" 
d="M319 -14q-140 0 -219 54.5t-79 150.5q0 66 45.5 115.5t118.5 79.5q-66 34 -98 74.5t-32 106.5q0 76 70 131.5t194 55.5q127 0 195 -55.5t68 -131.5q0 -118 -128 -176q81 -36 121.5 -79.5t40.5 -120.5q0 -96 -79 -150.5t-218 -54.5zM330 444q51 25 73 49t22 59
q0 34 -26 60.5t-79 26.5q-54 0 -80.5 -24.5t-26.5 -59.5q0 -39 28 -63t89 -48zM319 97q62 0 98 29.5t36 73.5q0 41 -33 69t-113 60q-122 -59 -122 -129q0 -44 36 -73.5t98 -29.5z" />
    <glyph glyph-name="nine" unicode="9" horiz-adv-x="654" 
d="M288 -14q-131 0 -220 65l70 106q67 -46 143 -46q72 0 119 59t54 160q-87 -67 -185 -67q-105 0 -171.5 59t-66.5 176q0 115 77.5 185.5t203.5 70.5q136 0 218.5 -97t82.5 -274q0 -102 -28.5 -181t-76 -124.5t-103.5 -68.5t-117 -23zM303 383q89 0 151 62q-10 182 -149 182
q-58 0 -89.5 -34.5t-31.5 -87.5q0 -122 119 -122z" />
    <glyph glyph-name="colon" unicode=":" horiz-adv-x="295" 
d="M61 378v155h173v-155h-173zM61 0v155h173v-155h-173z" />
    <glyph glyph-name="semicolon" unicode=";" horiz-adv-x="295" 
d="M61 378v155h173v-155h-173zM82 -120l43 120h-64v155h173v-129l-77 -146h-75z" />
    <glyph glyph-name="less" unicode="&#x3c;" horiz-adv-x="646" 
d="M589 48l-529 232v88l529 232v-132l-357 -144l357 -144v-132z" />
    <glyph glyph-name="equal" unicode="=" horiz-adv-x="646" 
d="M70 385v114h505v-114h-505zM70 157v114h505v-114h-505z" />
    <glyph glyph-name="greater" unicode="&#x3e;" horiz-adv-x="646" 
d="M62 48v132l357 144l-357 144v132l529 -232v-88z" />
    <glyph glyph-name="question" unicode="?" horiz-adv-x="594" 
d="M211 232q-4 36 -4 72q0 95 106 152q44 25 62 46t18 56q0 31 -25 49.5t-69 18.5q-47 0 -94 -25t-78 -62l-97 91q111 124 286 124q111 0 173 -50.5t62 -132.5q0 -64 -31 -103.5t-87 -69.5q-65 -33 -77.5 -59.5t-12.5 -106.5h-132zM191 0v148h172v-148h-172z" />
    <glyph glyph-name="at" unicode="@" horiz-adv-x="868" 
d="M425 -14q-174 0 -278.5 107t-104.5 275t109.5 277t284.5 109q174 0 282 -104.5t108 -269.5q0 -103 -52 -165.5t-145 -62.5q-104 0 -133 89q-72 -76 -157 -76q-62 0 -98 40.5t-36 113.5q0 120 55.5 194t135.5 74q74 0 116 -51l7 43h122l-49 -298q-12 -63 55 -63
q48 0 78 42t30 116q0 138 -87.5 223.5t-232.5 85.5t-231 -88t-86 -229t84.5 -230.5t227.5 -89.5q112 0 188 51l34 -49q-91 -64 -227 -64zM392 258q41 0 81 40l25 154q-31 34 -72 34q-47 0 -72.5 -45.5t-25.5 -108.5q0 -37 14.5 -55.5t49.5 -18.5z" />
    <glyph glyph-name="A" unicode="A" horiz-adv-x="713" 
d="M17 0l262 743h155l262 -743h-165l-55 165h-252l-57 -165h-150zM264 283h174l-85 252h-2z" />
    <glyph glyph-name="B" unicode="B" horiz-adv-x="713" 
d="M76 0v740h296q264 0 264 -183q0 -74 -39.5 -116t-101.5 -54v-2q161 -29 161 -181q0 -104 -77 -154t-192 -50h-311zM236 435h120q124 0 124 89q0 90 -122 90h-122v-179zM236 124h131q130 0 130 99q0 97 -137 97h-124v-196z" />
    <glyph glyph-name="C" unicode="C" horiz-adv-x="729" 
d="M377 -14q-151 0 -243.5 98t-92.5 287q0 185 94.5 284t241.5 99q244 0 300 -233l-154 -45q-20 70 -53 106.5t-94 36.5q-83 0 -127.5 -66t-44.5 -182q0 -118 45.5 -186t128.5 -68q63 0 99.5 38.5t56.5 117.5l153 -34q-61 -253 -310 -253z" />
    <glyph glyph-name="D" unicode="D" horiz-adv-x="740" 
d="M76 0v740h227q88 0 158 -19.5t124.5 -61.5t84 -114.5t29.5 -170.5q0 -101 -30 -175t-85 -116.5t-124.5 -62.5t-156.5 -20h-227zM238 132h76q120 0 171 56.5t51 183.5q0 120 -52 176t-172 56h-74v-472z" />
    <glyph glyph-name="E" unicode="E" horiz-adv-x="633" 
d="M76 0v740h504v-136h-341v-159h247v-129h-247v-184h359v-132h-522z" />
    <glyph glyph-name="F" unicode="F" horiz-adv-x="586" 
d="M76 0v740h489v-136h-326v-180h232v-129h-232v-295h-163z" />
    <glyph glyph-name="G" unicode="G" horiz-adv-x="761" 
d="M365 -14q-161 0 -242.5 105.5t-81.5 281.5q0 175 91 278t246 103q113 0 189.5 -54.5t109.5 -182.5l-149 -41q-23 76 -59 109.5t-92 33.5q-21 0 -41.5 -5t-45 -21t-42.5 -41.5t-30.5 -71t-12.5 -104.5q0 -74 16.5 -127.5t44 -80.5t56.5 -39t62 -12q60 0 100.5 35.5
t51.5 97.5h-129v121h284v-371h-131v102h-2q-15 -41 -66 -78.5t-127 -37.5z" />
    <glyph glyph-name="H" unicode="H" horiz-adv-x="769" 
d="M76 0v740h163v-287h291v287h163v-740h-163v316h-291v-316h-163z" />
    <glyph glyph-name="I" unicode="I" horiz-adv-x="330" 
d="M84 0v740h162v-740h-162z" />
    <glyph glyph-name="J" unicode="J" horiz-adv-x="535" 
d="M226 -14q-127 0 -216 82l91 102q60 -54 117 -54q92 0 92 127v497h163v-522q0 -109 -60 -170.5t-187 -61.5z" />
    <glyph glyph-name="K" unicode="K" horiz-adv-x="718" 
d="M76 0v740h163v-306l248 306h190l-251 -289l277 -451h-184l-199 328l-81 -91v-237h-163z" />
    <glyph glyph-name="L" unicode="L" horiz-adv-x="586" 
d="M76 0v740h163v-608h326v-132h-489z" />
    <glyph glyph-name="M" unicode="M" horiz-adv-x="908" 
d="M76 0v740h215l165 -544h2l154 544h220v-740h-157v505h-2q-11 -63 -41 -165l-111 -340h-144l-110 340q-27 90 -43 173h-2v-513h-146z" />
    <glyph glyph-name="N" unicode="N" horiz-adv-x="777" 
d="M76 0v740h163l310 -472h2v472h150v-740h-150l-323 476h-2v-476h-150z" />
    <glyph glyph-name="O" unicode="O" horiz-adv-x="780" 
d="M390 -14q-69 0 -130.5 24t-111 70t-78.5 121t-29 169t29 169t78.5 121t111 70t130.5 24q144 0 246 -100t102 -284t-102 -284t-246 -100zM390 117q85 0 135.5 68.5t50.5 184.5t-50 182.5t-136 66.5t-136 -66.5t-50 -182.5q0 -117 50 -185t136 -68z" />
    <glyph glyph-name="P" unicode="P" horiz-adv-x="676" 
d="M76 0v740h269q65 0 115 -10t94.5 -35t68.5 -73.5t24 -118.5q0 -240 -304 -240h-105v-263h-162zM238 389h111q74 0 106.5 27.5t32.5 82.5q0 54 -32.5 81t-106.5 27h-111v-218z" />
    <glyph glyph-name="Q" unicode="Q" horiz-adv-x="780" 
d="M540 -198q-110 0 -175 54.5t-68 141.5q-113 26 -185 122t-72 250q0 94 29 169t78.5 121t111 70t130.5 24q144 0 246 -100t102 -284q0 -159 -77.5 -256.5t-197.5 -119.5q14 -41 49.5 -52t104.5 -11h51v-129h-127zM389 117q85 0 135 68.5t50 184.5t-49.5 182.5t-135.5 66.5
q-87 0 -137 -66.5t-50 -182.5t50.5 -184.5t136.5 -68.5z" />
    <glyph glyph-name="R" unicode="R" horiz-adv-x="705" 
d="M76 0v740h278q291 0 291 -229q0 -164 -154 -211l165 -300h-172l-154 279h-94v-279h-160zM236 405h111q72 0 105.5 23.5t33.5 78.5q0 54 -33.5 77t-105.5 23h-111v-202z" />
    <glyph glyph-name="S" unicode="S" horiz-adv-x="692" 
d="M351 -14q-221 0 -315 182l123 73q31 -60 83.5 -93t116.5 -33q58 0 93.5 22t35.5 63q0 39 -35 62t-115 45q-126 35 -172 61q-98 55 -98 165q0 102 73 161.5t194 59.5q194 0 294 -152l-113 -86q-29 48 -78.5 76.5t-103.5 28.5q-51 0 -79 -20t-28 -54q0 -41 35 -62.5
t117 -44.5q50 -13 79 -22.5t70 -29t63.5 -41t39 -57t16.5 -79.5q0 -96 -75 -160.5t-221 -64.5z" />
    <glyph glyph-name="T" unicode="T" horiz-adv-x="648" 
d="M242 0v604h-220v136h604v-136h-221v-604h-163z" />
    <glyph glyph-name="U" unicode="U" horiz-adv-x="725" 
d="M363 -12q-150 0 -224.5 77.5t-74.5 217.5v457h163v-453q0 -167 138 -167q136 0 136 167v453h160v-456q0 -141 -74 -218.5t-224 -77.5z" />
    <glyph glyph-name="V" unicode="V" horiz-adv-x="698" 
d="M272 -3l-255 743h165l169 -529h2l175 529h153l-255 -743h-154z" />
    <glyph glyph-name="W" unicode="W" horiz-adv-x="956" 
d="M218 0l-197 740h164l78 -337q27 -102 36 -162h2q8 56 34 161l75 338h150l80 -340q30 -127 35 -159h2q6 43 33 157l75 342h150l-193 -740h-139l-117 515h-2l-125 -515h-141z" />
    <glyph glyph-name="X" unicode="X" horiz-adv-x="725" 
d="M32 0l237 391l-216 349h186l132 -222l125 222h168l-211 -350l240 -390h-181l-157 259l-152 -259h-171z" />
    <glyph glyph-name="Y" unicode="Y" horiz-adv-x="691" 
d="M264 0v314l-255 426h168l169 -288l170 288h166l-256 -426v-314h-162z" />
    <glyph glyph-name="Z" unicode="Z" horiz-adv-x="660" 
d="M30 0v112l386 493h-361v135h566v-116l-378 -492h378v-132h-591z" />
    <glyph glyph-name="bracketleft" unicode="[" horiz-adv-x="444" 
d="M69 -200v940h346v-112h-184v-716h184v-112h-346z" />
    <glyph glyph-name="backslash" unicode="\" horiz-adv-x="611" 
d="M438 0l-430 740h165l430 -740h-165z" />
    <glyph glyph-name="bracketright" unicode="]" horiz-adv-x="444" 
d="M28 -200v112h184v716h-184v112h346v-940h-346z" />
    <glyph glyph-name="asciicircum" unicode="^" horiz-adv-x="553" 
d="M93 592l129 171h108l129 -171h-91l-93 74l-90 -74h-92z" />
    <glyph glyph-name="underscore" unicode="_" horiz-adv-x="500" 
d="M0 -158v112h500v-112h-500z" />
    <glyph glyph-name="grave" unicode="`" horiz-adv-x="500" 
d="M246 590l-149 173h162l93 -173h-106z" />
    <glyph glyph-name="a" unicode="a" 
d="M178 -8q-64 0 -108 39t-44 105q0 93 82 144.5t256 65.5v13q0 64 -72 64q-90 0 -175 -66l-68 92q105 95 266 95q107 0 156.5 -52t49.5 -157v-205q0 -93 15 -130h-160q-12 38 -12 78q-77 -86 -186 -86zM242 113q76 0 122 46v99q-181 -19 -181 -94q0 -25 16 -38t43 -13z" />
    <glyph glyph-name="b" unicode="b" horiz-adv-x="624" 
d="M384 -8q-99 0 -162 71v-63h-161v740h161v-289q66 93 164 93q94 0 149.5 -71.5t55.5 -205.5t-56 -204.5t-151 -70.5zM329 113q50 0 75.5 39.5t25.5 113.5q0 145 -103 145q-53 0 -105 -52v-197q52 -49 107 -49z" />
    <glyph glyph-name="c" unicode="c" horiz-adv-x="555" 
d="M294 -11q-50 0 -94.5 14.5t-83 45.5t-61.5 87t-23 130q0 76 25 132.5t66 87t85.5 44.5t92.5 14q100 0 152.5 -44t79.5 -119l-135 -45q-15 49 -38.5 69.5t-60.5 20.5q-50 0 -78 -41.5t-28 -119.5q0 -75 25.5 -119t78.5 -44q75 0 105 95l133 -46q-66 -162 -241 -162z" />
    <glyph glyph-name="d" unicode="d" horiz-adv-x="624" 
d="M237 -8q-94 0 -149.5 68t-55.5 202q0 135 56.5 208.5t150.5 73.5q105 0 162 -78v274h161v-610q0 -94 16 -130h-165q-12 22 -12 80q-64 -88 -164 -88zM297 113q54 0 104 52v197q-52 49 -106 49q-102 0 -102 -148q0 -70 26 -110t78 -40z" />
    <glyph glyph-name="e" unicode="e" 
d="M304 -11q-55 0 -101.5 15t-86 46t-62 86.5t-22.5 129.5t26 130.5t67.5 87t86 45.5t88.5 15q46 0 85.5 -13t77.5 -44t60 -92.5t22 -147.5v-24h-353q11 -122 124 -122q88 0 158 64l62 -96q-94 -80 -232 -80zM194 318h207q-12 111 -102 111q-40 0 -68 -27.5t-37 -83.5z" />
    <glyph glyph-name="f" unicode="f" horiz-adv-x="405" 
d="M109 0v416h-89v117h89v37q0 37 7 65t25.5 54.5t57 40.5t95.5 14q66 0 97 -7v-112q-16 4 -47 4q-36 0 -55.5 -12.5t-19.5 -51.5v-32h116v-117h-116v-416h-160z" />
    <glyph glyph-name="g" unicode="g" horiz-adv-x="615" 
d="M271 -200q-150 0 -213 30.5t-63 89.5q0 69 92 107q-36 23 -36 64q0 60 77 109q-88 52 -88 153q0 83 64 137t176 54q115 0 179 -58q26 23 64.5 38t72.5 17v-123q-44 0 -90 -12q10 -23 10 -53q0 -84 -62.5 -137t-173.5 -53q-39 0 -82 9q-18 -15 -18 -27q0 -14 14 -19t46 -7
l80 -5q137 -5 197 -40.5t60 -110.5q0 -80 -84 -121.5t-222 -41.5zM282 252q43 0 67 26.5t24 68.5t-23.5 68.5t-67.5 26.5q-43 0 -67 -26.5t-24 -68.5t24.5 -68.5t66.5 -26.5zM297 -119q63 0 101 14.5t38 40.5q0 27 -26.5 38.5t-115.5 15.5l-84 4q-24 2 -35 3
q-30 -19 -30 -48q0 -35 35.5 -51.5t116.5 -16.5z" />
    <glyph glyph-name="h" unicode="h" horiz-adv-x="618" 
d="M61 0v740h161v-291q72 95 184 95q72 0 114 -38t42 -117v-389h-161v338q0 73 -62 73q-55 0 -117 -53v-358h-161z" />
    <glyph glyph-name="i" unicode="i" horiz-adv-x="294" 
d="M66 606v129h162v-129h-162zM67 0v533h160v-533h-160z" />
    <glyph glyph-name="j" unicode="j" horiz-adv-x="294" 
d="M66 606v129h162v-129h-162zM54 -203q-66 0 -98 7v109q18 -6 46 -6q33 0 49 17t16 56v553h160v-584q0 -32 -6 -55.5t-22.5 -47.5t-53 -36.5t-91.5 -12.5z" />
    <glyph glyph-name="k" unicode="k" horiz-adv-x="585" 
d="M61 0v740h161v-406l166 199h173l-174 -199l184 -334h-166l-118 217l-65 -73v-144h-161z" />
    <glyph glyph-name="l" unicode="l" horiz-adv-x="294" 
d="M67 0v740h160v-740h-160z" />
    <glyph glyph-name="m" unicode="m" horiz-adv-x="932" 
d="M61 0v533h161v-84q72 95 175 95q121 0 146 -95q74 95 176 95q78 0 117 -44t39 -119v-381h-161v338q0 38 -12 55.5t-46 17.5q-47 0 -107 -53v-358h-161v338q0 38 -12 55.5t-46 17.5q-46 0 -108 -53v-358h-161z" />
    <glyph glyph-name="n" unicode="n" horiz-adv-x="618" 
d="M62 0v533h161v-84q72 95 184 95q71 0 113 -38t42 -117v-389h-160v338q0 73 -63 73q-54 0 -116 -53v-358h-161z" />
    <glyph glyph-name="o" unicode="o" horiz-adv-x="609" 
d="M305 -11q-51 0 -97.5 14.5t-87 45.5t-64.5 87t-24 130q0 75 24 131t64.5 87t86.5 45.5t98 14.5q51 0 97 -14.5t86.5 -45.5t64.5 -87t24 -131q0 -74 -24 -130t-64 -87t-86.5 -45.5t-97.5 -14.5zM305 102q55 0 83 43.5t28 119.5q0 72 -27 116.5t-84 44.5q-56 0 -84 -43
t-28 -118q0 -73 27 -118t85 -45z" />
    <glyph glyph-name="p" unicode="p" horiz-adv-x="624" 
d="M61 -200v733h161v-81q67 92 164 92q94 0 149.5 -71.5t55.5 -205.5t-56 -204.5t-151 -70.5q-99 0 -162 71v-263h-161zM329 113q50 0 75.5 39.5t25.5 113.5q0 145 -103 145q-53 0 -105 -52v-197q52 -49 107 -49z" />
    <glyph glyph-name="q" unicode="q" horiz-adv-x="624" 
d="M401 -200v276q-67 -84 -164 -84q-94 0 -149.5 68t-55.5 202q0 135 56.5 208.5t150.5 73.5q103 0 162 -77v66h161v-733h-161zM297 113q54 0 104 52v197q-52 49 -106 49q-102 0 -102 -148q0 -70 26 -110t78 -40z" />
    <glyph glyph-name="r" unicode="r" horiz-adv-x="423" 
d="M61 0v533h161v-89h1q64 100 180 100h5l-2 -143q-18 3 -42 3q-86 0 -142 -73v-331h-161z" />
    <glyph glyph-name="s" unicode="s" horiz-adv-x="534" 
d="M271 -11q-153 0 -249 82l64 90q36 -32 86 -50.5t99 -18.5q39 0 62 13.5t23 38.5q0 27 -22.5 40.5t-78.5 23.5q-38 7 -61.5 12.5t-55 18t-49 29t-30.5 44t-13 63.5q0 79 58 124t149 45q140 0 234 -75l-63 -91q-85 58 -157 58q-34 0 -53 -12.5t-19 -34.5q0 -23 21.5 -35.5
t73.5 -21.5q50 -8 80 -16.5t65.5 -26t53 -47.5t17.5 -73q0 -91 -67 -135.5t-168 -44.5z" />
    <glyph glyph-name="t" unicode="t" horiz-adv-x="427" 
d="M285 -7q-47 0 -79.5 7t-52.5 19t-31 33t-14.5 43t-3.5 55v266h-89v117h89v183h160v-183h137v-117h-137v-231q0 -43 15.5 -59t58.5 -16q36 0 53 6v-115q-32 -8 -106 -8z" />
    <glyph glyph-name="u" unicode="u" horiz-adv-x="618" 
d="M212 -11q-72 0 -114 38t-42 117v389h161v-342q0 -74 63 -74q53 0 116 54v362h161v-533h-161v83q-73 -94 -184 -94z" />
    <glyph glyph-name="v" unicode="v" horiz-adv-x="540" 
d="M189 -1l-191 534h166l112 -355h2l112 355h151l-190 -534h-162z" />
    <glyph glyph-name="w" unicode="w" horiz-adv-x="775" 
d="M158 0l-156 533h162l46 -191q22 -87 35 -163h2q16 85 37 167l46 187h125l49 -190q16 -57 38 -164h2q17 88 37 162l49 192h143l-156 -533h-149l-80 325h-2l-80 -325h-148z" />
    <glyph glyph-name="x" unicode="x" horiz-adv-x="548" 
d="M11 0l183 275l-170 258h169l92 -147l87 147h162l-172 -258l180 -275h-168l-102 161l-99 -161h-162z" />
    <glyph glyph-name="y" unicode="y" horiz-adv-x="560" 
d="M145 -204q-85 0 -152 19l34 124q53 -14 101 -14q50 0 68 46l10 26l-204 536h166l117 -346h2l118 346h156l-224 -589q-29 -74 -72.5 -111t-119.5 -37z" />
    <glyph glyph-name="z" unicode="z" horiz-adv-x="530" 
d="M29 0v83l258 333h-239v117h438v-85l-259 -334h279v-114h-477z" />
    <glyph glyph-name="braceleft" unicode="{" horiz-adv-x="441" 
d="M278 -200q-67 0 -104.5 40.5t-37.5 107.5v145q0 70 -25.5 95t-85.5 25v114q60 0 85.5 25t25.5 95v145q0 67 37.5 107.5t104.5 40.5h142v-112h-44q-78 0 -78 -79v-124q0 -70 -21 -105t-64 -49v-2q43 -14 64 -49t21 -105v-124q0 -79 78 -79h44v-112h-142z" />
    <glyph glyph-name="bar" unicode="|" horiz-adv-x="400" 
d="M120 -200v940h159v-940h-159z" />
    <glyph glyph-name="braceright" unicode="}" horiz-adv-x="441" 
d="M21 -200v112h44q78 0 78 79v139q0 68 20 96t65 43v2q-45 15 -65 43t-20 96v139q0 80 -77 80h-44l-1 111h157q67 0 97 -33t30 -100v-160q0 -70 25.5 -95t85.5 -25v-114q-60 0 -85.5 -25t-25.5 -95v-160q0 -67 -30 -100t-97 -33h-157z" />
    <glyph glyph-name="asciitilde" unicode="~" horiz-adv-x="523" 
d="M338 372q-40 0 -83 28t-61 28q-41 0 -41 -54h-87q0 159 119 159q40 0 83 -28t61 -28q41 0 41 54h86q0 -159 -118 -159z" />
    <glyph glyph-name="nbspace" unicode="&#xa0;" horiz-adv-x="135" 
 />
    <glyph glyph-name="exclamdown" unicode="&#xa1;" horiz-adv-x="357" 
d="M89 592v148h172v-148h-172zM74 0l40 506h121l41 -506h-202z" />
    <glyph glyph-name="cent" unicode="&#xa2;" horiz-adv-x="560" 
d="M168 17q-136 70 -136 249q0 73 25 129t65.5 87.5t85.5 46.5t92 15q16 0 23 -1l28 95h82l-33 -110q96 -34 136 -147l-124 -45q-16 51 -51 75l-91 -310q16 -2 26 -2q37 0 70 24t50 74l122 -46q-66 -162 -245 -162q-29 0 -50 4l-36 -122h-82zM294 429q-50 -2 -82 -43.5
t-32 -120.5q0 -82 29 -123z" />
    <glyph glyph-name="sterling" unicode="&#xa3;" horiz-adv-x="689" 
d="M227 334h-137v87h84q-38 69 -38 127q0 89 62 147.5t162 58.5q50 0 90 -11.5t65 -29.5t44 -45.5t28.5 -53t17.5 -58.5l-140 -30q-9 48 -30.5 76t-67.5 28q-35 0 -55.5 -21.5t-20.5 -59.5q0 -21 8 -45.5t15 -37.5t25 -45h178v-87h-135q19 -54 19 -109q0 -54 -25 -104
q41 -22 75 -22q39 0 59 23t22 84h137q-3 -47 -11.5 -82t-28 -68.5t-57.5 -51.5t-93 -18q-90 0 -167 55q-70 -55 -157 -55q-60 0 -101.5 30t-41.5 88q0 61 42 95.5t100 34.5q51 0 109 -35v14q0 54 -36 121zM235 107q-46 43 -78 43q-20 0 -31.5 -11.5t-11.5 -30.5
q0 -18 11.5 -29.5t32.5 -11.5q49 0 77 40z" />
    <glyph glyph-name="currency" unicode="&#xa4;" horiz-adv-x="737" 
d="M124 397h-103v86h112q24 134 103.5 202.5t190.5 68.5t174 -51.5t94 -148.5l-138 -51q-21 64 -48 94t-79 30q-111 0 -139 -144h159v-86h-169v-25q0 -29 1 -43h168v-87h-158q29 -132 140 -132q48 0 78.5 32.5t50.5 102.5l140 -44q-66 -215 -270 -215q-113 0 -191 63.5
t-104 192.5h-115v87h104q-1 14 -1 42v26z" />
    <glyph glyph-name="yen" unicode="&#xa5;" horiz-adv-x="684" 
d="M260 0v92h-179v87h179v68h-179v86h176l-243 407h169l160 -273l160 273h167l-245 -407h179v-86h-181v-68h181v-87h-181v-92h-163z" />
    <glyph glyph-name="brokenbar" unicode="&#xa6;" horiz-adv-x="400" 
d="M120 331v409h159v-409h-159zM120 -200v409h159v-409h-159z" />
    <glyph glyph-name="section" unicode="&#xa7;" horiz-adv-x="583" 
d="M289 -200q-180 0 -226 142l115 51q32 -87 104 -87q69 0 69 64q0 30 -28.5 53.5t-94.5 59.5q-42 23 -65.5 38.5t-53 41.5t-43 57t-13.5 68q0 94 95 155q-66 56 -66 133q0 76 56.5 127t154.5 51q186 0 230 -142l-114 -51q-32 87 -109 87q-39 0 -56.5 -18t-17.5 -46
q0 -16 8 -29.5t29 -28.5t38 -25t53 -30q42 -23 65.5 -38.5t53 -41.5t43 -57t13.5 -68q0 -95 -96 -156q62 -54 62 -132q0 -77 -54 -127.5t-152 -50.5zM354 166q45 31 45 68q0 36 -24 60.5t-104 69.5q-30 16 -43 24q-45 -31 -45 -68q0 -36 24 -60.5t104 -69.5q21 -11 43 -24z
" />
    <glyph glyph-name="dieresis" unicode="&#xa8;" horiz-adv-x="530" 
d="M301 584v148h136v-148h-136zM89 584v148h136v-148h-136z" />
    <glyph glyph-name="copyright" unicode="&#xa9;" horiz-adv-x="867" 
d="M432 -14q-163 0 -272.5 110t-109.5 272q0 163 111 274.5t274 111.5q162 0 272 -110t110 -272q0 -163 -111.5 -274.5t-273.5 -111.5zM435 56q132 0 218.5 89t86.5 223q0 135 -88 225.5t-220 90.5t-218.5 -89t-86.5 -223q0 -135 88 -225.5t220 -90.5zM430 155
q-81 0 -129.5 57t-48.5 160q0 102 48 159t133 57q69 0 110.5 -35t53.5 -97l-89 -23q-10 36 -26 53.5t-48 17.5q-39 0 -60.5 -35.5t-21.5 -96.5q0 -62 21.5 -96.5t60.5 -34.5q59 0 76 80q90 -25 92 -25q-19 -68 -59 -104.5t-113 -36.5z" />
    <glyph glyph-name="ordfeminine" unicode="&#xaa;" horiz-adv-x="447" 
d="M147 360q-46 0 -76.5 25.5t-30.5 72.5q0 133 236 152v9q0 43 -50 43q-63 0 -120 -45l-51 64q73 67 188 67q76 0 111 -36t35 -110v-143q0 -67 11 -91h-115q-9 29 -9 53q-53 -61 -129 -61zM192 446q50 0 84 34v69q-124 -12 -124 -68q0 -35 40 -35z" />
    <glyph glyph-name="guillemotleft" unicode="&#xab;" horiz-adv-x="633" 
d="M451 0l-167 267l167 266h153l-160 -266l160 -267h-153zM190 0l-166 267l166 266h153l-159 -266l159 -267h-153z" />
    <glyph glyph-name="logicalnot" unicode="&#xac;" horiz-adv-x="760" 
d="M254 598l67 -6l-25 148h168l-25 -148l66 6l-2 26h117l-1 -16l16 2v-117l-27 2l-6 -67l148 25v-168l-148 25l6 -65l27 2v-117l-17 1l2 -17h-117l2 27l-66 6l25 -147h-168l25 147l-66 -6l2 -27h-117l2 17l-17 -1v117l26 -2l6 65l-147 -25v168l147 -25l-6 67l-26 -2v117
l16 -1l-1 15h117zM513 503l-74 6v-81h80zM321 428v81l-74 -6l-7 -75h81zM439 310v-80l74 6l6 74h-80zM246 237l75 -7v80h-81z" />
    <glyph glyph-name="registered" unicode="&#xae;" horiz-adv-x="867" 
d="M432 -14q-163 0 -272.5 110t-109.5 272q0 163 111 274.5t274 111.5q162 0 272 -110t110 -272q0 -163 -111.5 -274.5t-273.5 -111.5zM435 56q132 0 218.5 89t86.5 223q0 135 -88 225.5t-220 90.5t-218.5 -89t-86.5 -223q0 -135 88 -225.5t220 -90.5zM282 170v417h162
q77 0 119.5 -34t42.5 -102q0 -89 -77 -121l82 -160h-105l-74 147h-51v-147h-99zM381 389h57q70 0 70 56q0 54 -70 54h-57v-110z" />
    <glyph glyph-name="macron" unicode="&#xaf;" horiz-adv-x="500" 
d="M84 608v114h332v-114h-332z" />
    <glyph glyph-name="degree" unicode="&#xb0;" horiz-adv-x="415" 
d="M208 432q-71 0 -117 45t-46 115t46 115t117 45q70 0 116 -45t46 -114q0 -70 -46 -115.5t-116 -45.5zM208 508q34 0 55 23.5t21 61.5t-21 60.5t-55 22.5q-35 0 -56 -22.5t-21 -60.5t21 -61.5t56 -23.5z" />
    <glyph glyph-name="plusminus" unicode="&#xb1;" horiz-adv-x="978" 
d="M109 0v416h-89v117h89v37q0 174 166 174q58 0 90 -7v-111q-9 3 -39 3q-57 0 -57 -64v-32h161v37q0 174 166 174q55 0 90 -7v-111q-9 3 -40 3q-56 0 -56 -64v-32h97v-117h-97v-416h-160v416h-161v-416h-160zM750 0v740h161v-740h-161z" />
    <glyph glyph-name="twosuperior" unicode="&#xb2;" horiz-adv-x="478" 
d="M56 264v26q0 62 27.5 111.5t112.5 104.5q32 21 41.5 27t25.5 19.5t20 24t4 24.5q0 42 -46 42q-23 0 -50 -18t-49 -54l-87 62q37 59 82.5 88t108.5 29q79 0 123 -39.5t44 -106.5q0 -95 -117 -160q-75 -42 -88 -77h208v-103h-360z" />
    <glyph glyph-name="threesuperior" unicode="&#xb3;" horiz-adv-x="478" 
d="M235 256q-128 0 -194 98l78 68q45 -62 105 -62q70 0 70 52q0 30 -22 43.5t-71 13.5h-38v89h40q46 0 64 12t18 35q0 39 -50 39q-57 0 -109 -48l-68 79q78 75 187 75q81 0 124 -34.5t43 -95.5q0 -76 -71 -101q86 -26 86 -110q0 -74 -51.5 -113.5t-140.5 -39.5z" />
    <glyph glyph-name="acute" unicode="&#xb4;" horiz-adv-x="500" 
d="M148 590l93 173h162l-149 -173h-106z" />
    <glyph glyph-name="paragraph" unicode="&#xb6;" horiz-adv-x="638" 
d="M286 -200v513q-118 2 -180.5 57t-62.5 155q0 93 61 154t168 61h316v-940h-108v820h-85v-820h-109z" />
    <glyph glyph-name="periodcentered" unicode="&#xb7;" horiz-adv-x="289" 
d="M55 259v155h179v-155h-179z" />
    <glyph glyph-name="cedilla" unicode="&#xb8;" horiz-adv-x="500" 
d="M263 -202q-92 0 -148 37l29 48q45 -30 106 -30q49 0 49 34q0 27 -32 27q-20 0 -42 -17l-40 20l26 83h66l-11 -45q23 15 64 15q30 0 51.5 -19t21.5 -51q0 -47 -40 -74.5t-100 -27.5z" />
    <glyph glyph-name="onesuperior" unicode="&#xb9;" horiz-adv-x="416" 
d="M73 262v102h81v252q-33 -12 -79 -12v105q64 3 90 30h117v-375h71v-102h-280z" />
    <glyph glyph-name="ordmasculine" unicode="&#xba;" horiz-adv-x="466" 
d="M233 360q-79 0 -135.5 47t-56.5 147q0 102 56.5 148.5t135.5 46.5t135.5 -46.5t56.5 -148.5q0 -100 -56.5 -147t-135.5 -47zM233 442q38 0 57.5 30t19.5 82q0 50 -18.5 80.5t-58.5 30.5q-38 0 -57.5 -30t-19.5 -81q0 -112 77 -112z" />
    <glyph glyph-name="guillemotright" unicode="&#xbb;" horiz-adv-x="633" 
d="M290 0l160 267l-160 266h153l167 -266l-167 -267h-153zM30 0l159 267l-159 266h153l166 -266l-166 -267h-153z" />
    <glyph glyph-name="onequarter" unicode="&#xbc;" horiz-adv-x="1059" 
d="M73 262v102h81v252q-33 -12 -79 -12v105q64 3 90 30h117v-375h71v-102h-280zM247 0l442 740h138l-442 -740h-138zM813 0v99h-215v81l210 298h133v-280h75v-99h-75v-99h-128zM729 198h86v128z" />
    <glyph glyph-name="onehalf" unicode="&#xbd;" horiz-adv-x="1091" 
d="M73 262v102h81v252q-33 -12 -79 -12v105q64 3 90 30h117v-375h71v-102h-280zM247 0l442 740h138l-442 -740h-138zM671 0v26q0 62 27.5 111.5t112.5 104.5q32 21 41.5 27t25.5 19.5t20 24t4 24.5q0 42 -46 42q-24 0 -51 -18t-48 -54l-87 63q73 116 191 116q79 0 123 -39
t44 -107q0 -95 -117 -160q-75 -42 -88 -77h208v-103h-360z" />
    <glyph glyph-name="threequarters" unicode="&#xbe;" horiz-adv-x="1098" 
d="M235 256q-128 0 -194 98l78 68q45 -62 105 -62q70 0 70 52q0 30 -22 43.5t-71 13.5h-38v89h40q46 0 64 12t18 35q0 39 -50 39q-57 0 -109 -48l-68 79q78 75 187 75q81 0 124 -34.5t43 -95.5q0 -76 -71 -101q86 -26 86 -110q0 -74 -51.5 -113.5t-140.5 -39.5zM286 0
l442 740h138l-442 -740h-138zM852 0v99h-215v81l210 298h133v-280h75v-99h-75v-99h-128zM768 198h86v128z" />
    <glyph glyph-name="questiondown" unicode="&#xbf;" horiz-adv-x="594" 
d="M231 592v148h172v-148h-172zM278 -14q-111 0 -173 50.5t-62 132.5q0 64 31 103.5t87 69.5q65 33 77.5 59.5t12.5 106.5h132q4 -27 4 -72q0 -95 -106 -152q-44 -25 -61.5 -46t-17.5 -56q0 -31 24.5 -49.5t68.5 -18.5q47 0 94 25t78 62l97 -91q-111 -124 -286 -124z" />
    <glyph glyph-name="Agrave" unicode="&#xc0;" horiz-adv-x="713" 
d="M17 0l262 743h155l262 -743h-165l-55 165h-252l-57 -165h-150zM264 283h174l-85 252h-2zM315 784l-149 173h162l93 -173h-106z" />
    <glyph glyph-name="Aacute" unicode="&#xc1;" horiz-adv-x="713" 
d="M17 0l262 743h155l262 -743h-165l-55 165h-252l-57 -165h-150zM264 283h174l-85 252h-2zM293 784l93 173h162l-149 -173h-106z" />
    <glyph glyph-name="Acircumflex" unicode="&#xc2;" horiz-adv-x="713" 
d="M17 0l262 743h155l262 -743h-165l-55 165h-252l-57 -165h-150zM264 283h174l-85 252h-2zM173 786l129 171h108l129 -171h-91l-93 74l-90 -74h-92z" />
    <glyph glyph-name="Atilde" unicode="&#xc3;" horiz-adv-x="713" 
d="M17 0l262 743h155l262 -743h-165l-55 165h-252l-57 -165h-150zM264 283h174l-85 252h-2zM434 774q-40 0 -83 28t-61 28q-41 0 -41 -54h-87q0 159 119 159q40 0 83 -28t61 -28q41 0 41 54h86q0 -159 -118 -159z" />
    <glyph glyph-name="Adieresis" unicode="&#xc4;" horiz-adv-x="713" 
d="M17 0l262 743h155l262 -743h-165l-55 165h-252l-57 -165h-150zM264 283h174l-85 252h-2zM393 778v148h136v-148h-136zM181 778v148h136v-148h-136z" />
    <glyph glyph-name="Aring" unicode="&#xc5;" horiz-adv-x="713" 
d="M441 722l255 -722h-165l-55 165h-252l-57 -165h-150l255 723q-25 28 -25 71q0 46 31.5 77t78.5 31t78.5 -31t31.5 -77q0 -43 -26 -72zM357 745q20 0 33 13.5t13 35.5q0 20 -13 33.5t-33 13.5t-33 -13.5t-13 -33.5q0 -22 13 -35.5t33 -13.5zM264 283h174l-85 252h-2z" />
    <glyph glyph-name="AE" unicode="&#xc6;" horiz-adv-x="1074" 
d="M15 0l421 740h583v-136h-340v-159h246v-129h-246v-184h358v-132h-519v210h-222l-117 -210h-164zM364 331h154v272h-1z" />
    <glyph glyph-name="Ccedilla" unicode="&#xc7;" horiz-adv-x="729" 
d="M382 -202q-92 0 -148 37l29 48q45 -30 105 -30q50 0 50 34q0 27 -32 27q-20 0 -42 -17l-40 20l22 72q-130 16 -207.5 113t-77.5 269q0 185 94.5 284t241.5 99q244 0 300 -233l-154 -45q-20 70 -53 106.5t-94 36.5q-83 0 -127.5 -66t-44.5 -182q0 -118 45.5 -186
t128.5 -68q63 0 99.5 38.5t56.5 117.5l153 -34q-59 -245 -294 -253l-9 -31q23 15 65 15q30 0 51 -19t21 -51q0 -47 -39.5 -74.5t-99.5 -27.5z" />
    <glyph glyph-name="Egrave" unicode="&#xc8;" horiz-adv-x="633" 
d="M76 0v740h504v-136h-341v-159h247v-129h-247v-184h359v-132h-522zM306 784l-149 173h162l93 -173h-106z" />
    <glyph glyph-name="Eacute" unicode="&#xc9;" horiz-adv-x="633" 
d="M76 0v740h504v-136h-341v-159h247v-129h-247v-184h359v-132h-522zM236 784l93 173h162l-149 -173h-106z" />
    <glyph glyph-name="Ecircumflex" unicode="&#xca;" horiz-adv-x="633" 
d="M76 0v740h504v-136h-341v-159h247v-129h-247v-184h359v-132h-522zM144 786l129 171h108l129 -171h-91l-93 74l-90 -74h-92z" />
    <glyph glyph-name="Edieresis" unicode="&#xcb;" horiz-adv-x="633" 
d="M76 0v740h504v-136h-341v-159h247v-129h-247v-184h359v-132h-522zM368 778v148h136v-148h-136zM156 778v148h136v-148h-136z" />
    <glyph glyph-name="Igrave" unicode="&#xcc;" horiz-adv-x="330" 
d="M84 0v740h162v-740h-162zM125 784l-149 173h162l93 -173h-106z" />
    <glyph glyph-name="Iacute" unicode="&#xcd;" horiz-adv-x="330" 
d="M84 0v740h162v-740h-162zM102 784l93 173h162l-149 -173h-106z" />
    <glyph glyph-name="Icircumflex" unicode="&#xce;" horiz-adv-x="330" 
d="M84 0v740h162v-740h-162zM-18 786l129 171h108l129 -171h-91l-93 74l-90 -74h-92z" />
    <glyph glyph-name="Idieresis" unicode="&#xcf;" horiz-adv-x="330" 
d="M84 0v740h162v-740h-162zM201 778v148h136v-148h-136zM-11 778v148h136v-148h-136z" />
    <glyph glyph-name="Eth" unicode="&#xd0;" horiz-adv-x="740" 
d="M76 0v317h-66v122h66v301h227q88 0 158 -20t124.5 -62t84 -115t29.5 -173q0 -192 -108 -281t-288 -89h-227zM238 132h76q120 0 171 56.5t51 183.5q0 120 -52 176t-172 56h-74v-165h150v-122h-150v-185z" />
    <glyph glyph-name="Ntilde" unicode="&#xd1;" horiz-adv-x="777" 
d="M76 0v740h163l310 -472h2v472h150v-740h-150l-323 476h-2v-476h-150zM469 774q-40 0 -83 28t-61 28q-41 0 -41 -54h-87q0 159 119 159q40 0 83 -28t61 -28q41 0 41 54h86q0 -159 -118 -159z" />
    <glyph glyph-name="Ograve" unicode="&#xd2;" horiz-adv-x="780" 
d="M390 -14q-69 0 -130.5 24t-111 70t-78.5 121t-29 169t29 169t78.5 121t111 70t130.5 24q144 0 246 -100t102 -284t-102 -284t-246 -100zM390 117q85 0 135.5 68.5t50.5 184.5t-50 182.5t-136 66.5t-136 -66.5t-50 -182.5q0 -117 50 -185t136 -68zM364 784l-149 173h162
l93 -173h-106z" />
    <glyph glyph-name="Oacute" unicode="&#xd3;" horiz-adv-x="780" 
d="M390 -14q-69 0 -130.5 24t-111 70t-78.5 121t-29 169t29 169t78.5 121t111 70t130.5 24q144 0 246 -100t102 -284t-102 -284t-246 -100zM390 117q85 0 135.5 68.5t50.5 184.5t-50 182.5t-136 66.5t-136 -66.5t-50 -182.5q0 -117 50 -185t136 -68zM308 784l93 173h162
l-149 -173h-106z" />
    <glyph glyph-name="Ocircumflex" unicode="&#xd4;" horiz-adv-x="780" 
d="M390 -14q-69 0 -130.5 24t-111 70t-78.5 121t-29 169t29 169t78.5 121t111 70t130.5 24q144 0 246 -100t102 -284t-102 -284t-246 -100zM390 117q85 0 135.5 68.5t50.5 184.5t-50 182.5t-136 66.5t-136 -66.5t-50 -182.5q0 -117 50 -185t136 -68zM206 786l129 171h108
l129 -171h-91l-93 74l-90 -74h-92z" />
    <glyph glyph-name="Otilde" unicode="&#xd5;" horiz-adv-x="780" 
d="M390 -14q-69 0 -130.5 24t-111 70t-78.5 121t-29 169t29 169t78.5 121t111 70t130.5 24q144 0 246 -100t102 -284t-102 -284t-246 -100zM390 117q85 0 135.5 68.5t50.5 184.5t-50 182.5t-136 66.5t-136 -66.5t-50 -182.5q0 -117 50 -185t136 -68zM466 774q-40 0 -83 28
t-61 28q-41 0 -41 -54h-87q0 159 119 159q40 0 83 -28t61 -28q41 0 41 54h86q0 -159 -118 -159z" />
    <glyph glyph-name="Odieresis" unicode="&#xd6;" horiz-adv-x="780" 
d="M390 -14q-69 0 -130.5 24t-111 70t-78.5 121t-29 169t29 169t78.5 121t111 70t130.5 24q144 0 246 -100t102 -284t-102 -284t-246 -100zM390 117q85 0 135.5 68.5t50.5 184.5t-50 182.5t-136 66.5t-136 -66.5t-50 -182.5q0 -117 50 -185t136 -68zM425 778v148h136v-148
h-136zM213 778v148h136v-148h-136z" />
    <glyph glyph-name="multiply" unicode="&#xd7;" horiz-adv-x="646" 
d="M164 71l-93 94l157 158l-157 156l93 94l158 -157l156 157l94 -94l-156 -156l158 -156l-93 -94l-158 157z" />
    <glyph glyph-name="Oslash" unicode="&#xd8;" horiz-adv-x="780" 
d="M666 618q72 -99 72 -248q0 -184 -102 -284t-246 -100q-118 0 -207 65l-70 -81l-78 62l78 89q-72 99 -72 249q0 94 29 169t78.5 121t111 70t130.5 24q119 0 206 -65l71 81l77 -62zM221 242l284 337q-47 42 -115 42q-87 0 -138.5 -67t-51.5 -184q0 -74 21 -128zM558 498
l-285 -338q47 -45 117 -45q87 0 138 69t51 186q0 74 -21 128z" />
    <glyph glyph-name="Ugrave" unicode="&#xd9;" horiz-adv-x="725" 
d="M363 -12q-150 0 -224.5 77.5t-74.5 217.5v457h163v-453q0 -167 138 -167q136 0 136 167v453h160v-456q0 -141 -74 -218.5t-224 -77.5zM339 784l-149 173h162l93 -173h-106z" />
    <glyph glyph-name="Uacute" unicode="&#xda;" horiz-adv-x="725" 
d="M363 -12q-150 0 -224.5 77.5t-74.5 217.5v457h163v-453q0 -167 138 -167q136 0 136 167v453h160v-456q0 -141 -74 -218.5t-224 -77.5zM271 784l93 173h162l-149 -173h-106z" />
    <glyph glyph-name="Ucircumflex" unicode="&#xdb;" horiz-adv-x="725" 
d="M363 -12q-150 0 -224.5 77.5t-74.5 217.5v457h163v-453q0 -167 138 -167q136 0 136 167v453h160v-456q0 -141 -74 -218.5t-224 -77.5zM179 786l129 171h108l129 -171h-91l-93 74l-90 -74h-92z" />
    <glyph glyph-name="Udieresis" unicode="&#xdc;" horiz-adv-x="725" 
d="M363 -12q-150 0 -224.5 77.5t-74.5 217.5v457h163v-453q0 -167 138 -167q136 0 136 167v453h160v-456q0 -141 -74 -218.5t-224 -77.5zM398 778v148h136v-148h-136zM186 778v148h136v-148h-136z" />
    <glyph glyph-name="Yacute" unicode="&#xdd;" horiz-adv-x="691" 
d="M264 0v314l-255 426h168l169 -288l170 288h166l-256 -426v-314h-162zM251 786l93 173h162l-149 -173h-106z" />
    <glyph glyph-name="Thorn" unicode="&#xde;" horiz-adv-x="678" 
d="M76 0v740h163v-112h103q305 0 305 -241q0 -57 -18 -101t-47 -70.5t-70.5 -43t-82.5 -22.5t-89 -6h-101v-144h-163zM239 273h104q73 0 106 28t33 82t-32.5 81.5t-106.5 27.5h-104v-219z" />
    <glyph glyph-name="germandbls" unicode="&#xdf;" horiz-adv-x="683" 
d="M443 -11q-128 0 -189 68l70 85q45 -38 104 -38q39 0 61.5 26t22.5 68q0 37 -16 62t-47.5 38.5t-67 19t-85.5 7.5v107q79 1 110 28t31 77q0 36 -26.5 60t-74.5 24q-116 0 -116 -129v-492h-159v488q0 128 72 190t199 62q118 0 186 -49.5t68 -139.5q0 -60 -35.5 -99
t-91.5 -56q82 -9 141.5 -57.5t59.5 -133.5q0 -104 -58.5 -160t-158.5 -56z" />
    <glyph glyph-name="agrave" unicode="&#xe0;" 
d="M178 -8q-64 0 -108 39t-44 105q0 93 82 144.5t256 65.5v13q0 64 -72 64q-90 0 -175 -66l-68 92q105 95 266 95q107 0 156.5 -52t49.5 -157v-205q0 -93 15 -130h-160q-12 38 -12 78q-77 -86 -186 -86zM242 113q76 0 122 46v99q-181 -19 -181 -94q0 -25 16 -38t43 -13z
M268 590l-149 173h162l93 -173h-106z" />
    <glyph glyph-name="aacute" unicode="&#xe1;" 
d="M178 -8q-64 0 -108 39t-44 105q0 93 82 144.5t256 65.5v13q0 64 -72 64q-90 0 -175 -66l-68 92q105 95 266 95q107 0 156.5 -52t49.5 -157v-205q0 -93 15 -130h-160q-12 38 -12 78q-77 -86 -186 -86zM242 113q76 0 122 46v99q-181 -19 -181 -94q0 -25 16 -38t43 -13z
M208 590l93 173h162l-149 -173h-106z" />
    <glyph glyph-name="acircumflex" unicode="&#xe2;" 
d="M178 -8q-64 0 -108 39t-44 105q0 93 82 144.5t256 65.5v13q0 64 -72 64q-90 0 -175 -66l-68 92q105 95 266 95q107 0 156.5 -52t49.5 -157v-205q0 -93 15 -130h-160q-12 38 -12 78q-77 -86 -186 -86zM242 113q76 0 122 46v99q-181 -19 -181 -94q0 -25 16 -38t43 -13z
M107 592l129 171h108l129 -171h-91l-93 74l-90 -74h-92z" />
    <glyph glyph-name="atilde" unicode="&#xe3;" 
d="M178 -8q-64 0 -108 39t-44 105q0 93 82 144.5t256 65.5v13q0 64 -72 64q-90 0 -175 -66l-68 92q105 95 266 95q107 0 156.5 -52t49.5 -157v-205q0 -93 15 -130h-160q-12 38 -12 78q-77 -86 -186 -86zM242 113q76 0 122 46v99q-181 -19 -181 -94q0 -25 16 -38t43 -13z
M366 580q-40 0 -83 28t-61 28q-41 0 -41 -54h-87q0 159 119 159q40 0 83 -28t61 -28q41 0 41 54h86q0 -159 -118 -159z" />
    <glyph glyph-name="adieresis" unicode="&#xe4;" 
d="M178 -8q-64 0 -108 39t-44 105q0 93 82 144.5t256 65.5v13q0 64 -72 64q-90 0 -175 -66l-68 92q105 95 266 95q107 0 156.5 -52t49.5 -157v-205q0 -93 15 -130h-160q-12 38 -12 78q-77 -86 -186 -86zM242 113q76 0 122 46v99q-181 -19 -181 -94q0 -25 16 -38t43 -13z
M328 584v148h136v-148h-136zM116 584v148h136v-148h-136z" />
    <glyph glyph-name="aring" unicode="&#xe5;" 
d="M178 -8q-64 0 -108 39t-44 105q0 93 82 144.5t256 65.5v13q0 64 -72 64q-90 0 -175 -66l-68 92q105 95 266 95q107 0 156.5 -52t49.5 -157v-205q0 -93 15 -130h-160q-12 38 -12 78q-77 -86 -186 -86zM242 113q76 0 122 46v99q-181 -19 -181 -94q0 -25 16 -38t43 -13z
M292 581q-47 0 -78.5 31.5t-31.5 78.5q0 46 31.5 77t78.5 31t78.5 -31t31.5 -77q0 -47 -31.5 -78.5t-78.5 -31.5zM292 642q20 0 33 13.5t13 35.5q0 20 -13 33.5t-33 13.5t-33 -13.5t-13 -33.5q0 -22 13 -35.5t33 -13.5z" />
    <glyph glyph-name="ae" unicode="&#xe6;" horiz-adv-x="896" 
d="M177 -11q-64 0 -107.5 37t-43.5 102q0 191 338 218v13q0 64 -73 64q-91 0 -174 -66l-68 92q105 95 266 95q111 0 151 -67q27 30 69 48.5t84 18.5q48 0 88 -13t77 -44t58.5 -92t21.5 -148v-24h-352q10 -121 124 -121q88 0 157 63l62 -96q-92 -80 -231 -80q-158 0 -221 109
q-94 -109 -226 -109zM514 318h206q-10 110 -102 110q-40 0 -67.5 -27t-36.5 -83zM242 110q75 0 133 58q-9 29 -10 60q-2 22 -1 33q-181 -18 -181 -100q0 -25 16 -38t43 -13z" />
    <glyph glyph-name="ccedilla" unicode="&#xe7;" horiz-adv-x="555" 
d="M297 -202q-92 0 -148 37l29 48q45 -30 105 -30q50 0 50 34q0 27 -32 27q-20 0 -42 -17l-40 20l24 79q-92 13 -151.5 79t-59.5 191q0 76 25 132.5t66 87t85.5 44.5t92.5 14q100 0 152.5 -44t79.5 -119l-135 -45q-15 49 -38.5 69.5t-60.5 20.5q-50 0 -78 -41.5t-28 -119.5
q0 -75 25.5 -119t78.5 -44q75 0 105 95l133 -46q-62 -151 -226 -159l-10 -37q23 15 65 15q30 0 51 -19t21 -51q0 -47 -39.5 -74.5t-99.5 -27.5z" />
    <glyph glyph-name="egrave" unicode="&#xe8;" 
d="M304 -11q-55 0 -101.5 15t-86 46t-62 86.5t-22.5 129.5t26 130.5t67.5 87t86 45.5t88.5 15q46 0 85.5 -13t77.5 -44t60 -92.5t22 -147.5v-24h-353q11 -122 124 -122q88 0 158 64l62 -96q-94 -80 -232 -80zM194 318h207q-12 111 -102 111q-40 0 -68 -27.5t-37 -83.5z
M264 590l-149 173h162l93 -173h-106z" />
    <glyph glyph-name="eacute" unicode="&#xe9;" 
d="M304 -11q-55 0 -101.5 15t-86 46t-62 86.5t-22.5 129.5t26 130.5t67.5 87t86 45.5t88.5 15q46 0 85.5 -13t77.5 -44t60 -92.5t22 -147.5v-24h-353q11 -122 124 -122q88 0 158 64l62 -96q-94 -80 -232 -80zM194 318h207q-12 111 -102 111q-40 0 -68 -27.5t-37 -83.5z
M209 590l93 173h162l-149 -173h-106z" />
    <glyph glyph-name="ecircumflex" unicode="&#xea;" 
d="M304 -11q-55 0 -101.5 15t-86 46t-62 86.5t-22.5 129.5t26 130.5t67.5 87t86 45.5t88.5 15q46 0 85.5 -13t77.5 -44t60 -92.5t22 -147.5v-24h-353q11 -122 124 -122q88 0 158 64l62 -96q-94 -80 -232 -80zM194 318h207q-12 111 -102 111q-40 0 -68 -27.5t-37 -83.5z
M107 592l129 171h108l129 -171h-91l-93 74l-90 -74h-92z" />
    <glyph glyph-name="edieresis" unicode="&#xeb;" 
d="M304 -11q-55 0 -101.5 15t-86 46t-62 86.5t-22.5 129.5t26 130.5t67.5 87t86 45.5t88.5 15q46 0 85.5 -13t77.5 -44t60 -92.5t22 -147.5v-24h-353q11 -122 124 -122q88 0 158 64l62 -96q-94 -80 -232 -80zM194 318h207q-12 111 -102 111q-40 0 -68 -27.5t-37 -83.5z
M325 584v148h136v-148h-136zM113 584v148h136v-148h-136z" />
    <glyph glyph-name="igrave" unicode="&#xec;" horiz-adv-x="294" 
d="M67 0v533h160v-533h-160zM101 590l-149 173h162l93 -173h-106z" />
    <glyph glyph-name="iacute" unicode="&#xed;" horiz-adv-x="294" 
d="M67 0v533h160v-533h-160zM89 590l93 173h162l-149 -173h-106z" />
    <glyph glyph-name="icircumflex" unicode="&#xee;" horiz-adv-x="294" 
d="M67 0v533h160v-533h-160zM-36 592l129 171h108l129 -171h-91l-93 74l-90 -74h-92z" />
    <glyph glyph-name="idieresis" unicode="&#xef;" horiz-adv-x="294" 
d="M67 0v533h160v-533h-160zM183 584v148h136v-148h-136zM-29 584v148h136v-148h-136z" />
    <glyph glyph-name="eth" unicode="&#xf0;" horiz-adv-x="608" 
d="M304 -11q-120 0 -195 67t-75 183q0 119 66 184t165 65q37 0 79 -16t69 -47q-16 72 -55 129l-76 -37l-46 83l63 30q-29 29 -60 53l76 86q58 -38 96 -76l81 41l45 -83l-65 -34q102 -147 102 -354q0 -128 -75 -201t-195 -73zM304 102q51 0 80.5 36.5t29.5 103.5
q0 65 -29.5 101.5t-80.5 36.5t-80.5 -36t-29.5 -103q0 -66 29.5 -102.5t80.5 -36.5z" />
    <glyph glyph-name="ntilde" unicode="&#xf1;" horiz-adv-x="618" 
d="M62 0v533h161v-84q72 95 184 95q71 0 113 -38t42 -117v-389h-160v338q0 73 -63 73q-54 0 -116 -53v-358h-161zM388 580q-40 0 -83 28t-61 28q-41 0 -41 -54h-87q0 159 119 159q40 0 83 -28t61 -28q41 0 41 54h86q0 -159 -118 -159z" />
    <glyph glyph-name="ograve" unicode="&#xf2;" horiz-adv-x="609" 
d="M305 -11q-51 0 -97.5 14.5t-87 45.5t-64.5 87t-24 130q0 75 24 131t64.5 87t86.5 45.5t98 14.5q51 0 97 -14.5t86.5 -45.5t64.5 -87t24 -131q0 -74 -24 -130t-64 -87t-86.5 -45.5t-97.5 -14.5zM305 102q55 0 83 43.5t28 119.5q0 72 -27 116.5t-84 44.5q-56 0 -84 -43
t-28 -118q0 -73 27 -118t85 -45zM279 590l-149 173h162l93 -173h-106z" />
    <glyph glyph-name="oacute" unicode="&#xf3;" horiz-adv-x="609" 
d="M305 -11q-51 0 -97.5 14.5t-87 45.5t-64.5 87t-24 130q0 75 24 131t64.5 87t86.5 45.5t98 14.5q51 0 97 -14.5t86.5 -45.5t64.5 -87t24 -131q0 -74 -24 -130t-64 -87t-86.5 -45.5t-97.5 -14.5zM305 102q55 0 83 43.5t28 119.5q0 72 -27 116.5t-84 44.5q-56 0 -84 -43
t-28 -118q0 -73 27 -118t85 -45zM223 590l93 173h162l-149 -173h-106z" />
    <glyph glyph-name="ocircumflex" unicode="&#xf4;" horiz-adv-x="609" 
d="M305 -11q-51 0 -97.5 14.5t-87 45.5t-64.5 87t-24 130q0 75 24 131t64.5 87t86.5 45.5t98 14.5q51 0 97 -14.5t86.5 -45.5t64.5 -87t24 -131q0 -74 -24 -130t-64 -87t-86.5 -45.5t-97.5 -14.5zM305 102q55 0 83 43.5t28 119.5q0 72 -27 116.5t-84 44.5q-56 0 -84 -43
t-28 -118q0 -73 27 -118t85 -45zM121 592l129 171h108l129 -171h-91l-93 74l-90 -74h-92z" />
    <glyph glyph-name="otilde" unicode="&#xf5;" horiz-adv-x="609" 
d="M305 -11q-51 0 -97.5 14.5t-87 45.5t-64.5 87t-24 130q0 75 24 131t64.5 87t86.5 45.5t98 14.5q51 0 97 -14.5t86.5 -45.5t64.5 -87t24 -131q0 -74 -24 -130t-64 -87t-86.5 -45.5t-97.5 -14.5zM305 102q55 0 83 43.5t28 119.5q0 72 -27 116.5t-84 44.5q-56 0 -84 -43
t-28 -118q0 -73 27 -118t85 -45zM382 580q-40 0 -83 28t-61 28q-41 0 -41 -54h-87q0 159 119 159q40 0 83 -28t61 -28q41 0 41 54h86q0 -159 -118 -159z" />
    <glyph glyph-name="odieresis" unicode="&#xf6;" horiz-adv-x="609" 
d="M305 -11q-51 0 -97.5 14.5t-87 45.5t-64.5 87t-24 130q0 75 24 131t64.5 87t86.5 45.5t98 14.5q51 0 97 -14.5t86.5 -45.5t64.5 -87t24 -131q0 -74 -24 -130t-64 -87t-86.5 -45.5t-97.5 -14.5zM305 102q55 0 83 43.5t28 119.5q0 72 -27 116.5t-84 44.5q-56 0 -84 -43
t-28 -118q0 -73 27 -118t85 -45zM340 584v148h136v-148h-136zM128 584v148h136v-148h-136z" />
    <glyph glyph-name="divide" unicode="&#xf7;" horiz-adv-x="646" 
d="M255 484v119h135v-119h-135zM67 287v127h512v-127h-512zM255 96v119h135v-119h-135z" />
    <glyph glyph-name="oslash" unicode="&#xf8;" horiz-adv-x="609" 
d="M527 443q50 -68 50 -177q0 -74 -24 -130t-64 -87t-86.5 -45.5t-97.5 -14.5q-87 0 -153 38l-64 -69l-63 61l61 66q-54 70 -54 181q0 75 24 131t64.5 87t86.5 45.5t98 14.5q91 0 158 -42l58 64l63 -60zM196 200l179 203q-26 26 -70 26q-57 0 -86.5 -44t-29.5 -120
q0 -37 7 -65zM415 324l-179 -200q29 -24 69 -24q57 0 86 44.5t29 120.5q0 29 -5 59z" />
    <glyph glyph-name="ugrave" unicode="&#xf9;" horiz-adv-x="618" 
d="M212 -11q-72 0 -114 38t-42 117v389h161v-342q0 -74 63 -74q53 0 116 54v362h161v-533h-161v83q-73 -94 -184 -94zM284 590l-149 173h162l93 -173h-106z" />
    <glyph glyph-name="uacute" unicode="&#xfa;" horiz-adv-x="618" 
d="M212 -11q-72 0 -114 38t-42 117v389h161v-342q0 -74 63 -74q53 0 116 54v362h161v-533h-161v83q-73 -94 -184 -94zM219 590l93 173h162l-149 -173h-106z" />
    <glyph glyph-name="ucircumflex" unicode="&#xfb;" horiz-adv-x="618" 
d="M212 -11q-72 0 -114 38t-42 117v389h161v-342q0 -74 63 -74q53 0 116 54v362h161v-533h-161v83q-73 -94 -184 -94zM123 592l129 171h108l129 -171h-91l-93 74l-90 -74h-92z" />
    <glyph glyph-name="udieresis" unicode="&#xfc;" horiz-adv-x="618" 
d="M212 -11q-72 0 -114 38t-42 117v389h161v-342q0 -74 63 -74q53 0 116 54v362h161v-533h-161v83q-73 -94 -184 -94zM342 584v148h136v-148h-136zM130 584v148h136v-148h-136z" />
    <glyph glyph-name="yacute" unicode="&#xfd;" horiz-adv-x="560" 
d="M145 -204q-85 0 -152 19l34 124q53 -14 101 -14q50 0 68 46l10 26l-204 536h166l117 -346h2l118 346h156l-224 -589q-29 -74 -72.5 -111t-119.5 -37zM186 590l93 173h162l-149 -173h-106z" />
    <glyph glyph-name="thorn" unicode="&#xfe;" horiz-adv-x="624" 
d="M61 -200v940h161v-288q67 92 164 92q94 0 149.5 -71.5t55.5 -205.5t-56 -204.5t-151 -70.5q-99 0 -162 71v-263h-161zM329 113q50 0 75.5 39.5t25.5 113.5q0 145 -103 145q-53 0 -105 -52v-197q52 -49 107 -49z" />
    <glyph glyph-name="ydieresis" unicode="&#xff;" horiz-adv-x="560" 
d="M145 -204q-85 0 -152 19l34 124q53 -14 101 -14q50 0 68 46l10 26l-204 536h166l117 -346h2l118 346h156l-224 -589q-29 -74 -72.5 -111t-119.5 -37zM322 584v148h136v-148h-136zM110 584v148h136v-148h-136z" />
    <glyph glyph-name="dotlessi" unicode="&#x131;" horiz-adv-x="294" 
d="M67 0v533h160v-533h-160z" />
    <glyph glyph-name="Lslash" unicode="&#x141;" horiz-adv-x="586" 
d="M77 0v321l-81 -21v121l81 22v297h162v-254l142 38v-122l-142 -37v-233h326v-132h-488z" />
    <glyph glyph-name="lslash" unicode="&#x142;" horiz-adv-x="338" 
d="M90 0v292l-68 -18v117l68 19v330h160v-287l66 18v-117l-66 -18v-336h-160z" />
    <glyph glyph-name="OE" unicode="&#x152;" horiz-adv-x="1130" 
d="M389 -14q-69 0 -130.5 24t-111 70t-78.5 121t-29 169t29 169t78.5 121t111 70t130.5 24q118 0 201 -77v63h487v-136h-341v-159h247v-129h-247v-184h359v-132h-505v64q-84 -78 -201 -78zM389 117q85 0 135 68.5t50 184.5t-49.5 182.5t-135.5 66.5q-87 0 -137 -66.5
t-50 -182.5t50.5 -184.5t136.5 -68.5z" />
    <glyph glyph-name="oe" unicode="&#x153;" horiz-adv-x="953" 
d="M304 -11q-51 0 -97.5 14.5t-86.5 45.5t-64 87t-24 130q0 75 23.5 131t64 87t86.5 45.5t98 14.5q121 0 188 -100q70 100 184 100q48 0 88 -13t77.5 -44t59 -92t21.5 -148v-24h-352q10 -121 123 -121q88 0 157 63l63 -96q-94 -80 -232 -80q-124 0 -192 94q-64 -94 -185 -94
zM571 318h207q-12 110 -103 110q-39 0 -67 -27t-37 -83zM304 106q111 0 111 159q0 72 -26.5 115t-84.5 43q-111 0 -111 -158q0 -159 111 -159z" />
    <glyph glyph-name="Scaron" unicode="&#x160;" horiz-adv-x="692" 
d="M351 -14q-221 0 -315 182l123 73q31 -60 83.5 -93t116.5 -33q58 0 93.5 22t35.5 63q0 39 -35 62t-115 45q-126 35 -172 61q-98 55 -98 165q0 102 73 161.5t194 59.5q194 0 294 -152l-113 -86q-29 48 -78.5 76.5t-103.5 28.5q-51 0 -79 -20t-28 -54q0 -41 35 -62.5
t117 -44.5q50 -13 79 -22.5t70 -29t63.5 -41t39 -57t16.5 -79.5q0 -96 -75 -160.5t-221 -64.5zM290 789l-129 171h92l90 -74l92 74h92l-129 -171h-108z" />
    <glyph glyph-name="scaron" unicode="&#x161;" horiz-adv-x="534" 
d="M271 -11q-153 0 -249 82l64 90q36 -32 86 -50.5t99 -18.5q39 0 62 13.5t23 38.5q0 27 -22.5 40.5t-78.5 23.5q-38 7 -61.5 12.5t-55 18t-49 29t-30.5 44t-13 63.5q0 79 58 124t149 45q140 0 234 -75l-63 -91q-85 58 -157 58q-34 0 -53 -12.5t-19 -34.5q0 -23 21.5 -35.5
t73.5 -21.5q50 -8 80 -16.5t65.5 -26t53 -47.5t17.5 -73q0 -91 -67 -135.5t-168 -44.5zM211 593l-129 171h92l90 -74l92 74h92l-129 -171h-108z" />
    <glyph glyph-name="Ydieresis" unicode="&#x178;" horiz-adv-x="691" 
d="M264 0v314l-255 426h168l169 -288l170 288h166l-256 -426v-314h-162zM383 778v148h136v-148h-136zM171 778v148h136v-148h-136z" />
    <glyph glyph-name="Zcaron" unicode="&#x17d;" horiz-adv-x="660" 
d="M30 0v112l386 493h-361v135h566v-116l-378 -492h378v-132h-591zM282 789l-129 171h92l90 -74l92 74h92l-129 -171h-108z" />
    <glyph glyph-name="zcaron" unicode="&#x17e;" horiz-adv-x="530" 
d="M29 0v83l258 333h-239v117h438v-85l-259 -334h279v-114h-477zM213 593l-129 171h92l90 -74l92 74h92l-129 -171h-108z" />
    <glyph glyph-name="florin" unicode="&#x192;" horiz-adv-x="420" 
d="M-90 -196l14 108q16 -4 46 -4q38 0 59 18.5t26 60.5l51 397h-92l14 112h92l9 74q9 80 54 127t154 47q62 0 97 -7l-15 -112q-16 4 -46 4q-36 0 -58 -12.5t-26 -51.5l-8 -69h116l-14 -112h-116l-55 -429q-4 -33 -14.5 -58.5t-32 -49.5t-62 -37t-97.5 -13q-64 0 -96 7z" />
    <glyph glyph-name="circumflex" unicode="&#x2c6;" horiz-adv-x="553" 
d="M93 592l129 171h108l129 -171h-91l-93 74l-90 -74h-92z" />
    <glyph glyph-name="caron" unicode="&#x2c7;" horiz-adv-x="553" 
d="M221 593l-129 171h92l90 -74l92 74h92l-129 -171h-108z" />
    <glyph glyph-name="breve" unicode="&#x2d8;" horiz-adv-x="500" 
d="M250 579q-82 0 -127.5 51.5t-49.5 133.5h86q11 -84 91 -84t91 84h86q-4 -82 -49.5 -133.5t-127.5 -51.5z" />
    <glyph glyph-name="dotaccent" unicode="&#x2d9;" horiz-adv-x="500" 
d="M167 602v131h166v-131h-166z" />
    <glyph glyph-name="ring" unicode="&#x2da;" horiz-adv-x="540" 
d="M270 581q-47 0 -78.5 31.5t-31.5 78.5q0 46 31.5 77t78.5 31t78.5 -31t31.5 -77q0 -47 -31.5 -78.5t-78.5 -31.5zM270 642q20 0 33 13.5t13 35.5q0 20 -13 33.5t-33 13.5t-33 -13.5t-13 -33.5q0 -22 13 -35.5t33 -13.5z" />
    <glyph glyph-name="ogonek" unicode="&#x2db;" horiz-adv-x="500" 
d="M268 -187q-54 0 -83 20.5t-29 56.5q0 58 82 110h85q-60 -41 -60 -84q0 -39 46 -39q35 0 83 25l31 -49q-68 -40 -155 -40z" />
    <glyph glyph-name="tilde" unicode="&#x2dc;" horiz-adv-x="523" 
d="M338 580q-40 0 -83 28t-61 28q-41 0 -41 -54h-87q0 159 119 159q40 0 83 -28t61 -28q41 0 41 54h86q0 -159 -118 -159z" />
    <glyph glyph-name="hungarumlaut" unicode="&#x2dd;" horiz-adv-x="526" 
d="M240 590l112 173h162l-167 -173h-107zM49 590l104 173h162l-160 -173h-106z" />
    <glyph glyph-name="Delta" unicode="&#x394;" horiz-adv-x="659" 
d="M429 597v138h162v-138h-162zM109 0v416h-89v117h89v37q0 174 166 174q58 0 90 -7v-111q-9 3 -39 3q-57 0 -57 -64v-32h98v-117h-98v-416h-160zM417 -203q-67 0 -98 7v109q18 -6 46 -6q33 0 49 17t16 56v553h160v-584q0 -32 -6 -55.5t-23 -47.5t-53.5 -36.5t-90.5 -12.5z
" />
    <glyph glyph-name="Omega" unicode="&#x3a9;" horiz-adv-x="760" 
d="M254 598l67 -6l-25 148h168l-25 -148l66 6l-2 26h117l-1 -16l16 2v-117l-27 2l-6 -67l148 25v-168l-148 25l6 -65l27 2v-117l-17 1l2 -17h-117l2 27l-66 6l25 -147h-168l25 147l-66 -6l2 -27h-117l2 17l-17 -1v117l26 -2l6 65l-147 -25v168l147 -25l-6 67l-26 -2v117
l16 -1l-1 15h117zM513 503l-74 6v-81h80zM321 428v81l-74 -6l-7 -75h81zM439 310v-80l74 6l6 74h-80zM246 237l75 -7v80h-81z" />
    <glyph glyph-name="mu" unicode="&#x3bc;" horiz-adv-x="623" 
d="M61 -200v733h161v-339q0 -73 63 -73q55 0 116 54v358h161v-533h-161v83q-55 -67 -126 -84q-34 -5 -53 4v-203h-161z" />
    <glyph glyph-name="pi" unicode="&#x3c0;" horiz-adv-x="867" 
d="M432 -14q-163 0 -272.5 110t-109.5 272q0 163 111 274.5t274 111.5q162 0 272 -110t110 -272q0 -163 -111.5 -274.5t-273.5 -111.5zM435 56q132 0 218.5 89t86.5 223q0 135 -88 225.5t-220 90.5t-218.5 -89t-86.5 -223q0 -135 88 -225.5t220 -90.5zM293 165v417h162
q162 0 162 -133q0 -69 -45 -103t-124 -34h-56v-147h-99zM392 390h60q67 0 67 54t-68 54h-59v-108z" />
    <glyph glyph-name="endash" unicode="&#x2013;" horiz-adv-x="678" 
d="M55 244v135h568v-135h-568z" />
    <glyph glyph-name="emdash" unicode="&#x2014;" horiz-adv-x="943" 
d="M55 243v136h833v-136h-833z" />
    <glyph glyph-name="quoteleft" unicode="&#x2018;" horiz-adv-x="282" 
d="M58 465v142l77 133h75l-43 -120h56v-155h-165z" />
    <glyph glyph-name="quoteright" unicode="&#x2019;" horiz-adv-x="282" 
d="M72 465l42 120h-56v155h165v-142l-76 -133h-75z" />
    <glyph glyph-name="quotesinglbase" unicode="&#x201a;" horiz-adv-x="282" 
d="M72 -120l42 120h-56v155h165v-141l-76 -134h-75z" />
    <glyph glyph-name="quotedblleft" unicode="&#x201c;" horiz-adv-x="520" 
d="M297 465v142l77 133h74l-42 -120h56v-155h-165zM58 465v142l77 133h75l-43 -120h56v-155h-165z" />
    <glyph glyph-name="quotedblright" unicode="&#x201d;" horiz-adv-x="520" 
d="M311 465l42 120h-56v155h165v-142l-77 -133h-74zM72 465l42 120h-56v155h165v-142l-76 -133h-75z" />
    <glyph glyph-name="quotedblbase" unicode="&#x201e;" horiz-adv-x="520" 
d="M311 -120l42 120h-56v155h165v-141l-77 -134h-74zM72 -120l42 120h-56v155h165v-141l-76 -134h-75z" />
    <glyph glyph-name="dagger" unicode="&#x2020;" horiz-adv-x="611" 
d="M221 -200l25 568l-216 -16v147l216 -18l-25 259h168l-25 -259l216 18v-147l-216 16l25 -568h-168z" />
    <glyph glyph-name="daggerdbl" unicode="&#x2021;" horiz-adv-x="611" 
d="M221 -200l25 205l-196 -18v140l196 -17l-21 160l21 159l-196 -16v139l196 -17l-25 205h168l-25 -205l196 17v-139l-196 16l21 -159l-21 -160l196 17v-140l-196 18l25 -205h-168z" />
    <glyph glyph-name="bullet" unicode="&#x2022;" horiz-adv-x="463" 
d="M231 214q-59 0 -97.5 39t-38.5 97q0 59 38.5 98t97.5 39t98 -39t39 -98t-39 -97.5t-98 -38.5z" />
    <glyph glyph-name="ellipsis" unicode="&#x2026;" horiz-adv-x="845" 
d="M618 0v155h172v-155h-172zM336 0v155h172v-155h-172zM55 0v155h172v-155h-172z" />
    <glyph glyph-name="perthousand" unicode="&#x2030;" horiz-adv-x="1555" 
d="M244 268q-94 0 -147.5 65.5t-53.5 176.5t54 176.5t147 65.5q92 0 145.5 -65.5t53.5 -175.5t-53.5 -176.5t-145.5 -66.5zM264 0l442 740h138l-442 -740h-138zM1312 -10q-93 0 -146.5 66t-53.5 176q0 111 54 177t146 66t145.5 -66t53.5 -176t-53.5 -176.5t-145.5 -66.5z
M865 -10q-93 0 -146.5 66t-53.5 176q0 111 54 177t147 66q92 0 145.5 -66t53.5 -176t-53.5 -176.5t-146.5 -66.5zM244 369q67 0 67 141q0 139 -67 139q-69 0 -69 -138q0 -142 69 -142zM1312 92q67 0 67 141q0 138 -67 138q-69 0 -69 -138q0 -141 69 -141zM866 92
q67 0 67 141q0 138 -68 138t-68 -138q0 -141 69 -141z" />
    <glyph glyph-name="guilsinglleft" unicode="&#x2039;" horiz-adv-x="373" 
d="M190 0l-166 267l166 266h153l-159 -266l159 -267h-153z" />
    <glyph glyph-name="guilsinglright" unicode="&#x203a;" horiz-adv-x="373" 
d="M30 0l159 267l-159 266h153l166 -266l-166 -267h-153z" />
    <glyph glyph-name="fraction" unicode="&#x2044;" horiz-adv-x="544" 
d="M-17 0l440 740h138l-439 -740h-139z" />
    <glyph glyph-name="Euro" unicode="&#x20ac;" horiz-adv-x="737" 
d="M124 397h-103v86h112q24 134 103.5 202.5t190.5 68.5t174 -51.5t94 -148.5l-138 -51q-21 64 -48 94t-79 30q-111 0 -139 -144h159v-86h-169v-25q0 -29 1 -43h168v-87h-158q29 -132 140 -132q48 0 78.5 32.5t50.5 102.5l140 -44q-66 -215 -270 -215q-113 0 -191 63.5
t-104 192.5h-115v87h104q-1 14 -1 42v26z" />
    <glyph glyph-name="trademark" unicode="&#x2122;" horiz-adv-x="925" 
d="M428 317v423h149l77 -281l78 281h147v-423h-106v276l-79 -276h-90l-79 274v-274h-97zM144 317v333h-116v90h341v-90h-116v-333h-109z" />
    <glyph glyph-name="partialdiff" unicode="&#x2202;" horiz-adv-x="760" 
d="M254 598l67 -6l-25 148h168l-25 -148l66 6l-2 26h117l-1 -16l16 2v-117l-27 2l-6 -67l148 25v-168l-148 25l6 -65l27 2v-117l-17 1l2 -17h-117l2 27l-66 6l25 -147h-168l25 147l-66 -6l2 -27h-117l2 17l-17 -1v117l26 -2l6 65l-147 -25v168l147 -25l-6 67l-26 -2v117
l16 -1l-1 15h117zM513 503l-74 6v-81h80zM321 428v81l-74 -6l-7 -75h81zM439 310v-80l74 6l6 74h-80zM246 237l75 -7v80h-81z" />
    <glyph glyph-name="product" unicode="&#x220f;" horiz-adv-x="528" 
d="M263 293q-98 0 -164 66t-66 164t67 165t165 67q97 0 163.5 -66.5t66.5 -163.5q0 -98 -67 -165t-165 -67zM265 337q79 0 131 53t52 133t-53 134t-132 54t-130.5 -53t-51.5 -133t52.5 -134t131.5 -54zM172 403v252h99q97 0 97 -83q0 -54 -45 -73l49 -96l-64 1l-44 87h-30
v-88h-62zM234 536h33q41 0 41 33q0 32 -42 32h-32v-65z" />
    <glyph glyph-name="summation" unicode="&#x2211;" horiz-adv-x="760" 
d="M254 598l67 -6l-25 148h168l-25 -148l66 6l-2 26h117l-1 -16l16 2v-117l-27 2l-6 -67l148 25v-168l-148 25l6 -65l27 2v-117l-17 1l2 -17h-117l2 27l-66 6l25 -147h-168l25 147l-66 -6l2 -27h-117l2 17l-17 -1v117l26 -2l6 65l-147 -25v168l147 -25l-6 67l-26 -2v117
l16 -1l-1 15h117zM513 503l-74 6v-81h80zM321 428v81l-74 -6l-7 -75h81zM439 310v-80l74 6l6 74h-80zM246 237l75 -7v80h-81z" />
    <glyph glyph-name="minus" unicode="&#x2212;" horiz-adv-x="646" 
d="M67 287v127h512v-127h-512z" />
    <glyph glyph-name="radical" unicode="&#x221a;" horiz-adv-x="559" 
d="M189 -1l-191 534h166l112 -355h2l179 562h151l-257 -741h-162z" />
    <glyph glyph-name="infinity" unicode="&#x221e;" horiz-adv-x="978" 
d="M750 597v138h161v-138h-161zM109 0v416h-89v117h89v37q0 174 166 174q58 0 90 -7v-111q-9 3 -39 3q-57 0 -57 -64v-32h161v37q0 174 166 174q55 0 90 -7v-111q-9 3 -40 3q-56 0 -56 -64v-32h97v-117h-97v-416h-160v416h-161v-416h-160zM750 0v533h161v-533h-161z" />
    <glyph glyph-name="integral" unicode="&#x222b;" horiz-adv-x="760" 
d="M254 598l67 -6l-25 148h168l-25 -148l66 6l-2 26h117l-1 -16l16 2v-117l-27 2l-6 -67l148 25v-168l-148 25l6 -65l27 2v-117l-17 1l2 -17h-117l2 27l-66 6l25 -147h-168l25 147l-66 -6l2 -27h-117l2 17l-17 -1v117l26 -2l6 65l-147 -25v168l147 -25l-6 67l-26 -2v117
l16 -1l-1 15h117zM513 503l-74 6v-81h80zM321 428v81l-74 -6l-7 -75h81zM439 310v-80l74 6l6 74h-80zM246 237l75 -7v80h-81z" />
    <glyph glyph-name="approxequal" unicode="&#x2248;" horiz-adv-x="760" 
d="M254 598l67 -6l-25 148h168l-25 -148l66 6l-2 26h117l-1 -16l16 2v-117l-27 2l-6 -67l148 25v-168l-148 25l6 -65l27 2v-117l-17 1l2 -17h-117l2 27l-66 6l25 -147h-168l25 147l-66 -6l2 -27h-117l2 17l-17 -1v117l26 -2l6 65l-147 -25v168l147 -25l-6 67l-26 -2v117
l16 -1l-1 15h117zM513 503l-74 6v-81h80zM321 428v81l-74 -6l-7 -75h81zM439 310v-80l74 6l6 74h-80zM246 237l75 -7v80h-81z" />
    <glyph glyph-name="notequal" unicode="&#x2260;" horiz-adv-x="733" 
d="M109 0v416h-89v117h89v37q0 174 166 174q58 0 90 -7v-111q-9 3 -39 3q-57 0 -57 -64v-32h161v37q0 80 38.5 127t146.5 47q65 0 97 -7v-112q-18 4 -47 4q-36 0 -55.5 -12.5t-19.5 -51.5v-32h116v-117h-116v-416h-160v416h-161v-416h-160z" />
    <glyph glyph-name="lessequal" unicode="&#x2264;" horiz-adv-x="760" 
d="M254 598l67 -6l-25 148h168l-25 -148l66 6l-2 26h117l-1 -16l16 2v-117l-27 2l-6 -67l148 25v-168l-148 25l6 -65l27 2v-117l-17 1l2 -17h-117l2 27l-66 6l25 -147h-168l25 147l-66 -6l2 -27h-117l2 17l-17 -1v117l26 -2l6 65l-147 -25v168l147 -25l-6 67l-26 -2v117
l16 -1l-1 15h117zM513 503l-74 6v-81h80zM321 428v81l-74 -6l-7 -75h81zM439 310v-80l74 6l6 74h-80zM246 237l75 -7v80h-81z" />
    <glyph glyph-name="greaterequal" unicode="&#x2265;" horiz-adv-x="760" 
d="M254 598l67 -6l-25 148h168l-25 -148l66 6l-2 26h117l-1 -16l16 2v-117l-27 2l-6 -67l148 25v-168l-148 25l6 -65l27 2v-117l-17 1l2 -17h-117l2 27l-66 6l25 -147h-168l25 147l-66 -6l2 -27h-117l2 17l-17 -1v117l26 -2l6 65l-147 -25v168l147 -25l-6 67l-26 -2v117
l16 -1l-1 15h117zM513 503l-74 6v-81h80zM321 428v81l-74 -6l-7 -75h81zM439 310v-80l74 6l6 74h-80zM246 237l75 -7v80h-81z" />
    <glyph glyph-name="lozenge" unicode="&#x25ca;" horiz-adv-x="760" 
d="M254 598l67 -6l-25 148h168l-25 -148l66 6l-2 26h117l-1 -16l16 2v-117l-27 2l-6 -67l148 25v-168l-148 25l6 -65l27 2v-117l-17 1l2 -17h-117l2 27l-66 6l25 -147h-168l25 147l-66 -6l2 -27h-117l2 17l-17 -1v117l26 -2l6 65l-147 -25v168l147 -25l-6 67l-26 -2v117
l16 -1l-1 15h117zM513 503l-74 6v-81h80zM321 428v81l-74 -6l-7 -75h81zM439 310v-80l74 6l6 74h-80zM246 237l75 -7v80h-81z" />
    <glyph glyph-name="fi" unicode="&#xfb01;" horiz-adv-x="663" 
d="M429 597v138h162v-138h-162zM109 0v416h-89v117h89v37q0 174 166 174q58 0 90 -7v-111q-9 3 -39 3q-57 0 -57 -64v-32h98v-117h-98v-416h-160zM430 0v533h160v-533h-160z" />
    <glyph glyph-name="fl" unicode="&#xfb02;" horiz-adv-x="659" 
d="M109 0v416h-89v117h89v37q0 174 166 174q58 0 90 -7v-111q-9 3 -39 3q-57 0 -57 -64v-32h98v-117h-98v-416h-160zM430 0v740h160v-740h-160z" />
    <glyph glyph-name="NUL" horiz-adv-x="0" 
 />
    <glyph glyph-name="apple" horiz-adv-x="760" 
d="M254 598l67 -6l-25 148h168l-25 -148l66 6l-2 26h117l-1 -16l16 2v-117l-27 2l-6 -67l148 25v-168l-148 25l6 -65l27 2v-117l-17 1l2 -17h-117l2 27l-66 6l25 -147h-168l25 147l-66 -6l2 -27h-117l2 17l-17 -1v117l26 -2l6 65l-147 -25v168l147 -25l-6 67l-26 -2v117
l16 -1l-1 15h117zM513 503l-74 6v-81h80zM321 428v81l-74 -6l-7 -75h81zM439 310v-80l74 6l6 74h-80zM246 237l75 -7v80h-81z" />
  </font>
</defs>
</svg>
